  0
SECTION
  2
HEADER
  9
$ACADVER
  1
AC1018
  9
$ACADMAINTVER
 70
     0
  9
$DWGCODEPAGE
  3
ANSI_932
  9
$INSBASE
 10
0.0
 20
0.0
 30
0.0
  9
$EXTMIN
 10
55.48496634269318
 20
92.7309468032193
 30
0.0
  9
$EXTMAX
 10
153.2093140294602
 20
226.7309507132828
 30
0.0
  9
$LIMMIN
 10
0.0
 20
0.0
  9
$LIMMAX
 10
210.0
 20
297.0
  9
$ORTHOMODE
 70
     0
  9
$REGENMODE
 70
     1
  9
$FILLMODE
 70
     1
  9
$QTEXTMODE
 70
     0
  9
$MIRRTEXT
 70
     1
  9
$LTSCALE
 40
0.25
  9
$ATTMODE
 70
     1
  9
$TEXTSIZE
 40
5.0
  9
$TRACEWID
 40
0.05
  9
$TEXTSTYLE
  7
Standard
  9
$CLAYER
  8
0
  9
$CELTYPE
  6
ByLayer
  9
$CECOLOR
 62
   256
  9
$CELTSCALE
 40
1.0
  9
$DISPSILH
 70
     0
  9
$DIMSCALE
 40
1.0
  9
$DIMASZ
 40
4.0
  9
$DIMEXO
 40
2.0
  9
$DIMDLI
 40
10.0
  9
$DIMRND
 40
0.0
  9
$DIMDLE
 40
0.0
  9
$DIMEXE
 40
2.0
  9
$DIMTP
 40
0.0
  9
$DIMTM
 40
0.0
  9
$DIMTXT
 40
3.5
  9
$DIMCEN
 40
0.09
  9
$DIMTSZ
 40
0.0
  9
$DIMTOL
 70
     0
  9
$DIMLIM
 70
     0
  9
$DIMTIH
 70
     0
  9
$DIMTOH
 70
     0
  9
$DIMSE1
 70
     0
  9
$DIMSE2
 70
     0
  9
$DIMTAD
 70
     3
  9
$DIMZIN
 70
     8
  9
$DIMBLK
  1

  9
$DIMASO
 70
     1
  9
$DIMSHO
 70
     1
  9
$DIMPOST
  1

  9
$DIMAPOST
  1

  9
$DIMALT
 70
     0
  9
$DIMALTD
 70
     2
  9
$DIMALTF
 40
25.4
  9
$DIMLFAC
 40
1.0
  9
$DIMTOFL
 70
     1
  9
$DIMTVP
 40
0.7
  9
$DIMTIX
 70
     0
  9
$DIMSOXD
 70
     0
  9
$DIMSAH
 70
     0
  9
$DIMBLK1
  1

  9
$DIMBLK2
  1

  9
$DIMSTYLE
  2
Standard
  9
$DIMCLRD
 70
     0
  9
$DIMCLRE
 70
     0
  9
$DIMCLRT
 70
     0
  9
$DIMTFAC
 40
0.5
  9
$DIMGAP
 40
0.09
  9
$DIMJUST
 70
     0
  9
$DIMSD1
 70
     0
  9
$DIMSD2
 70
     0
  9
$DIMTOLJ
 70
     1
  9
$DIMTZIN
 70
     8
  9
$DIMALTZ
 70
     0
  9
$DIMALTTZ
 70
     0
  9
$DIMUPT
 70
     1
  9
$DIMDEC
 70
     2
  9
$DIMTDEC
 70
     4
  9
$DIMALTU
 70
     2
  9
$DIMALTTD
 70
     2
  9
$DIMTXSTY
  7
Standard
  9
$DIMAUNIT
 70
     0
  9
$DIMADEC
 70
     0
  9
$DIMALTRND
 40
0.0
  9
$DIMAZIN
 70
     0
  9
$DIMDSEP
 70
    46
  9
$DIMATFIT
 70
     2
  9
$DIMFRAC
 70
     0
  9
$DIMLDRBLK
  1

  9
$DIMLUNIT
 70
     2
  9
$DIMLWD
 70
    -2
  9
$DIMLWE
 70
    -2
  9
$DIMTMOVE
 70
     2
  9
$LUNITS
 70
     2
  9
$LUPREC
 70
     4
  9
$SKETCHINC
 40
0.1
  9
$FILLETRAD
 40
0.5
  9
$AUNITS
 70
     0
  9
$AUPREC
 70
     0
  9
$MENU
  1
.
  9
$ELEVATION
 40
0.0
  9
$PELEVATION
 40
0.0
  9
$THICKNESS
 40
0.0
  9
$LIMCHECK
 70
     0
  9
$CHAMFERA
 40
0.5
  9
$CHAMFERB
 40
0.5
  9
$CHAMFERC
 40
1.0
  9
$CHAMFERD
 40
0.0
  9
$SKPOLY
 70
     0
  9
$TDCREATE
 40
2457626.980486111
  9
$TDUCREATE
 40
2457626.605486111
  9
$TDUPDATE
 40
2457626.605491296
  9
$TDUUPDATE
 40
2457626.230491296
  9
$TDINDWG
 40
0.0000000116
  9
$TDUSRTIMER
 40
0.0000000116
  9
$USRTIMER
 70
     1
  9
$ANGBASE
 50
0.0
  9
$ANGDIR
 70
     0
  9
$PDMODE
 70
     0
  9
$PDSIZE
 40
0.0
  9
$PLINEWID
 40
0.0
  9
$SPLFRAME
 70
     0
  9
$SPLINETYPE
 70
     6
  9
$SPLINESEGS
 70
     8
  9
$HANDSEED
  5
670
  9
$SURFTAB1
 70
     6
  9
$SURFTAB2
 70
     6
  9
$SURFTYPE
 70
     6
  9
$SURFU
 70
     6
  9
$SURFV
 70
     6
  9
$UCSBASE
  2

  9
$UCSNAME
  2

  9
$UCSORG
 10
0.0
 20
0.0
 30
0.0
  9
$UCSXDIR
 10
1.0
 20
0.0
 30
0.0
  9
$UCSYDIR
 10
0.0
 20
1.0
 30
0.0
  9
$UCSORTHOREF
  2

  9
$UCSORTHOVIEW
 70
     0
  9
$UCSORGTOP
 10
0.0
 20
0.0
 30
0.0
  9
$UCSORGBOTTOM
 10
0.0
 20
0.0
 30
0.0
  9
$UCSORGLEFT
 10
0.0
 20
0.0
 30
0.0
  9
$UCSORGRIGHT
 10
0.0
 20
0.0
 30
0.0
  9
$UCSORGFRONT
 10
0.0
 20
0.0
 30
0.0
  9
$UCSORGBACK
 10
0.0
 20
0.0
 30
0.0
  9
$PUCSBASE
  2

  9
$PUCSNAME
  2

  9
$PUCSORG
 10
0.0
 20
0.0
 30
0.0
  9
$PUCSXDIR
 10
1.0
 20
0.0
 30
0.0
  9
$PUCSYDIR
 10
0.0
 20
1.0
 30
0.0
  9
$PUCSORTHOREF
  2

  9
$PUCSORTHOVIEW
 70
     0
  9
$PUCSORGTOP
 10
0.0
 20
0.0
 30
0.0
  9
$PUCSORGBOTTOM
 10
0.0
 20
0.0
 30
0.0
  9
$PUCSORGLEFT
 10
0.0
 20
0.0
 30
0.0
  9
$PUCSORGRIGHT
 10
0.0
 20
0.0
 30
0.0
  9
$PUCSORGFRONT
 10
0.0
 20
0.0
 30
0.0
  9
$PUCSORGBACK
 10
0.0
 20
0.0
 30
0.0
  9
$USERI1
 70
     0
  9
$USERI2
 70
     0
  9
$USERI3
 70
     0
  9
$USERI4
 70
     0
  9
$USERI5
 70
     0
  9
$USERR1
 40
0.0
  9
$USERR2
 40
0.0
  9
$USERR3
 40
0.0
  9
$USERR4
 40
0.0
  9
$USERR5
 40
0.0
  9
$WORLDVIEW
 70
     1
  9
$SHADEDGE
 70
     3
  9
$SHADEDIF
 70
    70
  9
$TILEMODE
 70
     1
  9
$MAXACTVP
 70
    64
  9
$PINSBASE
 10
0.0
 20
0.0
 30
0.0
  9
$PLIMCHECK
 70
     0
  9
$PEXTMIN
 10
0.0
 20
0.0
 30
0.0
  9
$PEXTMAX
 10
210.0
 20
297.0
 30
0.0
  9
$PLIMMIN
 10
0.0
 20
0.0
  9
$PLIMMAX
 10
210.0
 20
297.0
  9
$UNITMODE
 70
     0
  9
$VISRETAIN
 70
     1
  9
$PLINEGEN
 70
     0
  9
$PSLTSCALE
 70
     1
  9
$TREEDEPTH
 70
  3020
  9
$CMLSTYLE
  2
Standard
  9
$CMLJUST
 70
     0
  9
$CMLSCALE
 40
1.0
  9
$PROXYGRAPHICS
 70
     1
  9
$MEASUREMENT
 70
     1
  9
$CELWEIGHT
370
    -1
  9
$ENDCAPS
280
     0
  9
$JOINSTYLE
280
     0
  9
$LWDISPLAY
290
     0
  9
$INSUNITS
 70
     4
  9
$HYPERLINKBASE
  1

  9
$STYLESHEET
  1

  9
$XEDIT
290
     1
  9
$CEPSNTYPE
380
     0
  9
$PSTYLEMODE
290
     1
  9
$FINGERPRINTGUID
  2
{F216AD8E-AA65-4DC6-98BA-A999318BFA1D}
  9
$VERSIONGUID
  2
{FAEB1C32-E019-11D5-929B-00C0DF256EC4}
  9
$EXTNAMES
290
     1
  9
$PSVPSCALE
 40
0.0
  9
$OLESTARTUP
290
     0
  9
$SORTENTS
280
   127
  9
$INDEXCTL
280
     0
  9
$HIDETEXT
280
     1
  9
$XCLIPFRAME
290
     0
  9
$HALOGAP
280
     0
  9
$OBSCOLOR
 70
   257
  9
$OBSLTYPE
280
     0
  9
$INTERSECTIONDISPLAY
280
     0
  9
$INTERSECTIONCOLOR
 70
   257
  9
$DIMASSOC
280
     1
  9
$PROJECTNAME
  1

  0
ENDSEC
  0
SECTION
  2
CLASSES
  0
CLASS
  1
ACDBDICTIONARYWDFLT
  2
AcDbDictionaryWithDefault
  3
ObjectDBX Classes
 90
        0
 91
        4
280
     0
281
     0
  0
CLASS
  1
VISUALSTYLE
  2
AcDbVisualStyle
  3
ObjectDBX Classes
 90
     4095
 91
        4
280
     0
281
     0
  0
CLASS
  1
MATERIAL
  2
AcDbMaterial
  3
ObjectDBX Classes
 90
     1153
 91
        4
280
     0
281
     0
  0
ENDSEC
  0
SECTION
  2
TABLES
  0
TABLE
  2
VPORT
  5
8
330
0
100
AcDbSymbolTable
 70
     1
  0
VPORT
  5
29
330
8
100
AcDbSymbolTableRecord
100
AcDbViewportTableRecord
  2
*Active
 70
     0
 10
0.0
 20
0.0
 11
1.0
 21
1.0
 12
10.42990654205607
 22
4.5
 13
0.0
 23
0.0
 14
0.5
 24
0.5
 15
0.5
 25
0.5
 16
0.0
 26
0.0
 36
1.0
 17
0.0
 27
0.0
 37
0.0
 40
9.0
 41
1.972972972850329
 42
50.0
 43
0.0
 44
0.0
 50
0.0
 51
0.0
 71
     0
 72
   100
 73
     1
 74
     3
 75
     0
 76
     0
 77
     0
 78
     0
281
     0
 65
     1
110
0.0
120
0.0
130
0.0
111
1.0
121
0.0
131
0.0
112
0.0
122
1.0
132
0.0
 79
     0
146
0.0
  0
ENDTAB
  0
TABLE
  2
LTYPE
  5
5
330
0
100
AcDbSymbolTable
 70
     9
  0
LTYPE
  5
14
330
5
100
AcDbSymbolTableRecord
100
AcDbLinetypeTableRecord
  2
ByBlock
 70
     0
  3

 72
    65
 73
     0
 40
0.0
  0
LTYPE
  5
15
330
5
100
AcDbSymbolTableRecord
100
AcDbLinetypeTableRecord
  2
ByLayer
 70
     0
  3

 72
    65
 73
     0
 40
0.0
  0
LTYPE
  5
16
330
5
100
AcDbSymbolTableRecord
100
AcDbLinetypeTableRecord
  2
Continuous
 70
     0
  3
Solid line
 72
    65
 73
     0
 40
0.0
  0
LTYPE
  5
8E
330
5
100
AcDbSymbolTableRecord
100
AcDbLinetypeTableRecord
  2
DOT
 70
     0
  3
DOT
 72
    65
 73
     2
 40
4.0
 49
6.0
 74
     0
 49
-2.0
 74
     0
  0
LTYPE
  5
8F
330
5
100
AcDbSymbolTableRecord
100
AcDbLinetypeTableRecord
  2
HIDDEN
 70
     0
  3
HIDDEN
 72
    65
 73
     2
 40
4.2
 49
8.4
 74
     0
 49
-4.2
 74
     0
  0
LTYPE
  5
90
330
5
100
AcDbSymbolTableRecord
100
AcDbLinetypeTableRecord
  2
DASHDOT
 70
     0
  3
DASHDOT
 72
    65
 73
     4
 40
14.5
 49
30.0
 74
     0
 49
-9.0
 74
     0
 49
2.5
 74
     0
 49
-9.0
 74
     0
  0
LTYPE
  5
91
330
5
100
AcDbSymbolTableRecord
100
AcDbLinetypeTableRecord
  2
PHANTOM
 70
     0
  3
PHANTOM
 72
    65
 73
     6
 40
12.0
 49
30.0
 74
     0
 49
-9.0
 74
     0
 49
2.5
 74
     0
 49
-5.0
 74
     0
 49
2.5
 74
     0
 49
-9.0
 74
     0
  0
LTYPE
  5
92
330
5
100
AcDbSymbolTableRecord
100
AcDbLinetypeTableRecord
  2
ACAD_ISO14W100
 70
     0
  3
ACAD_ISO14W100
 72
    65
 73
     8
 40
1.5
 49
12.0
 74
     0
 49
-3.0
 74
     0
 49
0.5
 74
     0
 49
-3.0
 74
     0
 49
0.5
 74
     0
 49
-3.0
 74
     0
 49
0.5
 74
     0
 49
-3.0
 74
     0
  0
LTYPE
  5
93
330
5
100
AcDbSymbolTableRecord
100
AcDbLinetypeTableRecord
  2
ACAD_ISO06W100
 70
     0
  3
ACAD_ISO06W100
 72
    65
 73
     8
 40
13.5
 49
24.0
 74
     0
 49
-3.0
 74
     0
 49
0.5
 74
     0
 49
-3.0
 74
     0
 49
0.5
 74
     0
 49
-3.0
 74
     0
 49
0.5
 74
     0
 49
-3.0
 74
     0
  0
LTYPE
  5
94
330
5
100
AcDbSymbolTableRecord
100
AcDbLinetypeTableRecord
  2
ACAD_ISO11W100
 70
     0
  3
ACAD_ISO11W100
 72
    65
 73
     6
 40
15.5
 49
12.0
 74
     0
 49
-3.0
 74
     0
 49
12.0
 74
     0
 49
-3.0
 74
     0
 49
0.5
 74
     0
 49
-3.0
 74
     0
  0
LTYPE
  5
95
330
5
100
AcDbSymbolTableRecord
100
AcDbLinetypeTableRecord
  2
ACAD_ISO13W100
 70
     0
  3
ACAD_ISO13W100
 72
    65
 73
     8
 40
13.0
 49
12.0
 74
     0
 49
-3.0
 74
     0
 49
12.0
 74
     0
 49
-3.0
 74
     0
 49
0.5
 74
     0
 49
-3.0
 74
     0
 49
0.5
 74
     0
 49
-3.0
 74
     0
  0
ENDTAB
  0
TABLE
  2
LAYER
  5
2
330
0
100
AcDbSymbolTable
 70
    26
  0
LAYER
  5
10
330
2
100
AcDbSymbolTableRecord
100
AcDbLayerTableRecord
  2
0
 70
     0
 62
     7
  6
Continuous
370
    -3
390
F
  0
LAYER
  5
96
330
2
100
AcDbSymbolTableRecord
100
AcDbLayerTableRecord
  2
1
 70
     0
 62
     7
  6
Continuous
370
     9
390
F
  0
LAYER
  5
97
330
2
100
AcDbSymbolTableRecord
100
AcDbLayerTableRecord
  2
2
 70
     0
 62
   134
  6
Continuous
370
     9
390
F
  0
LAYER
  5
98
330
2
100
AcDbSymbolTableRecord
100
AcDbLayerTableRecord
  2
3
 70
     0
 62
   214
  6
Continuous
370
     9
390
F
  0
LAYER
  5
99
330
2
100
AcDbSymbolTableRecord
100
AcDbLayerTableRecord
  2
4
 70
     0
 62
    54
  6
Continuous
370
     9
390
F
  0
LAYER
  5
9A
330
2
100
AcDbSymbolTableRecord
100
AcDbLayerTableRecord
  2
5
 70
     0
 62
     3
  6
Continuous
370
     9
390
F
  0
LAYER
  5
9B
330
2
100
AcDbSymbolTableRecord
100
AcDbLayerTableRecord
  2
6
 70
     0
 62
    14
  6
Continuous
370
     9
390
F
  0
LAYER
  5
9C
330
2
100
AcDbSymbolTableRecord
100
AcDbLayerTableRecord
  2
7
 70
     0
 62
     4
  6
Continuous
370
     9
390
F
  0
LAYER
  5
9D
330
2
100
AcDbSymbolTableRecord
100
AcDbLayerTableRecord
  2
8
 70
     0
 62
     6
  6
Continuous
370
     9
390
F
  0
LAYER
  5
9E
330
2
100
AcDbSymbolTableRecord
100
AcDbLayerTableRecord
  2
9
 70
     0
 62
     2
  6
Continuous
370
     9
390
F
  0
LAYER
  5
9F
330
2
100
AcDbSymbolTableRecord
100
AcDbLayerTableRecord
  2
10
 70
     0
 62
     3
  6
Continuous
370
     9
390
F
  0
LAYER
  5
A0
330
2
100
AcDbSymbolTableRecord
100
AcDbLayerTableRecord
  2
11
 70
     0
 62
   251
  6
Continuous
370
     9
390
F
  0
LAYER
  5
A1
330
2
100
AcDbSymbolTableRecord
100
AcDbLayerTableRecord
  2
12
 70
     0
 62
   136
  6
Continuous
370
     9
390
F
  0
LAYER
  5
A2
330
2
100
AcDbSymbolTableRecord
100
AcDbLayerTableRecord
  2
13
 70
     0
 62
   216
  6
Continuous
370
     9
390
F
  0
LAYER
  5
A3
330
2
100
AcDbSymbolTableRecord
100
AcDbLayerTableRecord
  2
14
 70
     0
 62
    56
  6
Continuous
370
     9
390
F
  0
LAYER
  5
A4
330
2
100
AcDbSymbolTableRecord
100
AcDbLayerTableRecord
  2
15
 70
     0
 62
    96
  6
Continuous
370
     9
390
F
  0
LAYER
  5
A5
330
2
100
AcDbSymbolTableRecord
100
AcDbLayerTableRecord
  2
16
 70
     0
 62
    16
  6
Continuous
370
     9
390
F
  0
LAYER
  5
A6
330
2
100
AcDbSymbolTableRecord
100
AcDbLayerTableRecord
  2
17
 70
     0
 62
   132
  6
Continuous
370
     9
390
F
  0
LAYER
  5
A7
330
2
100
AcDbSymbolTableRecord
100
AcDbLayerTableRecord
  2
18
 70
     0
 62
   212
  6
Continuous
370
     9
390
F
  0
LAYER
  5
A8
330
2
100
AcDbSymbolTableRecord
100
AcDbLayerTableRecord
  2
19
 70
     0
 62
    52
  6
Continuous
370
     9
390
F
  0
LAYER
  5
A9
330
2
100
AcDbSymbolTableRecord
100
AcDbLayerTableRecord
  2
20
 70
     0
 62
   250
  6
Continuous
370
     9
390
F
  0
LAYER
  5
AA
330
2
100
AcDbSymbolTableRecord
100
AcDbLayerTableRecord
  2
21
 70
     0
 62
     7
  6
Continuous
370
     9
390
F
  0
LAYER
  5
AB
330
2
100
AcDbSymbolTableRecord
100
AcDbLayerTableRecord
  2
22
 70
     0
 62
     7
  6
Continuous
370
     9
390
F
  0
LAYER
  5
AC
330
2
100
AcDbSymbolTableRecord
100
AcDbLayerTableRecord
  2
23
 70
     0
 62
     7
  6
Continuous
370
     9
390
F
  0
LAYER
  5
AD
330
2
100
AcDbSymbolTableRecord
100
AcDbLayerTableRecord
  2
901
 70
     0
 62
     7
  6
Continuous
370
     9
390
F
  0
LAYER
  5
AE
330
2
100
AcDbSymbolTableRecord
100
AcDbLayerTableRecord
  2
1791
 70
     0
 62
     7
  6
Continuous
370
     9
390
F
  0
ENDTAB
  0
TABLE
  2
STYLE
  5
3
330
0
100
AcDbSymbolTable
 70
     3
  0
STYLE
  5
11
330
3
100
AcDbSymbolTableRecord
100
AcDbTextStyleTableRecord
  2
Standard
 70
     0
 40
0.0
 41
1.0
 50
0.0
 71
     0
 42
5.0
  3
txt
  4
bigfont
  0
STYLE
  5
41
330
3
100
AcDbSymbolTableRecord
100
AcDbTextStyleTableRecord
  2
T_STANDARD
 70
     4
 40
10.0
 41
1.0
 50
0.0
 71
     0
 42
10.0
  3
txt
  4
bigfont
  0
STYLE
  5
AF
330
3
100
AcDbSymbolTableRecord
100
AcDbTextStyleTableRecord
  2
ＭＳ ゴシック
 70
     0
 40
0.0
 41
1.0
 50
0.0
 71
     0
 42
0.0
  3

  4

1001
ACAD
1000
ＭＳ ゴシック
1071
      256
  0
ENDTAB
  0
TABLE
  2
VIEW
  5
6
330
0
100
AcDbSymbolTable
 70
     0
  0
ENDTAB
  0
TABLE
  2
UCS
  5
7
330
0
100
AcDbSymbolTable
 70
     0
  0
ENDTAB
  0
TABLE
  2
APPID
  5
9
330
0
100
AcDbSymbolTable
 70
     2
  0
APPID
  5
12
330
9
100
AcDbSymbolTableRecord
100
AcDbRegAppTableRecord
  2
ACAD
 70
     0
  0
APPID
  5
40
330
9
100
AcDbSymbolTableRecord
100
AcDbRegAppTableRecord
  2
ODA
 70
     0
  0
ENDTAB
  0
TABLE
  2
DIMSTYLE
  5
A
330
0
100
AcDbSymbolTable
 70
     1
100
AcDbDimStyleTable
  0
DIMSTYLE
105
27
102
{ACAD_REACTORS
330
B9
330
C3
102
}
330
A
100
AcDbSymbolTableRecord
100
AcDbDimStyleTableRecord
  2
Standard
 70
     0
178
     0
340
11
  0
ENDTAB
  0
TABLE
  2
BLOCK_RECORD
  5
1
330
0
100
AcDbSymbolTable
 70
    35
  0
BLOCK_RECORD
  5
1F
330
1
100
AcDbSymbolTableRecord
100
AcDbBlockTableRecord
  2
*Model_Space
340
22
  0
BLOCK_RECORD
  5
1B
330
1
100
AcDbSymbolTableRecord
100
AcDbBlockTableRecord
  2
*Paper_Space
340
1E
  0
BLOCK_RECORD
  5
23
330
1
100
AcDbSymbolTableRecord
100
AcDbBlockTableRecord
  2
*Paper_Space0
340
26
  0
BLOCK_RECORD
  5
42
330
1
100
AcDbSymbolTableRecord
100
AcDbBlockTableRecord
  2
_ORIGIN
340
0
  0
BLOCK_RECORD
  5
47
330
1
100
AcDbSymbolTableRecord
100
AcDbBlockTableRecord
  2
_DOTBLANK
340
0
  0
BLOCK_RECORD
  5
4C
330
1
100
AcDbSymbolTableRecord
100
AcDbBlockTableRecord
  2
_DOT
340
0
  0
BLOCK_RECORD
  5
51
330
1
100
AcDbSymbolTableRecord
100
AcDbBlockTableRecord
  2
_OPEN
340
0
102
{BLKREFS
331
B7
331
B8
331
C1
331
C2
102
}
  0
BLOCK_RECORD
  5
57
330
1
100
AcDbSymbolTableRecord
100
AcDbBlockTableRecord
  2
_CLOSED
340
0
  0
BLOCK_RECORD
  5
5E
330
1
100
AcDbSymbolTableRecord
100
AcDbBlockTableRecord
  2
_CLOSEDBLANK
340
0
  0
BLOCK_RECORD
  5
64
330
1
100
AcDbSymbolTableRecord
100
AcDbBlockTableRecord
  2
_ARROWFILLED
340
0
  0
BLOCK_RECORD
  5
68
330
1
100
AcDbSymbolTableRecord
100
AcDbBlockTableRecord
  2
_BOXBLANK
340
0
  0
BLOCK_RECORD
  5
70
330
1
100
AcDbSymbolTableRecord
100
AcDbBlockTableRecord
  2
_BOXFILLED
340
0
  0
BLOCK_RECORD
  5
75
330
1
100
AcDbSymbolTableRecord
100
AcDbBlockTableRecord
  2
_INTEGRAL
340
0
  0
BLOCK_RECORD
  5
7A
330
1
100
AcDbSymbolTableRecord
100
AcDbBlockTableRecord
  2
_OBLIQUE
340
0
  0
BLOCK_RECORD
  5
7E
330
1
100
AcDbSymbolTableRecord
100
AcDbBlockTableRecord
  2
_NONE
340
0
  0
BLOCK_RECORD
  5
81
330
1
100
AcDbSymbolTableRecord
100
AcDbBlockTableRecord
  2
MARK_OPEN
340
0
  0
BLOCK_RECORD
  5
86
330
1
100
AcDbSymbolTableRecord
100
AcDbBlockTableRecord
  2
MARK_ORIGIN
340
0
  0
BLOCK_RECORD
  5
8A
330
1
100
AcDbSymbolTableRecord
100
AcDbBlockTableRecord
  2
MARK_DOT
340
0
  0
BLOCK_RECORD
  5
B0
330
1
100
AcDbSymbolTableRecord
100
AcDbBlockTableRecord
  2
Dim1
340
0
  0
BLOCK_RECORD
  5
BA
330
1
100
AcDbSymbolTableRecord
100
AcDbBlockTableRecord
  2
Dim2
340
0
  0
BLOCK_RECORD
  5
5E5
330
1
100
AcDbSymbolTableRecord
100
AcDbBlockTableRecord
  2
*G18
340
0
102
{BLKREFS
331
5E9
102
}
  0
BLOCK_RECORD
  5
5EA
330
1
100
AcDbSymbolTableRecord
100
AcDbBlockTableRecord
  2
*G19
340
0
102
{BLKREFS
331
5EE
102
}
  0
BLOCK_RECORD
  5
5EF
330
1
100
AcDbSymbolTableRecord
100
AcDbBlockTableRecord
  2
*G20
340
0
102
{BLKREFS
331
5F3
102
}
  0
BLOCK_RECORD
  5
5F4
330
1
100
AcDbSymbolTableRecord
100
AcDbBlockTableRecord
  2
*G21
340
0
102
{BLKREFS
331
5F8
102
}
  0
BLOCK_RECORD
  5
5F9
330
1
100
AcDbSymbolTableRecord
100
AcDbBlockTableRecord
  2
*G22
340
0
102
{BLKREFS
331
5FD
102
}
  0
BLOCK_RECORD
  5
5FE
330
1
100
AcDbSymbolTableRecord
100
AcDbBlockTableRecord
  2
*G23
340
0
102
{BLKREFS
331
602
102
}
  0
BLOCK_RECORD
  5
603
330
1
100
AcDbSymbolTableRecord
100
AcDbBlockTableRecord
  2
*G24
340
0
102
{BLKREFS
331
607
102
}
  0
BLOCK_RECORD
  5
608
330
1
100
AcDbSymbolTableRecord
100
AcDbBlockTableRecord
  2
*G25
340
0
102
{BLKREFS
331
60C
102
}
  0
BLOCK_RECORD
  5
60D
330
1
100
AcDbSymbolTableRecord
100
AcDbBlockTableRecord
  2
*G26
340
0
102
{BLKREFS
331
611
102
}
  0
BLOCK_RECORD
  5
616
330
1
100
AcDbSymbolTableRecord
100
AcDbBlockTableRecord
  2
*G27
340
0
102
{BLKREFS
331
62E
102
}
  0
BLOCK_RECORD
  5
619
330
1
100
AcDbSymbolTableRecord
100
AcDbBlockTableRecord
  2
*G28
340
0
102
{BLKREFS
331
628
102
}
  0
BLOCK_RECORD
  5
61C
330
1
100
AcDbSymbolTableRecord
100
AcDbBlockTableRecord
  2
*G29
340
0
102
{BLKREFS
331
622
102
}
  0
BLOCK_RECORD
  5
629
330
1
100
AcDbSymbolTableRecord
100
AcDbBlockTableRecord
  2
*G30
340
0
102
{BLKREFS
331
62D
102
}
  0
BLOCK_RECORD
  5
62F
330
1
100
AcDbSymbolTableRecord
100
AcDbBlockTableRecord
  2
*G31
340
0
102
{BLKREFS
331
647
102
}
  0
BLOCK_RECORD
  5
632
330
1
100
AcDbSymbolTableRecord
100
AcDbBlockTableRecord
  2
*G32
340
0
102
{BLKREFS
331
641
102
}
  0
BLOCK_RECORD
  5
635
330
1
100
AcDbSymbolTableRecord
100
AcDbBlockTableRecord
  2
*G33
340
0
102
{BLKREFS
331
63B
102
}
  0
BLOCK_RECORD
  5
642
330
1
100
AcDbSymbolTableRecord
100
AcDbBlockTableRecord
  2
*G34
340
0
102
{BLKREFS
331
646
102
}
  0
ENDTAB
  0
ENDSEC
  0
SECTION
  2
BLOCKS
  0
BLOCK
  5
20
330
1F
100
AcDbEntity
  8
0
100
AcDbBlockBegin
  2
*Model_Space
 70
     0
 10
0.0
 20
0.0
 30
0.0
  3
*Model_Space
  1

  0
ENDBLK
  5
21
330
1F
100
AcDbEntity
  8
0
100
AcDbBlockEnd
  0
BLOCK
  5
1C
330
1B
100
AcDbEntity
 67
     1
  8
0
100
AcDbBlockBegin
  2
*Paper_Space
 70
     0
 10
0.0
 20
0.0
 30
0.0
  3
*Paper_Space
  1

  0
ENDBLK
  5
1D
330
1B
100
AcDbEntity
 67
     1
  8
0
100
AcDbBlockEnd
  0
BLOCK
  5
24
330
23
100
AcDbEntity
  8
0
100
AcDbBlockBegin
  2
*Paper_Space0
 70
     0
 10
0.0
 20
0.0
 30
0.0
  3
*Paper_Space0
  1

  0
ENDBLK
  5
25
330
23
100
AcDbEntity
  8
0
100
AcDbBlockEnd
  0
BLOCK
  5
45
330
42
100
AcDbEntity
  8
0
100
AcDbBlockBegin
  2
_ORIGIN
 70
     0
 10
0.0
 20
0.0
 30
0.0
  3
_ORIGIN
  1

  0
CIRCLE
  5
43
330
42
100
AcDbEntity
  8
0
 62
     0
100
AcDbCircle
 10
0.0
 20
0.0
 30
0.0
 40
0.5
  0
LINE
  5
44
330
42
100
AcDbEntity
  8
0
 62
     0
100
AcDbLine
 10
0.0
 20
0.0
 30
0.0
 11
-1.0
 21
0.0
 31
0.0
  0
ENDBLK
  5
46
330
42
100
AcDbEntity
  8
0
100
AcDbBlockEnd
  0
BLOCK
  5
4A
330
47
100
AcDbEntity
  8
0
100
AcDbBlockBegin
  2
_DOTBLANK
 70
     0
 10
0.0
 20
0.0
 30
0.0
  3
_DOTBLANK
  1

  0
CIRCLE
  5
48
330
47
100
AcDbEntity
  8
0
 62
     0
100
AcDbCircle
 10
0.0
 20
0.0
 30
0.0
 40
0.5
  0
LINE
  5
49
330
47
100
AcDbEntity
  8
0
 62
     0
100
AcDbLine
 10
-0.5
 20
0.0
 30
0.0
 11
-1.0
 21
0.0
 31
0.0
  0
ENDBLK
  5
4B
330
47
100
AcDbEntity
  8
0
100
AcDbBlockEnd
  0
BLOCK
  5
4F
330
4C
100
AcDbEntity
  8
0
100
AcDbBlockBegin
  2
_DOT
 70
     0
 10
0.0
 20
0.0
 30
0.0
  3
_DOT
  1

  0
LWPOLYLINE
  5
4D
330
4C
100
AcDbEntity
  8
0
 62
     0
100
AcDbPolyline
 90
        2
 70
     1
 43
0.5
 10
-0.25
 20
0.0
 42
1.0
 10
0.25
 20
0.0
 42
1.0
  0
LINE
  5
4E
330
4C
100
AcDbEntity
  8
0
 62
     0
100
AcDbLine
 10
-0.5
 20
0.0
 30
0.0
 11
-1.0
 21
0.0
 31
0.0
  0
ENDBLK
  5
50
330
4C
100
AcDbEntity
  8
0
100
AcDbBlockEnd
  0
BLOCK
  5
55
330
51
100
AcDbEntity
  8
0
100
AcDbBlockBegin
  2
_OPEN
 70
     0
 10
0.0
 20
0.0
 30
0.0
  3
_OPEN
  1

  0
LINE
  5
52
330
51
100
AcDbEntity
  8
0
 62
     0
100
AcDbLine
 10
0.0
 20
0.0
 30
0.0
 11
-1.0
 21
0.1666666666666667
 31
0.0
  0
LINE
  5
53
330
51
100
AcDbEntity
  8
0
 62
     0
100
AcDbLine
 10
0.0
 20
0.0
 30
0.0
 11
-1.0
 21
-0.1666666666666667
 31
0.0
  0
LINE
  5
54
330
51
100
AcDbEntity
  8
0
 62
     0
100
AcDbLine
 10
0.0
 20
0.0
 30
0.0
 11
-1.0
 21
0.0
 31
0.0
  0
ENDBLK
  5
56
330
51
100
AcDbEntity
  8
0
100
AcDbBlockEnd
  0
BLOCK
  5
5C
330
57
100
AcDbEntity
  8
0
100
AcDbBlockBegin
  2
_CLOSED
 70
     0
 10
0.0
 20
0.0
 30
0.0
  3
_CLOSED
  1

  0
LINE
  5
58
330
57
100
AcDbEntity
  8
0
 62
     0
100
AcDbLine
 10
0.0
 20
0.0
 30
0.0
 11
-1.0
 21
0.1666666666666667
 31
0.0
  0
LINE
  5
59
330
57
100
AcDbEntity
  8
0
 62
     0
100
AcDbLine
 10
0.0
 20
0.0
 30
0.0
 11
-1.0
 21
-0.1666666666666667
 31
0.0
  0
LINE
  5
5A
330
57
100
AcDbEntity
  8
0
 62
     0
100
AcDbLine
 10
-1.0
 20
0.1666666666666667
 30
0.0
 11
-1.0
 21
-0.1666666666666667
 31
0.0
  0
LINE
  5
5B
330
57
100
AcDbEntity
  8
0
 62
     0
100
AcDbLine
 10
0.0
 20
0.0
 30
0.0
 11
-1.0
 21
0.0
 31
0.0
  0
ENDBLK
  5
5D
330
57
100
AcDbEntity
  8
0
100
AcDbBlockEnd
  0
BLOCK
  5
62
330
5E
100
AcDbEntity
  8
0
100
AcDbBlockBegin
  2
_CLOSEDBLANK
 70
     0
 10
0.0
 20
0.0
 30
0.0
  3
_CLOSEDBLANK
  1

  0
LINE
  5
5F
330
5E
100
AcDbEntity
  8
0
 62
     0
100
AcDbLine
 10
0.0
 20
0.0
 30
0.0
 11
-1.0
 21
0.1666666666666667
 31
0.0
  0
LINE
  5
60
330
5E
100
AcDbEntity
  8
0
 62
     0
100
AcDbLine
 10
0.0
 20
0.0
 30
0.0
 11
-1.0
 21
-0.1666666666666667
 31
0.0
  0
LINE
  5
61
330
5E
100
AcDbEntity
  8
0
 62
     0
100
AcDbLine
 10
-1.0
 20
0.1666666666666667
 30
0.0
 11
-1.0
 21
-0.1666666666666667
 31
0.0
  0
ENDBLK
  5
63
330
5E
100
AcDbEntity
  8
0
100
AcDbBlockEnd
  0
BLOCK
  5
66
330
64
100
AcDbEntity
  8
0
100
AcDbBlockBegin
  2
_ARROWFILLED
 70
     0
 10
0.0
 20
0.0
 30
0.0
  3
_ARROWFILLED
  1

  0
SOLID
  5
65
330
64
100
AcDbEntity
  8
0
 62
     0
100
AcDbTrace
 10
0.0
 20
0.0
 30
0.0
 11
-1.0
 21
-0.1666666666666667
 31
0.0
 12
-1.0
 22
0.1666666666666667
 32
0.0
 13
0.0
 23
0.0
 33
0.0
  0
ENDBLK
  5
67
330
64
100
AcDbEntity
  8
0
100
AcDbBlockEnd
  0
BLOCK
  5
6E
330
68
100
AcDbEntity
  8
0
100
AcDbBlockBegin
  2
_BOXBLANK
 70
     0
 10
0.0
 20
0.0
 30
0.0
  3
_BOXBLANK
  1

  0
LINE
  5
69
330
68
100
AcDbEntity
  8
0
 62
     0
100
AcDbLine
 10
-0.5
 20
-0.5
 30
0.0
 11
0.5
 21
-0.5
 31
0.0
  0
LINE
  5
6A
330
68
100
AcDbEntity
  8
0
 62
     0
100
AcDbLine
 10
0.5
 20
-0.5
 30
0.0
 11
0.5
 21
0.5
 31
0.0
  0
LINE
  5
6B
330
68
100
AcDbEntity
  8
0
 62
     0
100
AcDbLine
 10
0.5
 20
0.5
 30
0.0
 11
-0.5
 21
0.5
 31
0.0
  0
LINE
  5
6C
330
68
100
AcDbEntity
  8
0
 62
     0
100
AcDbLine
 10
-0.5
 20
0.5
 30
0.0
 11
-0.5
 21
-0.5
 31
0.0
  0
LINE
  5
6D
330
68
100
AcDbEntity
  8
0
 62
     0
100
AcDbLine
 10
-0.5
 20
0.0
 30
0.0
 11
-1.0
 21
0.0
 31
0.0
  0
ENDBLK
  5
6F
330
68
100
AcDbEntity
  8
0
100
AcDbBlockEnd
  0
BLOCK
  5
73
330
70
100
AcDbEntity
  8
0
100
AcDbBlockBegin
  2
_BOXFILLED
 70
     0
 10
0.0
 20
0.0
 30
0.0
  3
_BOXFILLED
  1

  0
SOLID
  5
71
330
70
100
AcDbEntity
  8
0
 62
     0
100
AcDbTrace
 10
-0.5
 20
0.5
 30
0.0
 11
0.5
 21
0.5
 31
0.0
 12
-0.5
 22
-0.5
 32
0.0
 13
0.5
 23
-0.5
 33
0.0
  0
LINE
  5
72
330
70
100
AcDbEntity
  8
0
 62
     0
100
AcDbLine
 10
-0.5
 20
0.0
 30
0.0
 11
-1.0
 21
0.0
 31
0.0
  0
ENDBLK
  5
74
330
70
100
AcDbEntity
  8
0
100
AcDbBlockEnd
  0
BLOCK
  5
78
330
75
100
AcDbEntity
  8
0
100
AcDbBlockBegin
  2
_INTEGRAL
 70
     0
 10
0.0
 20
0.0
 30
0.0
  3
_INTEGRAL
  1

  0
ARC
  5
76
330
75
100
AcDbEntity
  8
0
 62
     0
100
AcDbCircle
 10
0.444888
 20
-0.0913346
 30
0.0
 40
0.4541666
100
AcDbArc
 50
101.9999999999999
 51
167.9999999999998
  0
ARC
  5
77
330
75
100
AcDbEntity
  8
0
 62
     0
100
AcDbCircle
 10
-0.444888
 20
0.0913346
 30
0.0
 40
0.4541666
100
AcDbArc
 50
281.9999999999997
 51
347.9999999999997
  0
ENDBLK
  5
79
330
75
100
AcDbEntity
  8
0
100
AcDbBlockEnd
  0
BLOCK
  5
7C
330
7A
100
AcDbEntity
  8
0
100
AcDbBlockBegin
  2
_OBLIQUE
 70
     0
 10
0.0
 20
0.0
 30
0.0
  3
_OBLIQUE
  1

  0
LINE
  5
7B
330
7A
100
AcDbEntity
  8
0
 62
     0
100
AcDbLine
 10
-0.5
 20
-0.5
 30
0.0
 11
0.5
 21
0.5
 31
0.0
  0
ENDBLK
  5
7D
330
7A
100
AcDbEntity
  8
0
100
AcDbBlockEnd
  0
BLOCK
  5
7F
330
7E
100
AcDbEntity
  8
0
100
AcDbBlockBegin
  2
_NONE
 70
     0
 10
0.0
 20
0.0
 30
0.0
  3
_NONE
  1

  0
ENDBLK
  5
80
330
7E
100
AcDbEntity
  8
0
100
AcDbBlockEnd
  0
BLOCK
  5
84
330
81
100
AcDbEntity
  8
0
100
AcDbBlockBegin
  2
MARK_OPEN
 70
     0
 10
0.0
 20
0.0
 30
0.0
  3
MARK_OPEN
  1

  0
LINE
  5
82
330
81
100
AcDbEntity
  8
0
 62
     0
100
AcDbLine
 10
0.0
 20
0.0
 30
0.0
 11
-1.0
 21
0.1666666666666667
 31
0.0
  0
LINE
  5
83
330
81
100
AcDbEntity
  8
0
 62
     0
100
AcDbLine
 10
0.0
 20
0.0
 30
0.0
 11
-1.0
 21
-0.1666666666666667
 31
0.0
  0
ENDBLK
  5
85
330
81
100
AcDbEntity
  8
0
100
AcDbBlockEnd
  0
BLOCK
  5
88
330
86
100
AcDbEntity
  8
0
100
AcDbBlockBegin
  2
MARK_ORIGIN
 70
     0
 10
0.0
 20
0.0
 30
0.0
  3
MARK_ORIGIN
  1

  0
CIRCLE
  5
87
330
86
100
AcDbEntity
  8
0
 62
     0
100
AcDbCircle
 10
0.0
 20
0.0
 30
0.0
 40
0.5
  0
ENDBLK
  5
89
330
86
100
AcDbEntity
  8
0
100
AcDbBlockEnd
  0
BLOCK
  5
8C
330
8A
100
AcDbEntity
  8
0
100
AcDbBlockBegin
  2
MARK_DOT
 70
     0
 10
0.0
 20
0.0
 30
0.0
  3
MARK_DOT
  1

  0
LWPOLYLINE
  5
8B
330
8A
100
AcDbEntity
  8
0
 62
     0
100
AcDbPolyline
 90
        2
 70
     1
 43
0.5
 10
-0.25
 20
0.0
 42
1.0
 10
0.25
 20
0.0
 42
1.0
  0
ENDBLK
  5
8D
330
8A
100
AcDbEntity
  8
0
100
AcDbBlockEnd
  0
BLOCK
  5
B1
330
B0
100
AcDbEntity
  8
0
100
AcDbBlockBegin
  2
Dim1
 70
     0
 10
0.0
 20
0.0
 30
0.0
  3
Dim1
  1

  0
LINE
  5
B3
330
B0
100
AcDbEntity
  8
1
  6
Continuous
 62
     7
370
     9
100
AcDbLine
 10
108.0037008931682
 20
103.7409489394493
 30
0.0
 11
57.4419663426932
 21
103.7409489394495
 31
0.0
  0
LINE
  5
B4
330
B0
100
AcDbEntity
  8
1
  6
Continuous
 62
     7
370
     9
100
AcDbLine
 10
104.2121712377122
 20
203.7309468032183
 30
0.0
 11
57.4419663426932
 21
203.7309468032184
 31
0.0
  0
LINE
  5
B5
330
B0
100
AcDbEntity
  8
1
  6
Continuous
 62
     7
370
     9
100
AcDbLine
 10
58.5849663426932
 20
103.7409489394495
 30
0.0
 11
58.5849663426932
 21
203.7309468032184
 31
0.0
  0
MTEXT
  5
B6
330
B0
100
AcDbEntity
  8
1
  6
Continuous
 62
     7
370
     9
100
AcDbMText
 10
57.08496634269318
 20
153.7359478713343
 30
0.0
 40
1.6
 41
19.42857142857143
 71
     8
 72
     1
  1
100
  7
ＭＳ ゴシック
 11
1.615544574432587E-15
 21
1.0
 31
0.0
 73
     1
 44
1.0
1001
ACAD
1000
ACAD_MTEXT_DEFINED_HEIGHT_BEGIN
1070
    46
1040
1.6
1000
ACAD_MTEXT_DEFINED_HEIGHT_END
  0
INSERT
  5
B7
330
B0
100
AcDbEntity
  8
1
  6
Continuous
 62
     7
370
     9
100
AcDbBlockReference
  2
_OPEN
 10
58.5849663426932
 20
103.7409489394495
 30
0.0
 41
1.25
 42
1.25
 43
1.25
 50
269.9999999999998
  0
INSERT
  5
B8
330
B0
100
AcDbEntity
  8
1
  6
Continuous
 62
     7
370
     9
100
AcDbBlockReference
  2
_OPEN
 10
58.5849663426932
 20
203.7309468032184
 30
0.0
 41
1.25
 42
1.25
 43
1.25
 50
89.99999999999991
  0
ENDBLK
  5
B2
330
B0
100
AcDbEntity
  8
0
100
AcDbBlockEnd
  0
BLOCK
  5
BB
330
BA
100
AcDbEntity
  8
0
100
AcDbBlockBegin
  2
Dim2
 70
     0
 10
0.0
 20
0.0
 30
0.0
  3
Dim2
  1

  0
LINE
  5
BD
330
BA
100
AcDbEntity
  8
1
  6
Continuous
 62
     7
370
     9
100
AcDbLine
 10
103.7384506871752
 20
126.7309506179163
 30
0.0
 11
67.8490250585142
 21
126.7309506179164
 31
0.0
  0
LINE
  5
BE
330
BA
100
AcDbEntity
  8
1
  6
Continuous
 62
     7
370
     9
100
AcDbLine
 10
104.2121712377122
 20
203.7309468032183
 30
0.0
 11
67.8490250585142
 21
203.7309468032184
 31
0.0
  0
LINE
  5
BF
330
BA
100
AcDbEntity
  8
1
  6
Continuous
 62
     7
370
     9
100
AcDbLine
 10
68.9920250585142
 20
126.7309506179164
 30
0.0
 11
68.9920250585142
 21
203.7309468032184
 31
0.0
  0
MTEXT
  5
C0
330
BA
100
AcDbEntity
  8
1
  6
Continuous
 62
     7
370
     9
100
AcDbMText
 10
67.49202505851417
 20
165.0809471846884
 30
0.0
 40
1.6
 41
12.95238095238095
 71
     8
 72
     1
  1
77
  7
ＭＳ ゴシック
 11
1.615544574432587E-15
 21
1.0
 31
0.0
 73
     1
 44
1.0
1001
ACAD
1000
ACAD_MTEXT_DEFINED_HEIGHT_BEGIN
1070
    46
1040
1.6
1000
ACAD_MTEXT_DEFINED_HEIGHT_END
  0
INSERT
  5
C1
330
BA
100
AcDbEntity
  8
1
  6
Continuous
 62
     7
370
     9
100
AcDbBlockReference
  2
_OPEN
 10
68.9920250585142
 20
126.7309506179164
 30
0.0
 41
1.25
 42
1.25
 43
1.25
 50
269.9999999999998
  0
INSERT
  5
C2
330
BA
100
AcDbEntity
  8
1
  6
Continuous
 62
     7
370
     9
100
AcDbBlockReference
  2
_OPEN
 10
68.9920250585142
 20
203.7309468032184
 30
0.0
 41
1.25
 42
1.25
 43
1.25
 50
89.99999999999991
  0
ENDBLK
  5
BC
330
BA
100
AcDbEntity
  8
0
100
AcDbBlockEnd
  0
BLOCK
  5
5E6
330
5E5
100
AcDbEntity
  8
0
100
AcDbBlockBegin
  2
*G18
 70
     1
 10
0.0
 20
0.0
 30
0.0
  3
*G18
  1

  0
MTEXT
  5
5E8
330
5E5
100
AcDbEntity
  8
1
  6
Continuous
 62
     7
370
     9
100
AcDbMText
 10
118.0204302180786
 20
140.3526846964031
 30
0.0
 40
4.48
 41
6.762781981981983
 71
     7
 72
     1
  1
{\fＭＳ 明朝;\W1.200000;\T0.750000;Ｌ}
 11
-0.9795752292907201
 21
-0.2010780200818409
 31
0.0
 73
     1
 44
1.0
1001
ACAD
1000
ACAD_MTEXT_DEFINED_HEIGHT_BEGIN
1070
    46
1040
4.48
1000
ACAD_MTEXT_DEFINED_HEIGHT_END
  0
ENDBLK
  5
5E7
330
5E5
100
AcDbEntity
  8
0
100
AcDbBlockEnd
  0
BLOCK
  5
5EB
330
5EA
100
AcDbEntity
  8
0
100
AcDbBlockBegin
  2
*G19
 70
     1
 10
0.0
 20
0.0
 30
0.0
  3
*G19
  1

  0
MTEXT
  5
5ED
330
5EA
100
AcDbEntity
  8
1
  6
Continuous
 62
     7
370
     9
100
AcDbMText
 10
120.39327653737
 20
141.3515114658945
 30
0.0
 40
4.48
 41
7.29004972972973
 71
     7
 72
     1
  1
{\fＭＳ 明朝;\W1.200000;\T0.750000;Ｃ}
 11
-0.9184464028019766
 21
-0.3955454527359773
 31
0.0
 73
     1
 44
1.0
1001
ACAD
1000
ACAD_MTEXT_DEFINED_HEIGHT_BEGIN
1070
    46
1040
4.48
1000
ACAD_MTEXT_DEFINED_HEIGHT_END
  0
ENDBLK
  5
5EC
330
5EA
100
AcDbEntity
  8
0
100
AcDbBlockEnd
  0
BLOCK
  5
5F0
330
5EF
100
AcDbEntity
  8
0
100
AcDbBlockBegin
  2
*G20
 70
     1
 10
0.0
 20
0.0
 30
0.0
  3
*G20
  1

  0
MTEXT
  5
5F2
330
5EF
100
AcDbEntity
  8
1
  6
Continuous
 62
     7
370
     9
100
AcDbMText
 10
112.335496979942
 20
140.1562229352032
 30
0.0
 40
4.48
 41
6.021550510510511
 71
     7
 72
     1
  1
{\fＭＳ 明朝;\W1.200000;\T0.750000;Ｓ}
 11
-0.9999999999999962
 21
-8.742279445950882E-8
 31
0.0
 73
     1
 44
1.0
1001
ACAD
1000
ACAD_MTEXT_DEFINED_HEIGHT_BEGIN
1070
    46
1040
4.48
1000
ACAD_MTEXT_DEFINED_HEIGHT_END
  0
ENDBLK
  5
5F1
330
5EF
100
AcDbEntity
  8
0
100
AcDbBlockEnd
  0
BLOCK
  5
5F5
330
5F4
100
AcDbEntity
  8
0
100
AcDbBlockBegin
  2
*G21
 70
     1
 10
0.0
 20
0.0
 30
0.0
  3
*G21
  1

  0
MTEXT
  5
5F7
330
5F4
100
AcDbEntity
  8
1
  6
Continuous
 62
     7
370
     9
100
AcDbMText
 10
109.8895863166482
 20
140.789030552736
 30
0.0
 40
4.48
 41
7.198350990990991
 71
     7
 72
     1
  1
{\fＭＳ 明朝;\W1.200000;\T0.750000;Ｅ}
 11
-0.9795752292907201
 21
0.2010780200818409
 31
0.0
 73
     1
 44
1.0
1001
ACAD
1000
ACAD_MTEXT_DEFINED_HEIGHT_BEGIN
1070
    46
1040
4.48
1000
ACAD_MTEXT_DEFINED_HEIGHT_END
  0
ENDBLK
  5
5F6
330
5F4
100
AcDbEntity
  8
0
100
AcDbBlockEnd
  0
BLOCK
  5
5FA
330
5F9
100
AcDbEntity
  8
0
100
AcDbBlockBegin
  2
*G22
 70
     1
 10
0.0
 20
0.0
 30
0.0
  3
*G22
  1

  0
MTEXT
  5
5FC
330
5F9
100
AcDbEntity
  8
1
  6
Continuous
 62
     7
370
     9
100
AcDbMText
 10
115.3943129421799
 20
139.845031376924
 30
0.0
 40
4.48
 41
8.031281201201201
 71
     7
 72
     1
  1
{\fＭＳ 明朝;\W1.200000;\T0.750000;Ｏ}
 11
-0.9999999999999962
 21
-8.742279445950882E-8
 31
0.0
 73
     1
 44
1.0
1001
ACAD
1000
ACAD_MTEXT_DEFINED_HEIGHT_BEGIN
1070
    46
1040
4.48
1000
ACAD_MTEXT_DEFINED_HEIGHT_END
  0
ENDBLK
  5
5FB
330
5F9
100
AcDbEntity
  8
0
100
AcDbBlockEnd
  0
BLOCK
  5
5FF
330
5FE
100
AcDbEntity
  8
0
100
AcDbBlockBegin
  2
*G23
 70
     1
 10
0.0
 20
0.0
 30
0.0
  3
*G23
  1

  0
MTEXT
  5
601
330
5FE
100
AcDbEntity
  8
1
  6
Continuous
 62
     7
370
     9
100
AcDbMText
 10
114.4664043017614
 20
166.0400406098741
 30
0.0
 40
4.48
 41
7.318323507507508
 71
     7
 72
     1
  1
{\fＭＳ 明朝;\W1.220000;\T0.750000;Ｅ}
 11
0.9945218950636625
 21
-0.1045284661658314
 31
0.0
 73
     1
 44
1.0
1001
ACAD
1000
ACAD_MTEXT_DEFINED_HEIGHT_BEGIN
1070
    46
1040
4.48
1000
ACAD_MTEXT_DEFINED_HEIGHT_END
  0
ENDBLK
  5
600
330
5FE
100
AcDbEntity
  8
0
100
AcDbBlockEnd
  0
BLOCK
  5
604
330
603
100
AcDbEntity
  8
0
100
AcDbBlockBegin
  2
*G24
 70
     1
 10
0.0
 20
0.0
 30
0.0
  3
*G24
  1

  0
MTEXT
  5
606
330
603
100
AcDbEntity
  8
1
  6
Continuous
 62
     7
370
     9
100
AcDbMText
 10
111.5131200530027
 20
165.7775557007024
 30
0.0
 40
4.48
 41
6.657965229229229
 71
     7
 72
     1
  1
{\fＭＳ 明朝;\W1.220000;\T0.750000;Ｐ}
 11
0.9945218950636627
 21
0.1045284661658296
 31
0.0
 73
     1
 44
1.0
1001
ACAD
1000
ACAD_MTEXT_DEFINED_HEIGHT_BEGIN
1070
    46
1040
4.48
1000
ACAD_MTEXT_DEFINED_HEIGHT_END
  0
ENDBLK
  5
605
330
603
100
AcDbEntity
  8
0
100
AcDbBlockEnd
  0
BLOCK
  5
609
330
608
100
AcDbEntity
  8
0
100
AcDbBlockBegin
  2
*G25
 70
     1
 10
0.0
 20
0.0
 30
0.0
  3
*G25
  1

  0
MTEXT
  5
60B
330
608
100
AcDbEntity
  8
1
  6
Continuous
 62
     7
370
     9
100
AcDbMText
 10
109.0334044498978
 20
164.9821190931447
 30
0.0
 40
4.48
 41
8.165135887887889
 71
     7
 72
     1
  1
{\fＭＳ 明朝;\W1.220000;\T0.750000;Ｏ}
 11
0.951056513593628
 21
0.3090170026893883
 31
0.0
 73
     1
 44
1.0
1001
ACAD
1000
ACAD_MTEXT_DEFINED_HEIGHT_BEGIN
1070
    46
1040
4.48
1000
ACAD_MTEXT_DEFINED_HEIGHT_END
  0
ENDBLK
  5
60A
330
608
100
AcDbEntity
  8
0
100
AcDbBlockEnd
  0
BLOCK
  5
60E
330
60D
100
AcDbEntity
  8
0
100
AcDbBlockBegin
  2
*G26
 70
     1
 10
0.0
 20
0.0
 30
0.0
  3
*G26
  1

  0
MTEXT
  5
610
330
60D
100
AcDbEntity
  8
1
  6
Continuous
 62
     7
370
     9
100
AcDbMText
 10
117.2285351790943
 20
165.7018031922869
 30
0.0
 40
4.48
 41
8.569119775775777
 71
     7
 72
     1
  1
{\fＭＳ 明朝;\W1.220000;\T0.750000;Ｎ}
 11
0.951056513593628
 21
-0.3090170026893883
 31
0.0
 73
     1
 44
1.0
1001
ACAD
1000
ACAD_MTEXT_DEFINED_HEIGHT_BEGIN
1070
    46
1040
4.48
1000
ACAD_MTEXT_DEFINED_HEIGHT_END
  0
ENDBLK
  5
60F
330
60D
100
AcDbEntity
  8
0
100
AcDbBlockEnd
  0
BLOCK
  5
617
330
616
100
AcDbEntity
  8
0
100
AcDbBlockBegin
  2
*G27
 70
     1
 10
0.0
 20
0.0
 30
0.0
  3
*G27
  1

  0
INSERT
  5
628
330
616
100
AcDbEntity
  8
0
100
AcDbBlockReference
  2
*G28
 10
0.0
 20
0.0
 30
0.0
  0
INSERT
  5
62D
330
616
100
AcDbEntity
  8
0
100
AcDbBlockReference
  2
*G30
 10
0.0
 20
0.0
 30
0.0
  0
ENDBLK
  5
618
330
616
100
AcDbEntity
  8
0
100
AcDbBlockEnd
  0
BLOCK
  5
61A
330
619
100
AcDbEntity
  8
0
100
AcDbBlockBegin
  2
*G28
 70
     1
 10
0.0
 20
0.0
 30
0.0
  3
*G28
  1

  0
INSERT
  5
622
330
619
100
AcDbEntity
  8
0
100
AcDbBlockReference
  2
*G29
 10
0.0
 20
0.0
 30
0.0
  0
POLYLINE
  5
623
330
619
100
AcDbEntity
  8
1
  6
Continuous
 62
     7
370
     9
100
AcDb2dPolyline
 66
     1
 10
0.0
 20
0.0
 30
0.0
  0
VERTEX
  5
624
330
623
100
AcDbEntity
  8
1
  6
Continuous
 62
     7
370
     9
100
AcDbVertex
100
AcDb2dVertex
 10
122.2412724805424
 20
107.0737987750608
 30
0.0
  0
VERTEX
  5
625
330
623
100
AcDbEntity
  8
1
  6
Continuous
 62
     7
370
     9
100
AcDbVertex
100
AcDb2dVertex
 10
134.2384506871752
 20
92.7309468032193
 30
0.0
  0
VERTEX
  5
626
330
623
100
AcDbEntity
  8
1
  6
Continuous
 62
     7
370
     9
100
AcDbVertex
100
AcDb2dVertex
 10
153.2093140294602
 20
92.7309468032193
 30
0.0
  0
SEQEND
  5
627
330
623
100
AcDbEntity
  8
1
  6
Continuous
 62
     7
370
     9
  0
ENDBLK
  5
61B
330
619
100
AcDbEntity
  8
0
100
AcDbBlockEnd
  0
BLOCK
  5
61D
330
61C
100
AcDbEntity
  8
0
100
AcDbBlockBegin
  2
*G29
 70
     1
 10
0.0
 20
0.0
 30
0.0
  3
*G29
  1

  0
LINE
  5
61F
330
61C
100
AcDbEntity
  8
1
  6
Continuous
 62
     7
370
     9
100
AcDbLine
 10
121.9216717949818
 20
106.8064665605779
 30
0.0
 11
120.6372791936452
 21
108.9914028884243
 31
0.0
  0
LINE
  5
620
330
61C
100
AcDbEntity
  8
1
  6
Continuous
 62
     7
370
     9
100
AcDbLine
 10
122.560873166103
 20
107.3411309895436
 30
0.0
 11
120.6372791936452
 21
108.9914028884243
 31
0.0
  0
LINE
  5
621
330
61C
100
AcDbEntity
  8
1
  6
Continuous
 62
     7
370
     9
100
AcDbLine
 10
120.6372791936452
 20
108.9914028884243
 30
0.0
 11
122.2412724805424
 21
107.0737987750608
 31
0.0
  0
ENDBLK
  5
61E
330
61C
100
AcDbEntity
  8
0
100
AcDbBlockEnd
  0
BLOCK
  5
62A
330
629
100
AcDbEntity
  8
0
100
AcDbBlockBegin
  2
*G30
 70
     1
 10
0.0
 20
0.0
 30
0.0
  3
*G30
  1

  0
MTEXT
  5
62C
330
629
100
AcDbEntity
  8
1
  6
Continuous
 62
     7
370
     9
100
AcDbMText
 10
136.4697633826785
 20
93.53094689858673
 30
0.0
 40
3.200000000000003
 41
32.72771651651654
 71
     7
 72
     1
  1
{\fＭＳ 明朝;\W1.200000;\T0.750000;Ｒ　１／４}
 73
     1
 44
1.0
1001
ACAD
1000
ACAD_MTEXT_DEFINED_HEIGHT_BEGIN
1070
    46
1040
3.200000000000003
1000
ACAD_MTEXT_DEFINED_HEIGHT_END
  0
ENDBLK
  5
62B
330
629
100
AcDbEntity
  8
0
100
AcDbBlockEnd
  0
BLOCK
  5
630
330
62F
100
AcDbEntity
  8
0
100
AcDbBlockBegin
  2
*G31
 70
     1
 10
0.0
 20
0.0
 30
0.0
  3
*G31
  1

  0
INSERT
  5
641
330
62F
100
AcDbEntity
  8
0
100
AcDbBlockReference
  2
*G32
 10
0.0
 20
0.0
 30
0.0
  0
INSERT
  5
646
330
62F
100
AcDbEntity
  8
0
100
AcDbBlockReference
  2
*G34
 10
0.0
 20
0.0
 30
0.0
  0
ENDBLK
  5
631
330
62F
100
AcDbEntity
  8
0
100
AcDbBlockEnd
  0
BLOCK
  5
633
330
632
100
AcDbEntity
  8
0
100
AcDbBlockBegin
  2
*G32
 70
     1
 10
0.0
 20
0.0
 30
0.0
  3
*G32
  1

  0
INSERT
  5
63B
330
632
100
AcDbEntity
  8
0
100
AcDbBlockReference
  2
*G33
 10
0.0
 20
0.0
 30
0.0
  0
POLYLINE
  5
63C
330
632
100
AcDbEntity
  8
1
  6
Continuous
 62
     7
370
     9
100
AcDb2dPolyline
 66
     1
 10
0.0
 20
0.0
 30
0.0
  0
VERTEX
  5
63D
330
63C
100
AcDbEntity
  8
1
  6
Continuous
 62
     7
370
     9
100
AcDbVertex
100
AcDb2dVertex
 10
118.567382287705
 20
206.1498676929332
 30
0.0
  0
VERTEX
  5
63E
330
63C
100
AcDbEntity
  8
1
  6
Continuous
 62
     7
370
     9
100
AcDbVertex
100
AcDb2dVertex
 10
114.2384525945232
 20
222.7309468032183
 30
0.0
  0
VERTEX
  5
63F
330
63C
100
AcDbEntity
  8
1
  6
Continuous
 62
     7
370
     9
100
AcDbVertex
100
AcDb2dVertex
 10
94.64383188987318
 20
222.7309468032183
 30
0.0
  0
SEQEND
  5
640
330
63C
100
AcDbEntity
  8
1
  6
Continuous
 62
     7
370
     9
  0
ENDBLK
  5
634
330
632
100
AcDbEntity
  8
0
100
AcDbBlockEnd
  0
BLOCK
  5
636
330
635
100
AcDbEntity
  8
0
100
AcDbBlockBegin
  2
*G33
 70
     1
 10
0.0
 20
0.0
 30
0.0
  3
*G33
  1

  0
LINE
  5
638
330
635
100
AcDbEntity
  8
1
  6
Continuous
 62
     7
370
     9
100
AcDbLine
 10
118.9705357693242
 20
206.2551215829776
 30
0.0
 11
119.1989056279712
 21
203.7309468032183
 31
0.0
  0
LINE
  5
639
330
635
100
AcDbEntity
  8
1
  6
Continuous
 62
     7
370
     9
100
AcDbLine
 10
118.1642288060859
 20
206.0446138028888
 30
0.0
 11
119.1989056279712
 21
203.7309468032183
 31
0.0
  0
LINE
  5
63A
330
635
100
AcDbEntity
  8
1
  6
Continuous
 62
     7
370
     9
100
AcDbLine
 10
119.1989056279712
 20
203.7309468032183
 30
0.0
 11
118.567382287705
 21
206.1498676929332
 31
0.0
  0
ENDBLK
  5
637
330
635
100
AcDbEntity
  8
0
100
AcDbBlockEnd
  0
BLOCK
  5
643
330
642
100
AcDbEntity
  8
0
100
AcDbBlockBegin
  2
*G34
 70
     1
 10
0.0
 20
0.0
 30
0.0
  3
*G34
  1

  0
MTEXT
  5
645
330
642
100
AcDbEntity
  8
1
  6
Continuous
 62
     7
370
     9
100
AcDbMText
 10
96.54768144115049
 20
223.5309507132827
 30
0.0
 40
3.200000000000003
 41
32.6676756756757
 71
     7
 72
     1
  1
{\fＭＳ 明朝;\W1.200000;\T0.750000;Ｇ　３／８}
 73
     1
 44
1.0
1001
ACAD
1000
ACAD_MTEXT_DEFINED_HEIGHT_BEGIN
1070
    46
1040
3.200000000000003
1000
ACAD_MTEXT_DEFINED_HEIGHT_END
  0
ENDBLK
  5
644
330
642
100
AcDbEntity
  8
0
100
AcDbBlockEnd
  0
ENDSEC
  0
SECTION
  2
ENTITIES
  0
DIMENSION
  5
B9
330
1F
100
AcDbEntity
  8
1
  6
Continuous
 62
     7
370
     9
100
AcDbDimension
  2
Dim1
 10
58.5849663426932
 20
203.7309468032184
 30
0.0
 11
56.28496634269318
 21
153.7359478713343
 31
0.0
 70
   160
  1
<>
 71
     5
 42
-1.0
  3
Standard
100
AcDbAlignedDimension
 13
108.5037008931682
 23
103.7409489394493
 33
0.0
 14
104.7121712377122
 24
203.7309468032183
 34
0.0
 50
89.99999999999991
100
AcDbRotatedDimension
1001
ACAD
1000
DSTYLE
1002
{
1070
   279
1070
     2
1070
   340
1005
AF
1070
   140
1040
1.6
1070
    40
1040
1.0
1070
   147
1040
0.0
1070
    76
1070
     0
1070
    75
1070
     0
1070
   344
1005
51
1070
   343
1005
51
1070
   173
1070
     1
1070
   289
1070
     2
1070
   288
1070
     1
1070
    77
1070
     1
1070
   172
1070
     1
1070
   174
1070
     0
1070
    74
1070
     0
1070
    73
1070
     0
1070
   284
1070
     8
1070
    78
1070
     8
1070
    42
1040
0.5
1070
    44
1040
1.143
1070
    43
1040
10.0
1070
   271
1070
     2
1070
    41
1040
1.25
1002
}
  0
DIMENSION
  5
C3
330
1F
100
AcDbEntity
  8
1
  6
Continuous
 62
     7
370
     9
100
AcDbDimension
  2
Dim2
 10
68.9920250585142
 20
203.7309468032184
 30
0.0
 11
66.69202505851418
 21
165.0809471846884
 31
0.0
 70
   160
  1
<>
 71
     5
 42
-1.0
  3
Standard
100
AcDbAlignedDimension
 13
104.2384506871752
 23
126.7309506179163
 33
0.0
 14
104.7121712377122
 24
203.7309468032183
 34
0.0
 50
89.99999999999991
100
AcDbRotatedDimension
1001
ACAD
1000
DSTYLE
1002
{
1070
   279
1070
     2
1070
   340
1005
AF
1070
   140
1040
1.6
1070
    40
1040
1.0
1070
   147
1040
0.0
1070
    76
1070
     0
1070
    75
1070
     0
1070
   344
1005
51
1070
   343
1005
51
1070
   173
1070
     1
1070
   289
1070
     2
1070
   288
1070
     1
1070
    77
1070
     1
1070
   172
1070
     1
1070
   174
1070
     0
1070
    74
1070
     0
1070
    73
1070
     0
1070
   284
1070
     8
1070
    78
1070
     8
1070
    42
1040
0.5
1070
    44
1040
1.143
1070
    43
1040
10.0
1070
   271
1070
     2
1070
    41
1040
1.25
1002
}
  0
LINE
  5
C4
330
1F
100
AcDbEntity
  8
1
  6
Continuous
 62
     7
370
     9
100
AcDbLine
 10
119.8050133397632
 20
126.7309506179163
 30
0.0
 11
119.9154984166672
 21
123.1954128981893
 31
0.0
  0
LINE
  5
C5
330
1F
100
AcDbEntity
  8
1
  6
Continuous
 62
     7
370
     9
100
AcDbLine
 10
119.9154984166672
 20
123.1954128981893
 30
0.0
 11
120.8169514348552
 21
121.7409489394493
 31
0.0
  0
LINE
  5
C6
330
1F
100
AcDbEntity
  8
1
  6
Continuous
 62
     7
370
     9
100
AcDbLine
 10
120.7714993169362
 20
123.1954128981893
 30
0.0
 11
114.2384506871752
 21
123.1954128981893
 31
0.0
  0
LINE
  5
C7
330
1F
100
AcDbEntity
  8
1
  6
Continuous
 62
     7
370
     9
100
AcDbLine
 10
119.6172005345872
 20
103.7409489394493
 30
0.0
 11
119.9154984166672
 21
113.2864849807093
 31
0.0
  0
LINE
  5
C8
330
1F
100
AcDbEntity
  8
1
  6
Continuous
 62
     7
370
     9
100
AcDbLine
 10
120.5018116643482
 20
104.6565296889613
 30
0.0
 11
114.2384506871752
 21
104.6565296889613
 31
0.0
  0
LINE
  5
C9
330
1F
100
AcDbEntity
  8
1
  6
Continuous
 62
     7
370
     9
100
AcDbLine
 10
119.9732014348552
 20
103.7409489394493
 30
0.0
 11
120.5018116643482
 21
104.6565296889613
 31
0.0
  0
LINE
  5
CA
330
1F
100
AcDbEntity
  8
1
  6
Continuous
 62
     7
370
     9
100
AcDbLine
 10
121.2384525945232
 20
114.7409489394493
 30
0.0
 11
122.3213555028492
 21
115.3661625624963
 31
0.0
  0
LINE
  5
CB
330
1F
100
AcDbEntity
  8
1
  6
Continuous
 62
     7
370
     9
100
AcDbLine
 10
107.7054020574142
 20
123.1954128981893
 30
0.0
 11
114.2384506871752
 21
123.1954128981893
 31
0.0
  0
LINE
  5
CC
330
1F
100
AcDbEntity
  8
1
  6
Continuous
 62
     7
370
     9
100
AcDbLine
 10
108.5614020040082
 20
123.1954128981893
 30
0.0
 11
107.6599499394942
 21
121.7409489394493
 31
0.0
  0
LINE
  5
CD
330
1F
100
AcDbEntity
  8
1
  6
Continuous
 62
     7
370
     9
100
AcDbLine
 10
108.6718880345872
 20
126.7309506179163
 30
0.0
 11
108.5614029576832
 21
123.1954128981893
 31
0.0
  0
LINE
  5
CE
330
1F
100
AcDbEntity
  8
1
  6
Continuous
 62
     7
370
     9
100
AcDbLine
 10
118.2799030950122
 20
118.2409489394493
 30
0.0
 11
118.2799030950122
 21
121.1157353164023
 31
0.0
  0
LINE
  5
CF
330
1F
100
AcDbEntity
  8
1
  6
Continuous
 62
     7
370
     9
100
AcDbLine
 10
122.3213535955002
 20
118.2409489394493
 30
0.0
 11
122.3213535955002
 21
121.1157353164023
 31
0.0
  0
LINE
  5
D0
330
1F
100
AcDbEntity
  8
1
  6
Continuous
 62
     7
370
     9
100
AcDbLine
 10
121.2384506871752
 20
121.7409489394493
 30
0.0
 11
114.2384506871752
 21
121.7409489394493
 31
0.0
  0
LINE
  5
D1
330
1F
100
AcDbEntity
  8
1
  6
Continuous
 62
     7
370
     9
100
AcDbLine
 10
107.2384506871752
 20
121.7409489394493
 30
0.0
 11
106.1555468251752
 21
121.1157353164023
 31
0.0
  0
LINE
  5
D2
330
1F
100
AcDbEntity
  8
1
  6
Continuous
 62
     7
370
     9
100
AcDbLine
 10
110.1969982793382
 20
118.2409489394493
 30
0.0
 11
110.1969982793382
 21
121.1157353164023
 31
0.0
  0
LINE
  5
D3
330
1F
100
AcDbEntity
  8
1
  6
Continuous
 62
     7
370
     9
100
AcDbLine
 10
107.8158880879932
 20
126.7309468032193
 30
0.0
 11
107.6599508931682
 21
121.7409489394493
 31
0.0
  0
LINE
  5
D4
330
1F
100
AcDbEntity
  8
1
  6
Continuous
 62
     7
370
     9
100
AcDbLine
 10
106.1555468251752
 20
118.2409489394493
 30
0.0
 11
106.1555468251752
 21
121.1157353164023
 31
0.0
  0
LINE
  5
D5
330
1F
100
AcDbEntity
  8
1
  6
Continuous
 62
     7
370
     9
100
AcDbLine
 10
107.2384506871752
 20
121.7409489394493
 30
0.0
 11
114.2384506871752
 21
121.7409489394493
 31
0.0
  0
LINE
  5
D6
330
1F
100
AcDbEntity
  8
1
  6
Continuous
 62
     7
370
     9
100
AcDbLine
 10
120.6610123326832
 20
126.7309468032193
 30
0.0
 11
120.8169495275072
 21
121.7409489394493
 31
0.0
  0
LINE
  5
D7
330
1F
100
AcDbEntity
  8
1
  6
Continuous
 62
     7
370
     9
100
AcDbLine
 10
118.2799030950122
 20
118.2409489394493
 30
0.0
 11
118.2799030950122
 21
115.3661663771933
 31
0.0
  0
LINE
  5
D8
330
1F
100
AcDbEntity
  8
1
  6
Continuous
 62
     7
370
     9
100
AcDbLine
 10
120.5018116643482
 20
104.6565296889613
 30
0.0
 11
120.8169514348552
 21
114.7409489394493
 31
0.0
  0
LINE
  5
D9
330
1F
100
AcDbEntity
  8
1
  6
Continuous
 62
     7
370
     9
100
AcDbLine
 10
120.7714993169362
 20
113.2864849807093
 30
0.0
 11
114.2384506871752
 21
113.2864849807093
 31
0.0
  0
LINE
  5
DA
330
1F
100
AcDbEntity
  8
1
  6
Continuous
 62
     7
370
     9
100
AcDbLine
 10
122.3213535955002
 20
118.2409489394493
 30
0.0
 11
122.3213535955002
 21
115.3661663771933
 31
0.0
  0
LINE
  5
DB
330
1F
100
AcDbEntity
  8
1
  6
Continuous
 62
     7
370
     9
100
AcDbLine
 10
121.2384506871752
 20
121.7409489394493
 30
0.0
 11
122.3213535955002
 21
121.1157353164023
 31
0.0
  0
LINE
  5
DC
330
1F
100
AcDbEntity
  8
1
  6
Continuous
 62
     7
370
     9
100
AcDbLine
 10
121.2384506871752
 20
114.7409489394493
 30
0.0
 11
114.2384506871752
 21
114.7409489394493
 31
0.0
  0
LINE
  5
DD
330
1F
100
AcDbEntity
  8
1
  6
Continuous
 62
     7
370
     9
100
AcDbLine
 10
119.9731995275072
 20
103.7409489394493
 30
0.0
 11
114.2384506871752
 21
103.7409489394493
 31
0.0
  0
LINE
  5
DE
330
1F
100
AcDbEntity
  8
1
  6
Continuous
 62
     7
370
     9
100
AcDbLine
 10
119.9154984166672
 20
113.2864849807093
 30
0.0
 11
120.8169514348552
 21
114.7409489394493
 31
0.0
  0
LINE
  5
DF
330
1F
100
AcDbEntity
  8
1
  6
DASHDOT
 62
     7
370
     9
100
AcDbLine
 10
114.2384506871752
 20
99.4592716933563
 30
0.0
 11
114.2384506871752
 21
125.7309506179163
 31
0.0
  0
LINE
  5
E0
330
1F
100
AcDbEntity
  8
1
  6
Continuous
 62
     7
370
     9
100
AcDbLine
 10
108.5037008931682
 20
103.7409489394493
 30
0.0
 11
114.2384506871752
 21
103.7409489394493
 31
0.0
  0
LINE
  5
E1
330
1F
100
AcDbEntity
  8
1
  6
Continuous
 62
     7
370
     9
100
AcDbLine
 10
107.2384506871752
 20
114.7409489394493
 30
0.0
 11
114.2384506871752
 21
114.7409489394493
 31
0.0
  0
LINE
  5
E2
330
1F
100
AcDbEntity
  8
1
  6
Continuous
 62
     7
370
     9
100
AcDbLine
 10
107.9750887563282
 20
104.6565296889613
 30
0.0
 11
107.6599508931682
 21
114.7409489394493
 31
0.0
  0
LINE
  5
E3
330
1F
100
AcDbEntity
  8
1
  6
Continuous
 62
     7
370
     9
100
AcDbLine
 10
110.1969982793382
 20
118.2409489394493
 30
0.0
 11
110.1969982793382
 21
115.3661663771933
 31
0.0
  0
LINE
  5
E4
330
1F
100
AcDbEntity
  8
1
  6
Continuous
 62
     7
370
     9
100
AcDbLine
 10
107.2384497335002
 20
114.7409489394493
 30
0.0
 11
106.1555458715012
 21
115.3661625624963
 31
0.0
  0
LINE
  5
E5
330
1F
100
AcDbEntity
  8
1
  6
Continuous
 62
     7
370
     9
100
AcDbLine
 10
106.1555468251752
 20
118.2409489394493
 30
0.0
 11
106.1555468251752
 21
115.3661663771933
 31
0.0
  0
LINE
  5
E6
330
1F
100
AcDbEntity
  8
1
  6
Continuous
 62
     7
370
     9
100
AcDbLine
 10
108.5036999394942
 20
103.7409489394493
 30
0.0
 11
107.9750897100022
 21
104.6565296889613
 31
0.0
  0
LINE
  5
E7
330
1F
100
AcDbEntity
  8
1
  6
Continuous
 62
     7
370
     9
100
AcDbLine
 10
107.9750887563282
 20
104.6565296889613
 30
0.0
 11
114.2384506871752
 21
104.6565296889613
 31
0.0
  0
LINE
  5
E8
330
1F
100
AcDbEntity
  8
1
  6
Continuous
 62
     7
370
     9
100
AcDbLine
 10
108.8597008397632
 20
103.7409489394493
 30
0.0
 11
108.5614020040082
 21
113.2864849807093
 31
0.0
  0
LINE
  5
E9
330
1F
100
AcDbEntity
  8
1
  6
Continuous
 62
     7
370
     9
100
AcDbLine
 10
108.5614020040082
 20
113.2864849807093
 30
0.0
 11
107.6599499394942
 21
114.7409489394493
 31
0.0
  0
LINE
  5
EA
330
1F
100
AcDbEntity
  8
1
  6
Continuous
 62
     7
370
     9
100
AcDbLine
 10
107.7054020574142
 20
113.2864849807093
 30
0.0
 11
114.2384506871752
 21
113.2864849807093
 31
0.0
  0
LINE
  5
EB
330
1F
100
AcDbEntity
  8
1
  6
Continuous
 62
     7
370
     9
100
AcDbLine
 10
126.9401566197922
 20
184.7134258986773
 30
0.0
 11
126.9401566197922
 21
202.7484677077593
 31
0.0
  0
LINE
  5
EC
330
1F
100
AcDbEntity
  8
1
  6
Continuous
 62
     7
370
     9
100
AcDbLine
 10
126.9401566197922
 20
184.7134268523513
 30
0.0
 11
125.2384506871752
 21
183.7309458495443
 31
0.0
  0
LINE
  5
ED
330
1F
100
AcDbEntity
  8
1
  6
Continuous
 62
     7
370
     9
100
AcDbLine
 10
126.9401566197922
 20
202.7484677077593
 30
0.0
 11
125.2384506871752
 21
203.7309468032183
 31
0.0
  0
LINE
  5
EE
330
1F
100
AcDbEntity
  8
1
  6
Continuous
 62
     7
370
     9
100
AcDbLine
 10
120.5893036534832
 20
201.8976471663773
 30
0.0
 11
120.5893036534832
 21
185.5642884017293
 31
0.0
  0
LINE
  5
EF
330
1F
100
AcDbEntity
  8
1
  6
Continuous
 62
     7
370
     9
100
AcDbLine
 10
120.8173271825362
 20
183.7309553862873
 30
0.0
 11
120.6778351476242
 21
178.7309515715902
 31
0.0
  0
LINE
  5
F0
330
1F
100
AcDbEntity
  8
1
  6
Continuous
 62
     7
370
     9
100
AcDbLine
 10
119.9145428350022
 20
182.1672804595293
 30
0.0
 11
119.8214584996752
 21
178.7309515715902
 31
0.0
  0
LINE
  5
F1
330
1F
100
AcDbEntity
  8
1
  6
DASHDOT
 62
     7
370
     9
100
AcDbLine
 10
114.2384506871752
 20
203.7309468032183
 30
0.0
 11
114.2384506871752
 21
125.7309506179163
 31
0.0
  0
LINE
  5
F2
330
1F
100
AcDbEntity
  8
1
  6
Continuous
 62
     7
370
     9
100
AcDbLine
 10
107.7059818913982
 20
182.1672852279013
 30
0.0
 11
114.2384506871752
 21
182.1672852279013
 31
0.0
  0
LINE
  5
F3
330
1F
100
AcDbEntity
  8
1
  6
Continuous
 62
     7
370
     9
100
AcDbLine
 10
120.7709194829512
 20
182.1672852279013
 30
0.0
 11
114.2384506871752
 21
182.1672852279013
 31
0.0
  0
LINE
  5
F4
330
1F
100
AcDbEntity
  8
1
  6
Continuous
 62
     7
370
     9
100
AcDbLine
 10
120.8173271825362
 20
183.7309458495443
 30
0.0
 11
120.6778351476242
 21
178.7309515715902
 31
0.0
  0
LINE
  5
F5
330
1F
100
AcDbEntity
  8
1
  6
Continuous
 62
     7
370
     9
100
AcDbLine
 10
120.8173329045822
 20
183.7309572936353
 30
0.0
 11
119.9145466496992
 21
182.1672852279013
 31
0.0
  0
LINE
  5
F6
330
1F
100
AcDbEntity
  8
1
  6
Continuous
 62
     7
370
     9
100
AcDbLine
 10
126.9401566197922
 20
201.8976471663773
 30
0.0
 11
126.9401566197922
 21
185.5642884017293
 31
0.0
  0
LINE
  5
F7
330
1F
100
AcDbEntity
  8
1
  6
Continuous
 62
     7
370
     9
100
AcDbLine
 10
125.2384506871752
 20
183.7309448958693
 30
0.0
 11
120.8173271825362
 21
183.7309448958693
 31
0.0
  0
LINE
  5
F8
330
1F
100
AcDbEntity
  8
1
  6
Continuous
 62
     7
370
     9
100
AcDbLine
 10
125.2384506871752
 20
203.7309468032183
 30
0.0
 11
114.2384506871752
 21
203.7309468032183
 31
0.0
  0
LINE
  5
F9
330
1F
100
AcDbEntity
  8
1
  6
Continuous
 62
     7
370
     9
100
AcDbLine
 10
107.8875977208662
 20
201.8976471663773
 30
0.0
 11
107.8875977208662
 21
185.5642884017293
 31
0.0
  0
LINE
  5
FA
330
1F
100
AcDbEntity
  8
1
  6
Continuous
 62
     7
370
     9
100
AcDbLine
 10
107.6595675160932
 20
183.7309572936353
 30
0.0
 11
108.5623537709762
 21
182.1672852279013
 31
0.0
  0
LINE
  5
FB
330
1F
100
AcDbEntity
  8
1
  6
Continuous
 62
     7
370
     9
100
AcDbLine
 10
107.6595732381392
 20
183.7309553862873
 30
0.0
 11
107.7990662267262
 21
178.7309515715902
 31
0.0
  0
LINE
  5
FC
330
1F
100
AcDbEntity
  8
1
  6
Continuous
 62
     7
370
     9
100
AcDbLine
 10
108.5623585393482
 20
182.1672804595293
 30
0.0
 11
108.6554428746752
 21
178.7309515715902
 31
0.0
  0
LINE
  5
FD
330
1F
100
AcDbEntity
  8
1
  6
Continuous
 62
     7
370
     9
100
AcDbLine
 10
101.5367314031178
 20
185.5642798186603
 30
0.0
 11
104.7121683766892
 21
183.7309401274983
 31
0.0
  0
LINE
  5
FE
330
1F
100
AcDbEntity
  8
1
  6
Continuous
 62
     7
370
     9
100
AcDbLine
 10
101.5367390325124
 20
201.8976204634963
 30
0.0
 11
104.7121636083172
 21
203.7309544326123
 31
0.0
  0
LINE
  5
FF
330
1F
100
AcDbEntity
  8
1
  6
Continuous
 62
     7
370
     9
100
AcDbLine
 10
101.5367447545583
 20
201.8976471663773
 30
0.0
 11
101.5367447545583
 21
185.5642884017293
 31
0.0
  0
LINE
  5
100
330
1F
100
AcDbEntity
  8
1
  6
Continuous
 62
     7
370
     9
100
AcDbLine
 10
104.7121712377122
 20
183.7309448958693
 30
0.0
 11
120.8173271825362
 21
183.7309448958693
 31
0.0
  0
LINE
  5
101
330
1F
100
AcDbEntity
  8
1
  6
Continuous
 62
     7
370
     9
100
AcDbLine
 10
104.7121712377122
 20
203.7309468032183
 30
0.0
 11
114.2384506871752
 21
203.7309468032183
 31
0.0
  0
LINE
  5
102
330
1F
100
AcDbEntity
  8
1
  6
Continuous
 62
     7
370
     9
100
AcDbLine
 10
124.2384506871752
 20
131.8990872145963
 30
0.0
 11
124.2384506871752
 21
130.2309506179163
 31
0.0
  0
LINE
  5
103
330
1F
100
AcDbEntity
  8
1
  6
Continuous
 62
     7
370
     9
100
AcDbLine
 10
104.2384506871752
 20
131.8990872145963
 30
0.0
 11
104.2384506871752
 21
130.2309506179163
 31
0.0
  0
LINE
  5
104
330
1F
100
AcDbEntity
  8
1
  6
Continuous
 62
     7
370
     9
100
AcDbLine
 10
117.6650940587572
 20
178.7309487105673
 30
0.0
 11
124.2384506871752
 21
178.7309487105673
 31
0.0
  0
LINE
  5
105
330
1F
100
AcDbEntity
  8
1
  6
Continuous
 62
     7
370
     9
100
AcDbLine
 10
117.6650940587572
 20
126.7309506179163
 30
0.0
 11
124.2384506871752
 21
126.7309506179163
 31
0.0
  0
LINE
  5
106
330
1F
100
AcDbEntity
  8
1
  6
Continuous
 62
     7
370
     9
100
AcDbLine
 10
120.8000713994552
 20
130.2309506179163
 30
0.0
 11
124.2384506871752
 21
130.2309506179163
 31
0.0
  0
LINE
  5
107
330
1F
100
AcDbEntity
  8
1
  6
Continuous
 62
     7
370
     9
100
AcDbLine
 10
120.8000713994552
 20
175.2309487105673
 30
0.0
 11
124.2384506871752
 21
175.2309487105673
 31
0.0
  0
LINE
  5
108
330
1F
100
AcDbEntity
  8
1
  6
Continuous
 62
     7
370
     9
100
AcDbLine
 10
124.2384506871752
 20
175.2309487105673
 30
0.0
 11
124.2384506871752
 21
173.5628276110952
 31
0.0
  0
LINE
  5
109
330
1F
100
AcDbEntity
  8
1
  6
Continuous
 62
     7
370
     9
100
AcDbLine
 10
104.2384506871752
 20
175.2309487105673
 30
0.0
 11
104.2384506871752
 21
173.5628276110952
 31
0.0
  0
LINE
  5
10A
330
1F
100
AcDbEntity
  8
1
  6
Continuous
 62
     7
370
     9
100
AcDbLine
 10
104.2384506871752
 20
175.2309487105673
 30
0.0
 11
107.6768299748952
 21
175.2309487105673
 31
0.0
  0
LINE
  5
10B
330
1F
100
AcDbEntity
  8
1
  6
Continuous
 62
     7
370
     9
100
AcDbLine
 10
104.2384506871752
 20
130.2309506179163
 30
0.0
 11
107.6768299748952
 21
130.2309506179163
 31
0.0
  0
LINE
  5
10C
330
1F
100
AcDbEntity
  8
1
  6
Continuous
 62
     7
370
     9
100
AcDbLine
 10
104.2384506871752
 20
126.7309506179163
 30
0.0
 11
110.8118073155932
 21
126.7309506179163
 31
0.0
  0
LINE
  5
10D
330
1F
100
AcDbEntity
  8
1
  6
Continuous
 62
     7
370
     9
100
AcDbLine
 10
104.2384506871752
 20
178.7309487105673
 30
0.0
 11
110.8118073155932
 21
178.7309487105673
 31
0.0
  0
LINE
  5
10E
330
1F
100
AcDbEntity
  8
1
  6
Continuous
 62
     7
370
     9
100
AcDbLine
 10
115.1384503057052
 20
152.0309517623253
 30
0.0
 11
116.5384499242352
 21
152.0309517623253
 31
0.0
  0
LINE
  5
10F
330
1F
100
AcDbEntity
  8
1
  6
Continuous
 62
     7
370
     9
100
AcDbLine
 10
114.9384514501142
 20
151.8309548140833
 30
0.0
 11
114.9384514501142
 21
150.4309609175993
 31
0.0
  0
LINE
  5
110
330
1F
100
AcDbEntity
  8
1
  6
Continuous
 62
     7
370
     9
100
AcDbLine
 10
115.1384503057052
 20
153.4309456588103
 30
0.0
 11
116.5384499242352
 21
153.4309456588103
 31
0.0
  0
LINE
  5
111
330
1F
100
AcDbEntity
  8
1
  6
Continuous
 62
     7
370
     9
100
AcDbLine
 10
113.5384499242352
 20
151.8309548140833
 30
0.0
 11
113.5384499242352
 21
150.4309609175993
 31
0.0
  0
LINE
  5
112
330
1F
100
AcDbEntity
  8
1
  6
Continuous
 62
     7
370
     9
100
AcDbLine
 10
111.9384514501142
 20
153.4309456588103
 30
0.0
 11
113.3384510686452
 21
153.4309456588103
 31
0.0
  0
LINE
  5
113
330
1F
100
AcDbEntity
  8
1
  6
Continuous
 62
     7
370
     9
100
AcDbLine
 10
111.9384514501142
 20
152.0309517623253
 30
0.0
 11
113.3384510686452
 21
152.0309517623253
 31
0.0
  0
LINE
  5
114
330
1F
100
AcDbEntity
  8
1
  6
Continuous
 62
     7
370
     9
100
AcDbLine
 10
113.5384499242352
 20
155.0309517623253
 30
0.0
 11
113.5384499242352
 21
153.6309578658413
 31
0.0
  0
LINE
  5
115
330
1F
100
AcDbEntity
  8
1
  6
Continuous
 62
     7
370
     9
100
AcDbLine
 10
114.9384514501142
 20
155.0309517623253
 30
0.0
 11
114.9384514501142
 21
153.6309578658413
 31
0.0
  0
LINE
  5
116
330
1F
100
AcDbEntity
  8
1
  6
Continuous
 62
     7
370
     9
100
AcDbLine
 10
113.7384506871752
 20
150.2309487105673
 30
0.0
 11
114.7384506871752
 21
150.2309487105673
 31
0.0
  0
LINE
  5
117
330
1F
100
AcDbEntity
  8
1
  6
Continuous
 62
     7
370
     9
100
AcDbLine
 10
113.7384506871752
 20
155.2309487105673
 30
0.0
 11
114.7384506871752
 21
155.2309487105673
 31
0.0
  0
LINE
  5
118
330
1F
100
AcDbEntity
  8
1
  6
Continuous
 62
     7
370
     9
100
AcDbLine
 10
116.7384506871752
 20
153.2309487105673
 30
0.0
 11
116.7384506871752
 21
152.2309639693563
 31
0.0
  0
LINE
  5
119
330
1F
100
AcDbEntity
  8
1
  6
Continuous
 62
     7
370
     9
100
AcDbLine
 10
111.7384506871752
 20
153.2309487105673
 30
0.0
 11
111.7384506871752
 21
152.2309639693563
 31
0.0
  0
ARC
  5
11A
330
1F
100
AcDbEntity
  8
1
  6
Continuous
 62
     7
370
     9
100
AcDbCircle
 10
114.2384506871752
 20
195.6476166487993
 30
0.0
 40
11.916666984558
100
AcDbArc
 50
270.0000043257106
 51
302.2042301491041
  0
ARC
  5
11B
330
1F
100
AcDbEntity
  8
1
  6
Continuous
 62
     7
370
     9
100
AcDbCircle
 10
114.2384506871752
 20
191.8142884017293
 30
0.0
 40
11.916666984558
100
AcDbArc
 50
57.79576985089558
 51
89.99999567428912
  0
ARC
  5
11C
330
1F
100
AcDbEntity
  8
1
  6
Continuous
 62
     7
370
     9
100
AcDbCircle
 10
123.7647301366382
 20
187.3976166487993
 30
0.0
 40
3.666666746139498
100
AcDbArc
 50
210.0000026560599
 51
270.0000043257106
  0
ARC
  5
11D
330
1F
100
AcDbEntity
  8
1
  6
Continuous
 62
     7
370
     9
100
AcDbCircle
 10
123.7647301366382
 20
200.0643036605183
 30
0.0
 40
3.666666746139498
100
AcDbArc
 50
89.9999956742891
 51
149.9999973439402
  0
ARC
  5
11E
330
1F
100
AcDbEntity
  8
1
  6
Continuous
 62
     7
370
     9
100
AcDbCircle
 10
113.7384506871752
 20
150.4309609175993
 30
0.0
 40
0.1999999880790995
100
AcDbArc
 50
179.9999913485732
 51
270.00000068325
  0
ARC
  5
11F
330
1F
100
AcDbEntity
  8
1
  6
Continuous
 62
     7
370
     9
100
AcDbCircle
 10
111.9384514501142
 20
152.2309639693563
 30
0.0
 40
0.1999999880790995
100
AcDbArc
 50
179.9999913485813
 51
270.00000068325
  0
ARC
  5
120
330
1F
100
AcDbEntity
  8
1
  6
Continuous
 62
     7
370
     9
100
AcDbCircle
 10
111.9384514501142
 20
153.2309487105673
 30
0.0
 40
0.1999999880790995
100
AcDbArc
 50
90.0000025044778
 51
180.0000050089552
  0
ARC
  5
121
330
1F
100
AcDbEntity
  8
1
  6
Continuous
 62
     7
370
     9
100
AcDbCircle
 10
114.7384506871752
 20
155.0309517623253
 30
0.0
 40
0.1999999880790995
100
AcDbArc
 50
0.0
 51
90.0000025044778
  0
ARC
  5
122
330
1F
100
AcDbEntity
  8
1
  6
Continuous
 62
     7
370
     9
100
AcDbCircle
 10
113.7384506871752
 20
155.0309517623253
 30
0.0
 40
0.1999999880790995
100
AcDbArc
 50
90.0000025044778
 51
180.0000050089552
  0
ARC
  5
123
330
1F
100
AcDbEntity
  8
1
  6
Continuous
 62
     7
370
     9
100
AcDbCircle
 10
88.34455267692148
 20
155.0774452925993
 30
0.0
 40
1.0
100
AcDbArc
 50
117.4580937981699
 51
174.8220249387882
  0
ARC
  5
124
330
1F
100
AcDbEntity
  8
1
  6
Continuous
 62
     7
370
     9
100
AcDbCircle
 10
88.34455267692148
 20
150.3844673873253
 30
0.0
 40
1.0
100
AcDbArc
 50
185.1779750612098
 51
242.5419062018297
  0
ARC
  5
125
330
1F
100
AcDbEntity
  8
1
  6
Continuous
 62
     7
370
     9
100
AcDbCircle
 10
94.26947931552478
 20
169.3814769030874
 30
0.0
 40
1.0
100
AcDbArc
 50
140.1779667514073
 51
197.5419115524045
  0
ARC
  5
126
330
1F
100
AcDbEntity
  8
1
  6
Continuous
 62
     7
370
     9
100
AcDbCircle
 10
97.58791891837657
 20
172.6999430896109
 30
0.0
 40
1.0
100
AcDbArc
 50
72.45809596102488
 51
129.8220339318346
  0
ARC
  5
127
330
1F
100
AcDbEntity
  8
1
  6
Continuous
 62
     7
370
     9
100
AcDbCircle
 10
111.8919598271892
 20
178.6248543502157
 30
0.0
 40
1.0
100
AcDbArc
 50
95.17796891426295
 51
152.5419068850763
  0
ARC
  5
128
330
1F
100
AcDbEntity
  8
1
  6
Continuous
 62
     7
370
     9
100
AcDbCircle
 10
116.5849415471602
 20
178.6248543502157
 30
0.0
 40
1.0
100
AcDbArc
 50
27.458094708789
 51
84.82202926450007
  0
ARC
  5
129
330
1F
100
AcDbEntity
  8
1
  6
Continuous
 62
     7
370
     9
100
AcDbCircle
 10
130.8889824559742
 20
172.6999430896109
 30
0.0
 40
1.0
100
AcDbArc
 50
50.1779676620257
 51
107.541902217743
  0
ARC
  5
12A
330
1F
100
AcDbEntity
  8
1
  6
Continuous
 62
     7
370
     9
100
AcDbCircle
 10
134.2074219396162
 20
169.3814769030874
 30
0.0
 40
1.0
100
AcDbArc
 50
342.4580951640929
 51
39.82203142736122
  0
ARC
  5
12B
330
1F
100
AcDbEntity
  8
1
  6
Continuous
 62
     7
370
     9
100
AcDbCircle
 10
140.1323486974292
 20
155.0774452925993
 30
0.0
 40
1.0
100
AcDbArc
 50
5.177968971105276
 51
62.54190438059702
  0
ARC
  5
12C
330
1F
100
AcDbEntity
  8
1
  6
Continuous
 62
     7
370
     9
100
AcDbCircle
 10
140.1323486974292
 20
150.3844673873253
 30
0.0
 40
1.0
100
AcDbArc
 50
297.4580956194034
 51
354.8220310288944
  0
ARC
  5
12D
330
1F
100
AcDbEntity
  8
1
  6
Continuous
 62
     7
370
     9
100
AcDbCircle
 10
134.2074219396162
 20
136.0804226638143
 30
0.0
 40
1.0
100
AcDbArc
 50
320.1779685726397
 51
17.54190483590823
  0
ARC
  5
12E
330
1F
100
AcDbEntity
  8
1
  6
Continuous
 62
     7
370
     9
100
AcDbCircle
 10
130.8889824559742
 20
132.7619869948693
 30
0.0
 40
1.0
100
AcDbArc
 50
252.4580977822571
 51
309.822032337974
  0
ARC
  5
12F
330
1F
100
AcDbEntity
  8
1
  6
Continuous
 62
     7
370
     9
100
AcDbCircle
 10
116.5849415471602
 20
126.8370602370573
 30
0.0
 40
1.0
100
AcDbArc
 50
275.1779707354997
 51
332.5419052912106
  0
ARC
  5
130
330
1F
100
AcDbEntity
  8
1
  6
Continuous
 62
     7
370
     9
100
AcDbCircle
 10
111.8919598271892
 20
126.8370602370573
 30
0.0
 40
1.0
100
AcDbArc
 50
207.4580931149226
 51
264.8220310857366
  0
ARC
  5
131
330
1F
100
AcDbEntity
  8
1
  6
Continuous
 62
     7
370
     9
100
AcDbCircle
 10
97.58791891837657
 20
132.7619869948693
 30
0.0
 40
1.0
100
AcDbArc
 50
230.1779660681661
 51
287.5419040389747
  0
ARC
  5
132
330
1F
100
AcDbEntity
  8
1
  6
Continuous
 62
     7
370
     9
100
AcDbCircle
 10
94.26947931552478
 20
136.0804226638143
 30
0.0
 40
1.0
100
AcDbArc
 50
162.4580984655042
 51
219.8220296061223
  0
ARC
  5
133
330
1F
100
AcDbEntity
  8
1
  6
Continuous
 62
     7
370
     9
100
AcDbCircle
 10
114.2384506871752
 20
152.7309487105673
 30
0.0
 40
27.0
100
AcDbArc
 50
264.8220310857367
 51
275.1779707355001
  0
ARC
  5
134
330
1F
100
AcDbEntity
  8
1
  6
Continuous
 62
     7
370
     9
100
AcDbCircle
 10
114.2384506871752
 20
152.7309487105673
 30
0.0
 40
27.0
100
AcDbArc
 50
309.8220323379734
 51
320.177968572639
  0
ARC
  5
135
330
1F
100
AcDbEntity
  8
1
  6
Continuous
 62
     7
370
     9
100
AcDbCircle
 10
114.2384506871752
 20
152.7309487105673
 30
0.0
 40
27.0
100
AcDbArc
 50
354.8220310288937
 51
0.0
  0
ARC
  5
136
330
1F
100
AcDbEntity
  8
1
  6
Continuous
 62
     7
370
     9
100
AcDbCircle
 10
114.2384506871752
 20
152.7309487105673
 30
0.0
 40
27.0
100
AcDbArc
 50
39.8220314273606
 51
50.17796766202628
  0
ARC
  5
137
330
1F
100
AcDbEntity
  8
1
  6
Continuous
 62
     7
370
     9
100
AcDbCircle
 10
114.2384506871752
 20
152.7309487105673
 30
0.0
 40
27.0
100
AcDbArc
 50
84.82202926449945
 51
95.17796891426282
  0
ARC
  5
138
330
1F
100
AcDbEntity
  8
1
  6
Continuous
 62
     7
370
     9
100
AcDbCircle
 10
114.2384506871752
 20
152.7309487105673
 30
0.0
 40
27.0
100
AcDbArc
 50
129.8220339318337
 51
140.1779667514074
  0
ARC
  5
139
330
1F
100
AcDbEntity
  8
1
  6
Continuous
 62
     7
370
     9
100
AcDbCircle
 10
114.2384506871752
 20
152.7309487105673
 30
0.0
 40
27.0
100
AcDbArc
 50
174.8220249387886
 51
185.1779714187414
  0
ARC
  5
13A
330
1F
100
AcDbEntity
  8
1
  6
Continuous
 62
     7
370
     9
100
AcDbCircle
 10
114.2384506871752
 20
152.7309487105673
 30
0.0
 40
27.0
100
AcDbArc
 50
219.8220332485922
 51
230.1779660681659
  0
ARC
  5
13B
330
1F
100
AcDbEntity
  8
1
  6
Continuous
 62
     7
370
     9
100
AcDbCircle
 10
101.2146526982838
 20
184.1731789351763
 30
0.0
 40
11.032826423645
100
AcDbArc
 50
252.4580977822571
 51
332.5419052912107
  0
ARC
  5
13C
330
1F
100
AcDbEntity
  8
1
  6
Continuous
 62
     7
370
     9
100
AcDbCircle
 10
82.79621855521818
 20
165.7547524215048
 30
0.0
 40
11.032826423645
100
AcDbArc
 50
297.4580956194017
 51
17.54190483590743
  0
ARC
  5
13D
330
1F
100
AcDbEntity
  8
1
  6
Continuous
 62
     7
370
     9
100
AcDbCircle
 10
82.79621855521818
 20
139.7071602584193
 30
0.0
 40
11.032826423645
100
AcDbArc
 50
342.4580951640924
 51
62.54190438059798
  0
ARC
  5
13E
330
1F
100
AcDbEntity
  8
1
  6
Continuous
 62
     7
370
     9
100
AcDbCircle
 10
101.2146526982838
 20
121.2887356520963
 30
0.0
 40
11.032826423645
100
AcDbArc
 50
27.45809470878888
 51
107.5419022177426
  0
ARC
  5
13F
330
1F
100
AcDbEntity
  8
1
  6
Continuous
 62
     7
370
     9
100
AcDbCircle
 10
127.2622467687182
 20
121.2887356520963
 30
0.0
 40
11.032826423645
100
AcDbArc
 50
72.4580959610254
 51
152.5419068850769
  0
ARC
  5
140
330
1F
100
AcDbEntity
  8
1
  6
Continuous
 62
     7
370
     9
100
AcDbCircle
 10
145.6806809117842
 20
139.7071602584193
 30
0.0
 40
11.032826423645
100
AcDbArc
 50
117.4580937981701
 51
197.5419115524051
  0
ARC
  5
141
330
1F
100
AcDbEntity
  8
1
  6
Continuous
 62
     7
370
     9
100
AcDbCircle
 10
145.6806809117842
 20
165.7547524215048
 30
0.0
 40
11.032826423645
100
AcDbArc
 50
162.4580984655045
 51
242.5419025593657
  0
ARC
  5
142
330
1F
100
AcDbEntity
  8
1
  6
Continuous
 62
     7
370
     9
100
AcDbCircle
 10
127.2622467687182
 20
184.1731789351763
 30
0.0
 40
11.032826423645
100
AcDbArc
 50
207.4580931149228
 51
287.5419040389741
  0
CIRCLE
  5
143
330
1F
100
AcDbEntity
  8
1
  6
Continuous
 62
     7
370
     9
100
AcDbCircle
 10
114.2384506871752
 20
152.7309487105673
 30
0.0
 40
3.5
  0
CIRCLE
  5
144
330
1F
100
AcDbEntity
  8
1
  6
Continuous
 62
     7
370
     9
100
AcDbCircle
 10
114.2384506871752
 20
152.7309487105673
 30
0.0
 40
9.0
  0
ARC
  5
145
330
1F
100
AcDbEntity
  8
1
  6
Continuous
 62
     7
370
     9
100
AcDbCircle
 10
114.2384506871752
 20
152.7309487105673
 30
0.0
 40
27.0
100
AcDbArc
 50
0.0
 51
5.177968971105859
  0
ARC
  5
146
330
1F
100
AcDbEntity
  8
1
  6
Continuous
 62
     7
370
     9
100
AcDbCircle
 10
114.7384506871752
 20
150.4309609175993
 30
0.0
 40
0.1999999880790995
100
AcDbArc
 50
269.9999974955218
 51
0.0
  0
ARC
  5
147
330
1F
100
AcDbEntity
  8
1
  6
Continuous
 62
     7
370
     9
100
AcDbCircle
 10
104.7121712377122
 20
187.3976166487993
 30
0.0
 40
3.6666667461395
100
AcDbArc
 50
269.9999974955207
 51
329.9999991651715
  0
ARC
  5
148
330
1F
100
AcDbEntity
  8
1
  6
Continuous
 62
     7
370
     9
100
AcDbCircle
 10
114.2384506871752
 20
195.6476166487993
 30
0.0
 40
11.916666984558
100
AcDbArc
 50
237.7957716721272
 51
269.9999974955207
  0
ARC
  5
149
330
1F
100
AcDbEntity
  8
1
  6
Continuous
 62
     7
370
     9
100
AcDbCircle
 10
104.7121712377122
 20
200.0643036605183
 30
0.0
 40
3.6666667461395
100
AcDbArc
 50
30.00000083482811
 51
90.00000250447894
  0
ARC
  5
14A
330
1F
100
AcDbEntity
  8
1
  6
Continuous
 62
     7
370
     9
100
AcDbCircle
 10
104.2384506871752
 20
176.9809487105673
 30
0.0
 40
1.75
100
AcDbArc
 50
90.00000250447894
 51
270.0000006832468
  0
ARC
  5
14B
330
1F
100
AcDbEntity
  8
1
  6
Continuous
 62
     7
370
     9
100
AcDbCircle
 10
104.2384506871752
 20
128.4809658767053
 30
0.0
 40
1.75
100
AcDbArc
 50
90.00000250447894
 51
270.0000006832468
  0
ARC
  5
14C
330
1F
100
AcDbEntity
  8
1
  6
Continuous
 62
     7
370
     9
100
AcDbCircle
 10
124.2384506871752
 20
176.9809487105673
 30
0.0
 40
1.75
100
AcDbArc
 50
269.9999974955207
 51
90.00000250447894
  0
ARC
  5
14D
330
1F
100
AcDbEntity
  8
1
  6
Continuous
 62
     7
370
     9
100
AcDbCircle
 10
115.1384503057052
 20
151.8309548140833
 30
0.0
 40
0.1999999880790995
100
AcDbArc
 50
90.0000025044778
 51
180.0000050089552
  0
ARC
  5
14E
330
1F
100
AcDbEntity
  8
1
  6
Continuous
 62
     7
370
     9
100
AcDbCircle
 10
124.2384506871752
 20
128.4809658767053
 30
0.0
 40
1.75
100
AcDbArc
 50
269.9999974955207
 51
90.00000250447894
  0
ARC
  5
14F
330
1F
100
AcDbEntity
  8
1
  6
Continuous
 62
     7
370
     9
100
AcDbCircle
 10
113.3384510686452
 20
151.8309548140833
 30
0.0
 40
0.1999999880790995
100
AcDbArc
 50
0.0
 51
90.00000250448188
  0
ARC
  5
150
330
1F
100
AcDbEntity
  8
1
  6
Continuous
 62
     7
370
     9
100
AcDbCircle
 10
113.3384510686452
 20
153.6309578658413
 30
0.0
 40
0.1999999880790995
100
AcDbArc
 50
269.9999974955178
 51
0.0
  0
ARC
  5
151
330
1F
100
AcDbEntity
  8
1
  6
Continuous
 62
     7
370
     9
100
AcDbCircle
 10
115.1384503057052
 20
153.6309578658413
 30
0.0
 40
0.1999999880790995
100
AcDbArc
 50
179.9999913485813
 51
270.00000068325
  0
ARC
  5
152
330
1F
100
AcDbEntity
  8
1
  6
Continuous
 62
     7
370
     9
100
AcDbCircle
 10
116.5384499242352
 20
152.2309639693563
 30
0.0
 40
0.1999999880790995
100
AcDbArc
 50
269.9999974955218
 51
0.0
  0
ARC
  5
153
330
1F
100
AcDbEntity
  8
1
  6
Continuous
 62
     7
370
     9
100
AcDbCircle
 10
116.5384499242352
 20
153.2309487105673
 30
0.0
 40
0.1999999880790995
100
AcDbArc
 50
0.0
 51
90.0000025044778
  0
ARC
  5
154
330
1F
100
AcDbEntity
  8
1
  6
Continuous
 62
     7
370
     9
100
AcDbCircle
 10
114.2384506871752
 20
191.8142884017293
 30
0.0
 40
11.916666984558
100
AcDbArc
 50
90.0000025044789
 51
122.2042283278725
  0
POLYLINE
  5
155
330
1F
100
AcDbEntity
  8
1
  6
Continuous
 62
     7
370
     9
100
AcDb2dPolyline
 66
     1
 10
0.0
 20
0.0
 30
0.0
  0
VERTEX
  5
156
330
155
100
AcDbEntity
  8
1
  6
Continuous
 62
     7
370
     9
100
AcDbVertex
100
AcDb2dVertex
 10
110.1970130895192
 20
115.3661654189413
 30
0.0
  0
VERTEX
  5
157
330
155
100
AcDbEntity
  8
1
  6
Continuous
 62
     7
370
     9
100
AcDbVertex
100
AcDb2dVertex
 10
110.2224130895192
 20
115.3602654189413
 30
0.0
  0
VERTEX
  5
158
330
155
100
AcDbEntity
  8
1
  6
Continuous
 62
     7
370
     9
100
AcDbVertex
100
AcDb2dVertex
 10
110.2478130895192
 20
115.3543654189413
 30
0.0
  0
VERTEX
  5
159
330
155
100
AcDbEntity
  8
1
  6
Continuous
 62
     7
370
     9
100
AcDbVertex
100
AcDb2dVertex
 10
110.2732130895192
 20
115.3484654189413
 30
0.0
  0
VERTEX
  5
15A
330
155
100
AcDbEntity
  8
1
  6
Continuous
 62
     7
370
     9
100
AcDbVertex
100
AcDb2dVertex
 10
110.2987130895192
 20
115.3425654189413
 30
0.0
  0
VERTEX
  5
15B
330
155
100
AcDbEntity
  8
1
  6
Continuous
 62
     7
370
     9
100
AcDbVertex
100
AcDb2dVertex
 10
110.3241130895192
 20
115.3366654189413
 30
0.0
  0
VERTEX
  5
15C
330
155
100
AcDbEntity
  8
1
  6
Continuous
 62
     7
370
     9
100
AcDbVertex
100
AcDb2dVertex
 10
110.3495130895192
 20
115.3307654189413
 30
0.0
  0
VERTEX
  5
15D
330
155
100
AcDbEntity
  8
1
  6
Continuous
 62
     7
370
     9
100
AcDbVertex
100
AcDb2dVertex
 10
110.3749130895192
 20
115.3248654189413
 30
0.0
  0
VERTEX
  5
15E
330
155
100
AcDbEntity
  8
1
  6
Continuous
 62
     7
370
     9
100
AcDbVertex
100
AcDb2dVertex
 10
110.4003130895192
 20
115.3190654189413
 30
0.0
  0
VERTEX
  5
15F
330
155
100
AcDbEntity
  8
1
  6
Continuous
 62
     7
370
     9
100
AcDbVertex
100
AcDb2dVertex
 10
110.4257130895192
 20
115.3131654189413
 30
0.0
  0
VERTEX
  5
160
330
155
100
AcDbEntity
  8
1
  6
Continuous
 62
     7
370
     9
100
AcDbVertex
100
AcDb2dVertex
 10
110.4512130895192
 20
115.3072654189413
 30
0.0
  0
VERTEX
  5
161
330
155
100
AcDbEntity
  8
1
  6
Continuous
 62
     7
370
     9
100
AcDbVertex
100
AcDb2dVertex
 10
110.4766130895192
 20
115.3013654189413
 30
0.0
  0
VERTEX
  5
162
330
155
100
AcDbEntity
  8
1
  6
Continuous
 62
     7
370
     9
100
AcDbVertex
100
AcDb2dVertex
 10
110.5020130895192
 20
115.2955654189413
 30
0.0
  0
VERTEX
  5
163
330
155
100
AcDbEntity
  8
1
  6
Continuous
 62
     7
370
     9
100
AcDbVertex
100
AcDb2dVertex
 10
110.5274130895192
 20
115.2896654189413
 30
0.0
  0
VERTEX
  5
164
330
155
100
AcDbEntity
  8
1
  6
Continuous
 62
     7
370
     9
100
AcDbVertex
100
AcDb2dVertex
 10
110.5528130895192
 20
115.2837654189413
 30
0.0
  0
VERTEX
  5
165
330
155
100
AcDbEntity
  8
1
  6
Continuous
 62
     7
370
     9
100
AcDbVertex
100
AcDb2dVertex
 10
110.5783130895192
 20
115.2779654189413
 30
0.0
  0
VERTEX
  5
166
330
155
100
AcDbEntity
  8
1
  6
Continuous
 62
     7
370
     9
100
AcDbVertex
100
AcDb2dVertex
 10
110.6037130895192
 20
115.2720654189413
 30
0.0
  0
VERTEX
  5
167
330
155
100
AcDbEntity
  8
1
  6
Continuous
 62
     7
370
     9
100
AcDbVertex
100
AcDb2dVertex
 10
110.6291130895192
 20
115.2662654189413
 30
0.0
  0
VERTEX
  5
168
330
155
100
AcDbEntity
  8
1
  6
Continuous
 62
     7
370
     9
100
AcDbVertex
100
AcDb2dVertex
 10
110.6545130895192
 20
115.2604654189413
 30
0.0
  0
VERTEX
  5
169
330
155
100
AcDbEntity
  8
1
  6
Continuous
 62
     7
370
     9
100
AcDbVertex
100
AcDb2dVertex
 10
110.6799130895192
 20
115.2546654189413
 30
0.0
  0
VERTEX
  5
16A
330
155
100
AcDbEntity
  8
1
  6
Continuous
 62
     7
370
     9
100
AcDbVertex
100
AcDb2dVertex
 10
110.7053130895192
 20
115.2488654189413
 30
0.0
  0
VERTEX
  5
16B
330
155
100
AcDbEntity
  8
1
  6
Continuous
 62
     7
370
     9
100
AcDbVertex
100
AcDb2dVertex
 10
110.7308130895192
 20
115.2430654189413
 30
0.0
  0
VERTEX
  5
16C
330
155
100
AcDbEntity
  8
1
  6
Continuous
 62
     7
370
     9
100
AcDbVertex
100
AcDb2dVertex
 10
110.7562130895192
 20
115.2372654189413
 30
0.0
  0
VERTEX
  5
16D
330
155
100
AcDbEntity
  8
1
  6
Continuous
 62
     7
370
     9
100
AcDbVertex
100
AcDb2dVertex
 10
110.7816130895192
 20
115.2314654189413
 30
0.0
  0
VERTEX
  5
16E
330
155
100
AcDbEntity
  8
1
  6
Continuous
 62
     7
370
     9
100
AcDbVertex
100
AcDb2dVertex
 10
110.8070130895192
 20
115.2256654189413
 30
0.0
  0
VERTEX
  5
16F
330
155
100
AcDbEntity
  8
1
  6
Continuous
 62
     7
370
     9
100
AcDbVertex
100
AcDb2dVertex
 10
110.8324130895192
 20
115.2199654189413
 30
0.0
  0
VERTEX
  5
170
330
155
100
AcDbEntity
  8
1
  6
Continuous
 62
     7
370
     9
100
AcDbVertex
100
AcDb2dVertex
 10
110.8579130895192
 20
115.2141654189413
 30
0.0
  0
VERTEX
  5
171
330
155
100
AcDbEntity
  8
1
  6
Continuous
 62
     7
370
     9
100
AcDbVertex
100
AcDb2dVertex
 10
110.8833130895192
 20
115.2084654189413
 30
0.0
  0
VERTEX
  5
172
330
155
100
AcDbEntity
  8
1
  6
Continuous
 62
     7
370
     9
100
AcDbVertex
100
AcDb2dVertex
 10
110.9087130895192
 20
115.2027654189413
 30
0.0
  0
VERTEX
  5
173
330
155
100
AcDbEntity
  8
1
  6
Continuous
 62
     7
370
     9
100
AcDbVertex
100
AcDb2dVertex
 10
110.9341130895192
 20
115.1969654189413
 30
0.0
  0
VERTEX
  5
174
330
155
100
AcDbEntity
  8
1
  6
Continuous
 62
     7
370
     9
100
AcDbVertex
100
AcDb2dVertex
 10
110.9595130895192
 20
115.1913654189413
 30
0.0
  0
VERTEX
  5
175
330
155
100
AcDbEntity
  8
1
  6
Continuous
 62
     7
370
     9
100
AcDbVertex
100
AcDb2dVertex
 10
110.9849130895192
 20
115.1856654189413
 30
0.0
  0
VERTEX
  5
176
330
155
100
AcDbEntity
  8
1
  6
Continuous
 62
     7
370
     9
100
AcDbVertex
100
AcDb2dVertex
 10
111.0104130895192
 20
115.1799654189413
 30
0.0
  0
VERTEX
  5
177
330
155
100
AcDbEntity
  8
1
  6
Continuous
 62
     7
370
     9
100
AcDbVertex
100
AcDb2dVertex
 10
111.0358130895192
 20
115.1743654189413
 30
0.0
  0
VERTEX
  5
178
330
155
100
AcDbEntity
  8
1
  6
Continuous
 62
     7
370
     9
100
AcDbVertex
100
AcDb2dVertex
 10
111.0612130895192
 20
115.1686654189413
 30
0.0
  0
VERTEX
  5
179
330
155
100
AcDbEntity
  8
1
  6
Continuous
 62
     7
370
     9
100
AcDbVertex
100
AcDb2dVertex
 10
111.0866130895192
 20
115.1630654189413
 30
0.0
  0
VERTEX
  5
17A
330
155
100
AcDbEntity
  8
1
  6
Continuous
 62
     7
370
     9
100
AcDbVertex
100
AcDb2dVertex
 10
111.1120130895192
 20
115.1574654189413
 30
0.0
  0
VERTEX
  5
17B
330
155
100
AcDbEntity
  8
1
  6
Continuous
 62
     7
370
     9
100
AcDbVertex
100
AcDb2dVertex
 10
111.1374130895192
 20
115.1518654189413
 30
0.0
  0
VERTEX
  5
17C
330
155
100
AcDbEntity
  8
1
  6
Continuous
 62
     7
370
     9
100
AcDbVertex
100
AcDb2dVertex
 10
111.1629130895192
 20
115.1462654189413
 30
0.0
  0
VERTEX
  5
17D
330
155
100
AcDbEntity
  8
1
  6
Continuous
 62
     7
370
     9
100
AcDbVertex
100
AcDb2dVertex
 10
111.1883130895192
 20
115.1407654189413
 30
0.0
  0
VERTEX
  5
17E
330
155
100
AcDbEntity
  8
1
  6
Continuous
 62
     7
370
     9
100
AcDbVertex
100
AcDb2dVertex
 10
111.2137130895192
 20
115.1351654189413
 30
0.0
  0
VERTEX
  5
17F
330
155
100
AcDbEntity
  8
1
  6
Continuous
 62
     7
370
     9
100
AcDbVertex
100
AcDb2dVertex
 10
111.2391130895192
 20
115.1296654189413
 30
0.0
  0
VERTEX
  5
180
330
155
100
AcDbEntity
  8
1
  6
Continuous
 62
     7
370
     9
100
AcDbVertex
100
AcDb2dVertex
 10
111.2645130895192
 20
115.1241654189413
 30
0.0
  0
VERTEX
  5
181
330
155
100
AcDbEntity
  8
1
  6
Continuous
 62
     7
370
     9
100
AcDbVertex
100
AcDb2dVertex
 10
111.2900130895192
 20
115.1187654189413
 30
0.0
  0
VERTEX
  5
182
330
155
100
AcDbEntity
  8
1
  6
Continuous
 62
     7
370
     9
100
AcDbVertex
100
AcDb2dVertex
 10
111.3154130895192
 20
115.1132654189413
 30
0.0
  0
VERTEX
  5
183
330
155
100
AcDbEntity
  8
1
  6
Continuous
 62
     7
370
     9
100
AcDbVertex
100
AcDb2dVertex
 10
111.3408130895192
 20
115.1078654189413
 30
0.0
  0
VERTEX
  5
184
330
155
100
AcDbEntity
  8
1
  6
Continuous
 62
     7
370
     9
100
AcDbVertex
100
AcDb2dVertex
 10
111.3662130895192
 20
115.1023654189413
 30
0.0
  0
VERTEX
  5
185
330
155
100
AcDbEntity
  8
1
  6
Continuous
 62
     7
370
     9
100
AcDbVertex
100
AcDb2dVertex
 10
111.3916130895192
 20
115.0970654189413
 30
0.0
  0
VERTEX
  5
186
330
155
100
AcDbEntity
  8
1
  6
Continuous
 62
     7
370
     9
100
AcDbVertex
100
AcDb2dVertex
 10
111.4170130895192
 20
115.0916654189413
 30
0.0
  0
VERTEX
  5
187
330
155
100
AcDbEntity
  8
1
  6
Continuous
 62
     7
370
     9
100
AcDbVertex
100
AcDb2dVertex
 10
111.4425130895192
 20
115.0862654189413
 30
0.0
  0
VERTEX
  5
188
330
155
100
AcDbEntity
  8
1
  6
Continuous
 62
     7
370
     9
100
AcDbVertex
100
AcDb2dVertex
 10
111.4679130895192
 20
115.0809654189413
 30
0.0
  0
VERTEX
  5
189
330
155
100
AcDbEntity
  8
1
  6
Continuous
 62
     7
370
     9
100
AcDbVertex
100
AcDb2dVertex
 10
111.4933130895192
 20
115.0756654189413
 30
0.0
  0
VERTEX
  5
18A
330
155
100
AcDbEntity
  8
1
  6
Continuous
 62
     7
370
     9
100
AcDbVertex
100
AcDb2dVertex
 10
111.5187130895192
 20
115.0703654189413
 30
0.0
  0
VERTEX
  5
18B
330
155
100
AcDbEntity
  8
1
  6
Continuous
 62
     7
370
     9
100
AcDbVertex
100
AcDb2dVertex
 10
111.5441130895192
 20
115.0651654189413
 30
0.0
  0
VERTEX
  5
18C
330
155
100
AcDbEntity
  8
1
  6
Continuous
 62
     7
370
     9
100
AcDbVertex
100
AcDb2dVertex
 10
111.5696130895192
 20
115.0598654189413
 30
0.0
  0
VERTEX
  5
18D
330
155
100
AcDbEntity
  8
1
  6
Continuous
 62
     7
370
     9
100
AcDbVertex
100
AcDb2dVertex
 10
111.5950130895192
 20
115.0546654189413
 30
0.0
  0
VERTEX
  5
18E
330
155
100
AcDbEntity
  8
1
  6
Continuous
 62
     7
370
     9
100
AcDbVertex
100
AcDb2dVertex
 10
111.6204130895192
 20
115.0495654189413
 30
0.0
  0
VERTEX
  5
18F
330
155
100
AcDbEntity
  8
1
  6
Continuous
 62
     7
370
     9
100
AcDbVertex
100
AcDb2dVertex
 10
111.6458130895192
 20
115.0443654189413
 30
0.0
  0
VERTEX
  5
190
330
155
100
AcDbEntity
  8
1
  6
Continuous
 62
     7
370
     9
100
AcDbVertex
100
AcDb2dVertex
 10
111.6712130895192
 20
115.0392654189413
 30
0.0
  0
VERTEX
  5
191
330
155
100
AcDbEntity
  8
1
  6
Continuous
 62
     7
370
     9
100
AcDbVertex
100
AcDb2dVertex
 10
111.6966130895192
 20
115.0341654189413
 30
0.0
  0
VERTEX
  5
192
330
155
100
AcDbEntity
  8
1
  6
Continuous
 62
     7
370
     9
100
AcDbVertex
100
AcDb2dVertex
 10
111.7221130895192
 20
115.0290654189413
 30
0.0
  0
VERTEX
  5
193
330
155
100
AcDbEntity
  8
1
  6
Continuous
 62
     7
370
     9
100
AcDbVertex
100
AcDb2dVertex
 10
111.7475130895192
 20
115.0240654189413
 30
0.0
  0
VERTEX
  5
194
330
155
100
AcDbEntity
  8
1
  6
Continuous
 62
     7
370
     9
100
AcDbVertex
100
AcDb2dVertex
 10
111.7729130895192
 20
115.0189654189413
 30
0.0
  0
VERTEX
  5
195
330
155
100
AcDbEntity
  8
1
  6
Continuous
 62
     7
370
     9
100
AcDbVertex
100
AcDb2dVertex
 10
111.7983130895192
 20
115.0140654189413
 30
0.0
  0
VERTEX
  5
196
330
155
100
AcDbEntity
  8
1
  6
Continuous
 62
     7
370
     9
100
AcDbVertex
100
AcDb2dVertex
 10
111.8237130895192
 20
115.0090654189413
 30
0.0
  0
VERTEX
  5
197
330
155
100
AcDbEntity
  8
1
  6
Continuous
 62
     7
370
     9
100
AcDbVertex
100
AcDb2dVertex
 10
111.8492130895192
 20
115.0041654189413
 30
0.0
  0
VERTEX
  5
198
330
155
100
AcDbEntity
  8
1
  6
Continuous
 62
     7
370
     9
100
AcDbVertex
100
AcDb2dVertex
 10
111.8746130895192
 20
114.9992654189413
 30
0.0
  0
VERTEX
  5
199
330
155
100
AcDbEntity
  8
1
  6
Continuous
 62
     7
370
     9
100
AcDbVertex
100
AcDb2dVertex
 10
111.9000130895192
 20
114.9943654189413
 30
0.0
  0
VERTEX
  5
19A
330
155
100
AcDbEntity
  8
1
  6
Continuous
 62
     7
370
     9
100
AcDbVertex
100
AcDb2dVertex
 10
111.9254130895192
 20
114.9895654189413
 30
0.0
  0
VERTEX
  5
19B
330
155
100
AcDbEntity
  8
1
  6
Continuous
 62
     7
370
     9
100
AcDbVertex
100
AcDb2dVertex
 10
111.9508130895192
 20
114.9847654189413
 30
0.0
  0
VERTEX
  5
19C
330
155
100
AcDbEntity
  8
1
  6
Continuous
 62
     7
370
     9
100
AcDbVertex
100
AcDb2dVertex
 10
111.9762130895192
 20
114.9799654189413
 30
0.0
  0
VERTEX
  5
19D
330
155
100
AcDbEntity
  8
1
  6
Continuous
 62
     7
370
     9
100
AcDbVertex
100
AcDb2dVertex
 10
112.0017130895192
 20
114.9752654189413
 30
0.0
  0
VERTEX
  5
19E
330
155
100
AcDbEntity
  8
1
  6
Continuous
 62
     7
370
     9
100
AcDbVertex
100
AcDb2dVertex
 10
112.0271130895192
 20
114.9705654189413
 30
0.0
  0
VERTEX
  5
19F
330
155
100
AcDbEntity
  8
1
  6
Continuous
 62
     7
370
     9
100
AcDbVertex
100
AcDb2dVertex
 10
112.0525130895192
 20
114.9658654189413
 30
0.0
  0
VERTEX
  5
1A0
330
155
100
AcDbEntity
  8
1
  6
Continuous
 62
     7
370
     9
100
AcDbVertex
100
AcDb2dVertex
 10
112.0779130895192
 20
114.9611654189413
 30
0.0
  0
VERTEX
  5
1A1
330
155
100
AcDbEntity
  8
1
  6
Continuous
 62
     7
370
     9
100
AcDbVertex
100
AcDb2dVertex
 10
112.1033130895192
 20
114.9565654189413
 30
0.0
  0
VERTEX
  5
1A2
330
155
100
AcDbEntity
  8
1
  6
Continuous
 62
     7
370
     9
100
AcDbVertex
100
AcDb2dVertex
 10
112.1287130895192
 20
114.9520654189413
 30
0.0
  0
VERTEX
  5
1A3
330
155
100
AcDbEntity
  8
1
  6
Continuous
 62
     7
370
     9
100
AcDbVertex
100
AcDb2dVertex
 10
112.1542130895192
 20
114.9474654189413
 30
0.0
  0
VERTEX
  5
1A4
330
155
100
AcDbEntity
  8
1
  6
Continuous
 62
     7
370
     9
100
AcDbVertex
100
AcDb2dVertex
 10
112.1796130895192
 20
114.9429654189413
 30
0.0
  0
VERTEX
  5
1A5
330
155
100
AcDbEntity
  8
1
  6
Continuous
 62
     7
370
     9
100
AcDbVertex
100
AcDb2dVertex
 10
112.2050130895192
 20
114.9385654189413
 30
0.0
  0
VERTEX
  5
1A6
330
155
100
AcDbEntity
  8
1
  6
Continuous
 62
     7
370
     9
100
AcDbVertex
100
AcDb2dVertex
 10
112.2304130895192
 20
114.9341654189413
 30
0.0
  0
VERTEX
  5
1A7
330
155
100
AcDbEntity
  8
1
  6
Continuous
 62
     7
370
     9
100
AcDbVertex
100
AcDb2dVertex
 10
112.2558130895192
 20
114.9297654189413
 30
0.0
  0
VERTEX
  5
1A8
330
155
100
AcDbEntity
  8
1
  6
Continuous
 62
     7
370
     9
100
AcDbVertex
100
AcDb2dVertex
 10
112.2813130895192
 20
114.9253654189413
 30
0.0
  0
VERTEX
  5
1A9
330
155
100
AcDbEntity
  8
1
  6
Continuous
 62
     7
370
     9
100
AcDbVertex
100
AcDb2dVertex
 10
112.3067130895192
 20
114.9210654189413
 30
0.0
  0
VERTEX
  5
1AA
330
155
100
AcDbEntity
  8
1
  6
Continuous
 62
     7
370
     9
100
AcDbVertex
100
AcDb2dVertex
 10
112.3321130895192
 20
114.9167654189413
 30
0.0
  0
VERTEX
  5
1AB
330
155
100
AcDbEntity
  8
1
  6
Continuous
 62
     7
370
     9
100
AcDbVertex
100
AcDb2dVertex
 10
112.3575130895192
 20
114.9125654189413
 30
0.0
  0
VERTEX
  5
1AC
330
155
100
AcDbEntity
  8
1
  6
Continuous
 62
     7
370
     9
100
AcDbVertex
100
AcDb2dVertex
 10
112.3829130895192
 20
114.9083654189413
 30
0.0
  0
VERTEX
  5
1AD
330
155
100
AcDbEntity
  8
1
  6
Continuous
 62
     7
370
     9
100
AcDbVertex
100
AcDb2dVertex
 10
112.4083130895192
 20
114.9042654189413
 30
0.0
  0
VERTEX
  5
1AE
330
155
100
AcDbEntity
  8
1
  6
Continuous
 62
     7
370
     9
100
AcDbVertex
100
AcDb2dVertex
 10
112.4338130895192
 20
114.9001654189413
 30
0.0
  0
VERTEX
  5
1AF
330
155
100
AcDbEntity
  8
1
  6
Continuous
 62
     7
370
     9
100
AcDbVertex
100
AcDb2dVertex
 10
112.4592130895192
 20
114.8960654189413
 30
0.0
  0
VERTEX
  5
1B0
330
155
100
AcDbEntity
  8
1
  6
Continuous
 62
     7
370
     9
100
AcDbVertex
100
AcDb2dVertex
 10
112.4846130895192
 20
114.8919654189413
 30
0.0
  0
VERTEX
  5
1B1
330
155
100
AcDbEntity
  8
1
  6
Continuous
 62
     7
370
     9
100
AcDbVertex
100
AcDb2dVertex
 10
112.5100130895192
 20
114.8880654189413
 30
0.0
  0
VERTEX
  5
1B2
330
155
100
AcDbEntity
  8
1
  6
Continuous
 62
     7
370
     9
100
AcDbVertex
100
AcDb2dVertex
 10
112.5354130895192
 20
114.8840654189413
 30
0.0
  0
VERTEX
  5
1B3
330
155
100
AcDbEntity
  8
1
  6
Continuous
 62
     7
370
     9
100
AcDbVertex
100
AcDb2dVertex
 10
112.5609130895192
 20
114.8801654189413
 30
0.0
  0
VERTEX
  5
1B4
330
155
100
AcDbEntity
  8
1
  6
Continuous
 62
     7
370
     9
100
AcDbVertex
100
AcDb2dVertex
 10
112.5863130895192
 20
114.8763654189413
 30
0.0
  0
VERTEX
  5
1B5
330
155
100
AcDbEntity
  8
1
  6
Continuous
 62
     7
370
     9
100
AcDbVertex
100
AcDb2dVertex
 10
112.6117130895192
 20
114.8724654189413
 30
0.0
  0
VERTEX
  5
1B6
330
155
100
AcDbEntity
  8
1
  6
Continuous
 62
     7
370
     9
100
AcDbVertex
100
AcDb2dVertex
 10
112.6371130895192
 20
114.8687654189413
 30
0.0
  0
VERTEX
  5
1B7
330
155
100
AcDbEntity
  8
1
  6
Continuous
 62
     7
370
     9
100
AcDbVertex
100
AcDb2dVertex
 10
112.6625130895192
 20
114.8649654189413
 30
0.0
  0
VERTEX
  5
1B8
330
155
100
AcDbEntity
  8
1
  6
Continuous
 62
     7
370
     9
100
AcDbVertex
100
AcDb2dVertex
 10
112.6879130895192
 20
114.8613654189413
 30
0.0
  0
VERTEX
  5
1B9
330
155
100
AcDbEntity
  8
1
  6
Continuous
 62
     7
370
     9
100
AcDbVertex
100
AcDb2dVertex
 10
112.7134130895192
 20
114.8576654189413
 30
0.0
  0
VERTEX
  5
1BA
330
155
100
AcDbEntity
  8
1
  6
Continuous
 62
     7
370
     9
100
AcDbVertex
100
AcDb2dVertex
 10
112.7388130895192
 20
114.8540654189413
 30
0.0
  0
VERTEX
  5
1BB
330
155
100
AcDbEntity
  8
1
  6
Continuous
 62
     7
370
     9
100
AcDbVertex
100
AcDb2dVertex
 10
112.7642130895192
 20
114.8505654189413
 30
0.0
  0
VERTEX
  5
1BC
330
155
100
AcDbEntity
  8
1
  6
Continuous
 62
     7
370
     9
100
AcDbVertex
100
AcDb2dVertex
 10
112.7896130895192
 20
114.8470654189413
 30
0.0
  0
VERTEX
  5
1BD
330
155
100
AcDbEntity
  8
1
  6
Continuous
 62
     7
370
     9
100
AcDbVertex
100
AcDb2dVertex
 10
112.8150130895192
 20
114.8436654189413
 30
0.0
  0
VERTEX
  5
1BE
330
155
100
AcDbEntity
  8
1
  6
Continuous
 62
     7
370
     9
100
AcDbVertex
100
AcDb2dVertex
 10
112.8405130895192
 20
114.8402654189413
 30
0.0
  0
VERTEX
  5
1BF
330
155
100
AcDbEntity
  8
1
  6
Continuous
 62
     7
370
     9
100
AcDbVertex
100
AcDb2dVertex
 10
112.8659130895192
 20
114.8368654189413
 30
0.0
  0
VERTEX
  5
1C0
330
155
100
AcDbEntity
  8
1
  6
Continuous
 62
     7
370
     9
100
AcDbVertex
100
AcDb2dVertex
 10
112.8913130895192
 20
114.8335654189413
 30
0.0
  0
VERTEX
  5
1C1
330
155
100
AcDbEntity
  8
1
  6
Continuous
 62
     7
370
     9
100
AcDbVertex
100
AcDb2dVertex
 10
112.9167130895192
 20
114.8303654189413
 30
0.0
  0
VERTEX
  5
1C2
330
155
100
AcDbEntity
  8
1
  6
Continuous
 62
     7
370
     9
100
AcDbVertex
100
AcDb2dVertex
 10
112.9421130895192
 20
114.8271654189413
 30
0.0
  0
VERTEX
  5
1C3
330
155
100
AcDbEntity
  8
1
  6
Continuous
 62
     7
370
     9
100
AcDbVertex
100
AcDb2dVertex
 10
112.9675130895192
 20
114.8239654189413
 30
0.0
  0
VERTEX
  5
1C4
330
155
100
AcDbEntity
  8
1
  6
Continuous
 62
     7
370
     9
100
AcDbVertex
100
AcDb2dVertex
 10
112.9930130895192
 20
114.8208654189413
 30
0.0
  0
VERTEX
  5
1C5
330
155
100
AcDbEntity
  8
1
  6
Continuous
 62
     7
370
     9
100
AcDbVertex
100
AcDb2dVertex
 10
113.0184130895192
 20
114.8178654189413
 30
0.0
  0
VERTEX
  5
1C6
330
155
100
AcDbEntity
  8
1
  6
Continuous
 62
     7
370
     9
100
AcDbVertex
100
AcDb2dVertex
 10
113.0438130895192
 20
114.8148654189413
 30
0.0
  0
VERTEX
  5
1C7
330
155
100
AcDbEntity
  8
1
  6
Continuous
 62
     7
370
     9
100
AcDbVertex
100
AcDb2dVertex
 10
113.0692130895192
 20
114.8118654189413
 30
0.0
  0
VERTEX
  5
1C8
330
155
100
AcDbEntity
  8
1
  6
Continuous
 62
     7
370
     9
100
AcDbVertex
100
AcDb2dVertex
 10
113.0946130895192
 20
114.8089654189413
 30
0.0
  0
VERTEX
  5
1C9
330
155
100
AcDbEntity
  8
1
  6
Continuous
 62
     7
370
     9
100
AcDbVertex
100
AcDb2dVertex
 10
113.1200130895192
 20
114.8061654189413
 30
0.0
  0
VERTEX
  5
1CA
330
155
100
AcDbEntity
  8
1
  6
Continuous
 62
     7
370
     9
100
AcDbVertex
100
AcDb2dVertex
 10
113.1455130895192
 20
114.8033654189413
 30
0.0
  0
VERTEX
  5
1CB
330
155
100
AcDbEntity
  8
1
  6
Continuous
 62
     7
370
     9
100
AcDbVertex
100
AcDb2dVertex
 10
113.1709130895192
 20
114.8006654189413
 30
0.0
  0
VERTEX
  5
1CC
330
155
100
AcDbEntity
  8
1
  6
Continuous
 62
     7
370
     9
100
AcDbVertex
100
AcDb2dVertex
 10
113.1963130895192
 20
114.7979654189413
 30
0.0
  0
VERTEX
  5
1CD
330
155
100
AcDbEntity
  8
1
  6
Continuous
 62
     7
370
     9
100
AcDbVertex
100
AcDb2dVertex
 10
113.2217130895192
 20
114.7953654189413
 30
0.0
  0
VERTEX
  5
1CE
330
155
100
AcDbEntity
  8
1
  6
Continuous
 62
     7
370
     9
100
AcDbVertex
100
AcDb2dVertex
 10
113.2471130895192
 20
114.7927654189413
 30
0.0
  0
VERTEX
  5
1CF
330
155
100
AcDbEntity
  8
1
  6
Continuous
 62
     7
370
     9
100
AcDbVertex
100
AcDb2dVertex
 10
113.2726130895192
 20
114.7902654189413
 30
0.0
  0
VERTEX
  5
1D0
330
155
100
AcDbEntity
  8
1
  6
Continuous
 62
     7
370
     9
100
AcDbVertex
100
AcDb2dVertex
 10
113.2980130895192
 20
114.7877654189413
 30
0.0
  0
VERTEX
  5
1D1
330
155
100
AcDbEntity
  8
1
  6
Continuous
 62
     7
370
     9
100
AcDbVertex
100
AcDb2dVertex
 10
113.3234130895192
 20
114.7853654189413
 30
0.0
  0
VERTEX
  5
1D2
330
155
100
AcDbEntity
  8
1
  6
Continuous
 62
     7
370
     9
100
AcDbVertex
100
AcDb2dVertex
 10
113.3488130895192
 20
114.7830654189413
 30
0.0
  0
VERTEX
  5
1D3
330
155
100
AcDbEntity
  8
1
  6
Continuous
 62
     7
370
     9
100
AcDbVertex
100
AcDb2dVertex
 10
113.3742130895192
 20
114.7807654189413
 30
0.0
  0
VERTEX
  5
1D4
330
155
100
AcDbEntity
  8
1
  6
Continuous
 62
     7
370
     9
100
AcDbVertex
100
AcDb2dVertex
 10
113.3996130895192
 20
114.7785654189413
 30
0.0
  0
VERTEX
  5
1D5
330
155
100
AcDbEntity
  8
1
  6
Continuous
 62
     7
370
     9
100
AcDbVertex
100
AcDb2dVertex
 10
113.4251130895192
 20
114.7763654189413
 30
0.0
  0
VERTEX
  5
1D6
330
155
100
AcDbEntity
  8
1
  6
Continuous
 62
     7
370
     9
100
AcDbVertex
100
AcDb2dVertex
 10
113.4505130895192
 20
114.7742654189413
 30
0.0
  0
VERTEX
  5
1D7
330
155
100
AcDbEntity
  8
1
  6
Continuous
 62
     7
370
     9
100
AcDbVertex
100
AcDb2dVertex
 10
113.4759130895192
 20
114.7722654189413
 30
0.0
  0
VERTEX
  5
1D8
330
155
100
AcDbEntity
  8
1
  6
Continuous
 62
     7
370
     9
100
AcDbVertex
100
AcDb2dVertex
 10
113.5013130895192
 20
114.7702654189413
 30
0.0
  0
VERTEX
  5
1D9
330
155
100
AcDbEntity
  8
1
  6
Continuous
 62
     7
370
     9
100
AcDbVertex
100
AcDb2dVertex
 10
113.5267130895192
 20
114.7683654189413
 30
0.0
  0
VERTEX
  5
1DA
330
155
100
AcDbEntity
  8
1
  6
Continuous
 62
     7
370
     9
100
AcDbVertex
100
AcDb2dVertex
 10
113.5522130895192
 20
114.7664654189413
 30
0.0
  0
VERTEX
  5
1DB
330
155
100
AcDbEntity
  8
1
  6
Continuous
 62
     7
370
     9
100
AcDbVertex
100
AcDb2dVertex
 10
113.5776130895192
 20
114.7646654189413
 30
0.0
  0
VERTEX
  5
1DC
330
155
100
AcDbEntity
  8
1
  6
Continuous
 62
     7
370
     9
100
AcDbVertex
100
AcDb2dVertex
 10
113.6030130895192
 20
114.7629654189413
 30
0.0
  0
VERTEX
  5
1DD
330
155
100
AcDbEntity
  8
1
  6
Continuous
 62
     7
370
     9
100
AcDbVertex
100
AcDb2dVertex
 10
113.6284130895192
 20
114.7612654189413
 30
0.0
  0
VERTEX
  5
1DE
330
155
100
AcDbEntity
  8
1
  6
Continuous
 62
     7
370
     9
100
AcDbVertex
100
AcDb2dVertex
 10
113.6538130895192
 20
114.7596654189413
 30
0.0
  0
VERTEX
  5
1DF
330
155
100
AcDbEntity
  8
1
  6
Continuous
 62
     7
370
     9
100
AcDbVertex
100
AcDb2dVertex
 10
113.6792130895192
 20
114.7580654189413
 30
0.0
  0
VERTEX
  5
1E0
330
155
100
AcDbEntity
  8
1
  6
Continuous
 62
     7
370
     9
100
AcDbVertex
100
AcDb2dVertex
 10
113.7047130895192
 20
114.7565654189413
 30
0.0
  0
VERTEX
  5
1E1
330
155
100
AcDbEntity
  8
1
  6
Continuous
 62
     7
370
     9
100
AcDbVertex
100
AcDb2dVertex
 10
113.7301130895192
 20
114.7551654189413
 30
0.0
  0
VERTEX
  5
1E2
330
155
100
AcDbEntity
  8
1
  6
Continuous
 62
     7
370
     9
100
AcDbVertex
100
AcDb2dVertex
 10
113.7555130895192
 20
114.7537654189413
 30
0.0
  0
VERTEX
  5
1E3
330
155
100
AcDbEntity
  8
1
  6
Continuous
 62
     7
370
     9
100
AcDbVertex
100
AcDb2dVertex
 10
113.7809130895192
 20
114.7524654189413
 30
0.0
  0
VERTEX
  5
1E4
330
155
100
AcDbEntity
  8
1
  6
Continuous
 62
     7
370
     9
100
AcDbVertex
100
AcDb2dVertex
 10
113.8063130895192
 20
114.7512654189413
 30
0.0
  0
VERTEX
  5
1E5
330
155
100
AcDbEntity
  8
1
  6
Continuous
 62
     7
370
     9
100
AcDbVertex
100
AcDb2dVertex
 10
113.8318130895192
 20
114.7501654189413
 30
0.0
  0
VERTEX
  5
1E6
330
155
100
AcDbEntity
  8
1
  6
Continuous
 62
     7
370
     9
100
AcDbVertex
100
AcDb2dVertex
 10
113.8572130895192
 20
114.7490654189413
 30
0.0
  0
VERTEX
  5
1E7
330
155
100
AcDbEntity
  8
1
  6
Continuous
 62
     7
370
     9
100
AcDbVertex
100
AcDb2dVertex
 10
113.8826130895192
 20
114.7479654189413
 30
0.0
  0
VERTEX
  5
1E8
330
155
100
AcDbEntity
  8
1
  6
Continuous
 62
     7
370
     9
100
AcDbVertex
100
AcDb2dVertex
 10
113.9080130895192
 20
114.7470654189413
 30
0.0
  0
VERTEX
  5
1E9
330
155
100
AcDbEntity
  8
1
  6
Continuous
 62
     7
370
     9
100
AcDbVertex
100
AcDb2dVertex
 10
113.9334130895192
 20
114.7461654189413
 30
0.0
  0
VERTEX
  5
1EA
330
155
100
AcDbEntity
  8
1
  6
Continuous
 62
     7
370
     9
100
AcDbVertex
100
AcDb2dVertex
 10
113.9588130895192
 20
114.7453654189413
 30
0.0
  0
VERTEX
  5
1EB
330
155
100
AcDbEntity
  8
1
  6
Continuous
 62
     7
370
     9
100
AcDbVertex
100
AcDb2dVertex
 10
113.9843130895192
 20
114.7445654189413
 30
0.0
  0
VERTEX
  5
1EC
330
155
100
AcDbEntity
  8
1
  6
Continuous
 62
     7
370
     9
100
AcDbVertex
100
AcDb2dVertex
 10
114.0097130895192
 20
114.7438654189413
 30
0.0
  0
VERTEX
  5
1ED
330
155
100
AcDbEntity
  8
1
  6
Continuous
 62
     7
370
     9
100
AcDbVertex
100
AcDb2dVertex
 10
114.0351130895192
 20
114.7432654189413
 30
0.0
  0
VERTEX
  5
1EE
330
155
100
AcDbEntity
  8
1
  6
Continuous
 62
     7
370
     9
100
AcDbVertex
100
AcDb2dVertex
 10
114.0605130895192
 20
114.7427654189413
 30
0.0
  0
VERTEX
  5
1EF
330
155
100
AcDbEntity
  8
1
  6
Continuous
 62
     7
370
     9
100
AcDbVertex
100
AcDb2dVertex
 10
114.0859130895192
 20
114.7422654189413
 30
0.0
  0
VERTEX
  5
1F0
330
155
100
AcDbEntity
  8
1
  6
Continuous
 62
     7
370
     9
100
AcDbVertex
100
AcDb2dVertex
 10
114.1113130895192
 20
114.7418654189413
 30
0.0
  0
VERTEX
  5
1F1
330
155
100
AcDbEntity
  8
1
  6
Continuous
 62
     7
370
     9
100
AcDbVertex
100
AcDb2dVertex
 10
114.1368130895192
 20
114.7415654189413
 30
0.0
  0
VERTEX
  5
1F2
330
155
100
AcDbEntity
  8
1
  6
Continuous
 62
     7
370
     9
100
AcDbVertex
100
AcDb2dVertex
 10
114.1622130895192
 20
114.7412654189413
 30
0.0
  0
VERTEX
  5
1F3
330
155
100
AcDbEntity
  8
1
  6
Continuous
 62
     7
370
     9
100
AcDbVertex
100
AcDb2dVertex
 10
114.1876130895192
 20
114.7410654189413
 30
0.0
  0
VERTEX
  5
1F4
330
155
100
AcDbEntity
  8
1
  6
Continuous
 62
     7
370
     9
100
AcDbVertex
100
AcDb2dVertex
 10
114.2130130895192
 20
114.7409654189413
 30
0.0
  0
VERTEX
  5
1F5
330
155
100
AcDbEntity
  8
1
  6
Continuous
 62
     7
370
     9
100
AcDbVertex
100
AcDb2dVertex
 10
114.2384130895192
 20
114.7409654189413
 30
0.0
  0
SEQEND
  5
1F6
330
155
100
AcDbEntity
  8
1
  6
Continuous
 62
     7
370
     9
  0
POLYLINE
  5
1F7
330
1F
100
AcDbEntity
  8
1
  6
Continuous
 62
     7
370
     9
100
AcDb2dPolyline
 66
     1
 10
0.0
 20
0.0
 30
0.0
  0
VERTEX
  5
1F8
330
1F7
100
AcDbEntity
  8
1
  6
Continuous
 62
     7
370
     9
100
AcDbVertex
100
AcDb2dVertex
 10
108.1763130895192
 20
121.7409654189413
 30
0.0
  0
VERTEX
  5
1F9
330
1F7
100
AcDbEntity
  8
1
  6
Continuous
 62
     7
370
     9
100
AcDbVertex
100
AcDb2dVertex
 10
108.1922130895192
 20
121.7408654189413
 30
0.0
  0
VERTEX
  5
1FA
330
1F7
100
AcDbEntity
  8
1
  6
Continuous
 62
     7
370
     9
100
AcDbVertex
100
AcDb2dVertex
 10
108.2081130895192
 20
121.7407654189413
 30
0.0
  0
VERTEX
  5
1FB
330
1F7
100
AcDbEntity
  8
1
  6
Continuous
 62
     7
370
     9
100
AcDbVertex
100
AcDb2dVertex
 10
108.2240130895192
 20
121.7404654189413
 30
0.0
  0
VERTEX
  5
1FC
330
1F7
100
AcDbEntity
  8
1
  6
Continuous
 62
     7
370
     9
100
AcDbVertex
100
AcDb2dVertex
 10
108.2399130895192
 20
121.7400654189413
 30
0.0
  0
VERTEX
  5
1FD
330
1F7
100
AcDbEntity
  8
1
  6
Continuous
 62
     7
370
     9
100
AcDbVertex
100
AcDb2dVertex
 10
108.2558130895192
 20
121.7394654189413
 30
0.0
  0
VERTEX
  5
1FE
330
1F7
100
AcDbEntity
  8
1
  6
Continuous
 62
     7
370
     9
100
AcDbVertex
100
AcDb2dVertex
 10
108.2717130895192
 20
121.7388654189413
 30
0.0
  0
VERTEX
  5
1FF
330
1F7
100
AcDbEntity
  8
1
  6
Continuous
 62
     7
370
     9
100
AcDbVertex
100
AcDb2dVertex
 10
108.2876130895192
 20
121.7381654189413
 30
0.0
  0
VERTEX
  5
200
330
1F7
100
AcDbEntity
  8
1
  6
Continuous
 62
     7
370
     9
100
AcDbVertex
100
AcDb2dVertex
 10
108.3036130895192
 20
121.7372654189413
 30
0.0
  0
VERTEX
  5
201
330
1F7
100
AcDbEntity
  8
1
  6
Continuous
 62
     7
370
     9
100
AcDbVertex
100
AcDb2dVertex
 10
108.3195130895192
 20
121.7363654189413
 30
0.0
  0
VERTEX
  5
202
330
1F7
100
AcDbEntity
  8
1
  6
Continuous
 62
     7
370
     9
100
AcDbVertex
100
AcDb2dVertex
 10
108.3354130895192
 20
121.7352654189413
 30
0.0
  0
VERTEX
  5
203
330
1F7
100
AcDbEntity
  8
1
  6
Continuous
 62
     7
370
     9
100
AcDbVertex
100
AcDb2dVertex
 10
108.3513130895192
 20
121.7341654189413
 30
0.0
  0
VERTEX
  5
204
330
1F7
100
AcDbEntity
  8
1
  6
Continuous
 62
     7
370
     9
100
AcDbVertex
100
AcDb2dVertex
 10
108.3672130895192
 20
121.7328654189413
 30
0.0
  0
VERTEX
  5
205
330
1F7
100
AcDbEntity
  8
1
  6
Continuous
 62
     7
370
     9
100
AcDbVertex
100
AcDb2dVertex
 10
108.3831130895192
 20
121.7314654189413
 30
0.0
  0
VERTEX
  5
206
330
1F7
100
AcDbEntity
  8
1
  6
Continuous
 62
     7
370
     9
100
AcDbVertex
100
AcDb2dVertex
 10
108.3990130895192
 20
121.7299654189413
 30
0.0
  0
VERTEX
  5
207
330
1F7
100
AcDbEntity
  8
1
  6
Continuous
 62
     7
370
     9
100
AcDbVertex
100
AcDb2dVertex
 10
108.4149130895192
 20
121.7283654189413
 30
0.0
  0
VERTEX
  5
208
330
1F7
100
AcDbEntity
  8
1
  6
Continuous
 62
     7
370
     9
100
AcDbVertex
100
AcDb2dVertex
 10
108.4308130895192
 20
121.7266654189413
 30
0.0
  0
VERTEX
  5
209
330
1F7
100
AcDbEntity
  8
1
  6
Continuous
 62
     7
370
     9
100
AcDbVertex
100
AcDb2dVertex
 10
108.4468130895192
 20
121.7248654189413
 30
0.0
  0
VERTEX
  5
20A
330
1F7
100
AcDbEntity
  8
1
  6
Continuous
 62
     7
370
     9
100
AcDbVertex
100
AcDb2dVertex
 10
108.4627130895192
 20
121.7229654189413
 30
0.0
  0
VERTEX
  5
20B
330
1F7
100
AcDbEntity
  8
1
  6
Continuous
 62
     7
370
     9
100
AcDbVertex
100
AcDb2dVertex
 10
108.4786130895192
 20
121.7209654189413
 30
0.0
  0
VERTEX
  5
20C
330
1F7
100
AcDbEntity
  8
1
  6
Continuous
 62
     7
370
     9
100
AcDbVertex
100
AcDb2dVertex
 10
108.4945130895192
 20
121.7188654189413
 30
0.0
  0
VERTEX
  5
20D
330
1F7
100
AcDbEntity
  8
1
  6
Continuous
 62
     7
370
     9
100
AcDbVertex
100
AcDb2dVertex
 10
108.5104130895192
 20
121.7167654189413
 30
0.0
  0
VERTEX
  5
20E
330
1F7
100
AcDbEntity
  8
1
  6
Continuous
 62
     7
370
     9
100
AcDbVertex
100
AcDb2dVertex
 10
108.5263130895192
 20
121.7144654189413
 30
0.0
  0
VERTEX
  5
20F
330
1F7
100
AcDbEntity
  8
1
  6
Continuous
 62
     7
370
     9
100
AcDbVertex
100
AcDb2dVertex
 10
108.5422130895192
 20
121.7120654189413
 30
0.0
  0
VERTEX
  5
210
330
1F7
100
AcDbEntity
  8
1
  6
Continuous
 62
     7
370
     9
100
AcDbVertex
100
AcDb2dVertex
 10
108.5581130895192
 20
121.7095654189413
 30
0.0
  0
VERTEX
  5
211
330
1F7
100
AcDbEntity
  8
1
  6
Continuous
 62
     7
370
     9
100
AcDbVertex
100
AcDb2dVertex
 10
108.5740130895192
 20
121.7069654189413
 30
0.0
  0
VERTEX
  5
212
330
1F7
100
AcDbEntity
  8
1
  6
Continuous
 62
     7
370
     9
100
AcDbVertex
100
AcDb2dVertex
 10
108.5900130895192
 20
121.7043654189413
 30
0.0
  0
VERTEX
  5
213
330
1F7
100
AcDbEntity
  8
1
  6
Continuous
 62
     7
370
     9
100
AcDbVertex
100
AcDb2dVertex
 10
108.6059130895192
 20
121.7015654189413
 30
0.0
  0
VERTEX
  5
214
330
1F7
100
AcDbEntity
  8
1
  6
Continuous
 62
     7
370
     9
100
AcDbVertex
100
AcDb2dVertex
 10
108.6218130895192
 20
121.6986654189413
 30
0.0
  0
VERTEX
  5
215
330
1F7
100
AcDbEntity
  8
1
  6
Continuous
 62
     7
370
     9
100
AcDbVertex
100
AcDb2dVertex
 10
108.6377130895192
 20
121.6957654189413
 30
0.0
  0
VERTEX
  5
216
330
1F7
100
AcDbEntity
  8
1
  6
Continuous
 62
     7
370
     9
100
AcDbVertex
100
AcDb2dVertex
 10
108.6536130895192
 20
121.6927654189413
 30
0.0
  0
VERTEX
  5
217
330
1F7
100
AcDbEntity
  8
1
  6
Continuous
 62
     7
370
     9
100
AcDbVertex
100
AcDb2dVertex
 10
108.6695130895192
 20
121.6896654189413
 30
0.0
  0
VERTEX
  5
218
330
1F7
100
AcDbEntity
  8
1
  6
Continuous
 62
     7
370
     9
100
AcDbVertex
100
AcDb2dVertex
 10
108.6854130895192
 20
121.6863654189413
 30
0.0
  0
VERTEX
  5
219
330
1F7
100
AcDbEntity
  8
1
  6
Continuous
 62
     7
370
     9
100
AcDbVertex
100
AcDb2dVertex
 10
108.7013130895192
 20
121.6830654189413
 30
0.0
  0
VERTEX
  5
21A
330
1F7
100
AcDbEntity
  8
1
  6
Continuous
 62
     7
370
     9
100
AcDbVertex
100
AcDb2dVertex
 10
108.7172130895192
 20
121.6797654189413
 30
0.0
  0
VERTEX
  5
21B
330
1F7
100
AcDbEntity
  8
1
  6
Continuous
 62
     7
370
     9
100
AcDbVertex
100
AcDb2dVertex
 10
108.7332130895192
 20
121.6762654189413
 30
0.0
  0
VERTEX
  5
21C
330
1F7
100
AcDbEntity
  8
1
  6
Continuous
 62
     7
370
     9
100
AcDbVertex
100
AcDb2dVertex
 10
108.7491130895192
 20
121.6726654189413
 30
0.0
  0
VERTEX
  5
21D
330
1F7
100
AcDbEntity
  8
1
  6
Continuous
 62
     7
370
     9
100
AcDbVertex
100
AcDb2dVertex
 10
108.7650130895192
 20
121.6690654189413
 30
0.0
  0
VERTEX
  5
21E
330
1F7
100
AcDbEntity
  8
1
  6
Continuous
 62
     7
370
     9
100
AcDbVertex
100
AcDb2dVertex
 10
108.7809130895192
 20
121.6653654189413
 30
0.0
  0
VERTEX
  5
21F
330
1F7
100
AcDbEntity
  8
1
  6
Continuous
 62
     7
370
     9
100
AcDbVertex
100
AcDb2dVertex
 10
108.7968130895192
 20
121.6615654189413
 30
0.0
  0
VERTEX
  5
220
330
1F7
100
AcDbEntity
  8
1
  6
Continuous
 62
     7
370
     9
100
AcDbVertex
100
AcDb2dVertex
 10
108.8127130895192
 20
121.6576654189413
 30
0.0
  0
VERTEX
  5
221
330
1F7
100
AcDbEntity
  8
1
  6
Continuous
 62
     7
370
     9
100
AcDbVertex
100
AcDb2dVertex
 10
108.8286130895192
 20
121.6537654189413
 30
0.0
  0
VERTEX
  5
222
330
1F7
100
AcDbEntity
  8
1
  6
Continuous
 62
     7
370
     9
100
AcDbVertex
100
AcDb2dVertex
 10
108.8445130895192
 20
121.6496654189413
 30
0.0
  0
VERTEX
  5
223
330
1F7
100
AcDbEntity
  8
1
  6
Continuous
 62
     7
370
     9
100
AcDbVertex
100
AcDb2dVertex
 10
108.8604130895192
 20
121.6455654189413
 30
0.0
  0
VERTEX
  5
224
330
1F7
100
AcDbEntity
  8
1
  6
Continuous
 62
     7
370
     9
100
AcDbVertex
100
AcDb2dVertex
 10
108.8764130895192
 20
121.6413654189413
 30
0.0
  0
VERTEX
  5
225
330
1F7
100
AcDbEntity
  8
1
  6
Continuous
 62
     7
370
     9
100
AcDbVertex
100
AcDb2dVertex
 10
108.8923130895192
 20
121.6370654189413
 30
0.0
  0
VERTEX
  5
226
330
1F7
100
AcDbEntity
  8
1
  6
Continuous
 62
     7
370
     9
100
AcDbVertex
100
AcDb2dVertex
 10
108.9082130895192
 20
121.6327654189413
 30
0.0
  0
VERTEX
  5
227
330
1F7
100
AcDbEntity
  8
1
  6
Continuous
 62
     7
370
     9
100
AcDbVertex
100
AcDb2dVertex
 10
108.9241130895192
 20
121.6283654189413
 30
0.0
  0
VERTEX
  5
228
330
1F7
100
AcDbEntity
  8
1
  6
Continuous
 62
     7
370
     9
100
AcDbVertex
100
AcDb2dVertex
 10
108.9400130895192
 20
121.6238654189413
 30
0.0
  0
VERTEX
  5
229
330
1F7
100
AcDbEntity
  8
1
  6
Continuous
 62
     7
370
     9
100
AcDbVertex
100
AcDb2dVertex
 10
108.9559130895192
 20
121.6192654189413
 30
0.0
  0
VERTEX
  5
22A
330
1F7
100
AcDbEntity
  8
1
  6
Continuous
 62
     7
370
     9
100
AcDbVertex
100
AcDb2dVertex
 10
108.9718130895192
 20
121.6146654189413
 30
0.0
  0
VERTEX
  5
22B
330
1F7
100
AcDbEntity
  8
1
  6
Continuous
 62
     7
370
     9
100
AcDbVertex
100
AcDb2dVertex
 10
108.9877130895192
 20
121.6099654189413
 30
0.0
  0
VERTEX
  5
22C
330
1F7
100
AcDbEntity
  8
1
  6
Continuous
 62
     7
370
     9
100
AcDbVertex
100
AcDb2dVertex
 10
109.0036130895192
 20
121.6051654189413
 30
0.0
  0
VERTEX
  5
22D
330
1F7
100
AcDbEntity
  8
1
  6
Continuous
 62
     7
370
     9
100
AcDbVertex
100
AcDb2dVertex
 10
109.0196130895192
 20
121.6003654189413
 30
0.0
  0
VERTEX
  5
22E
330
1F7
100
AcDbEntity
  8
1
  6
Continuous
 62
     7
370
     9
100
AcDbVertex
100
AcDb2dVertex
 10
109.0355130895192
 20
121.5954654189413
 30
0.0
  0
VERTEX
  5
22F
330
1F7
100
AcDbEntity
  8
1
  6
Continuous
 62
     7
370
     9
100
AcDbVertex
100
AcDb2dVertex
 10
109.0514130895192
 20
121.5904654189413
 30
0.0
  0
VERTEX
  5
230
330
1F7
100
AcDbEntity
  8
1
  6
Continuous
 62
     7
370
     9
100
AcDbVertex
100
AcDb2dVertex
 10
109.0673130895192
 20
121.5853654189413
 30
0.0
  0
VERTEX
  5
231
330
1F7
100
AcDbEntity
  8
1
  6
Continuous
 62
     7
370
     9
100
AcDbVertex
100
AcDb2dVertex
 10
109.0832130895192
 20
121.5802654189413
 30
0.0
  0
VERTEX
  5
232
330
1F7
100
AcDbEntity
  8
1
  6
Continuous
 62
     7
370
     9
100
AcDbVertex
100
AcDb2dVertex
 10
109.0991130895192
 20
121.5751654189413
 30
0.0
  0
VERTEX
  5
233
330
1F7
100
AcDbEntity
  8
1
  6
Continuous
 62
     7
370
     9
100
AcDbVertex
100
AcDb2dVertex
 10
109.1150130895192
 20
121.5698654189413
 30
0.0
  0
VERTEX
  5
234
330
1F7
100
AcDbEntity
  8
1
  6
Continuous
 62
     7
370
     9
100
AcDbVertex
100
AcDb2dVertex
 10
109.1309130895192
 20
121.5645654189413
 30
0.0
  0
VERTEX
  5
235
330
1F7
100
AcDbEntity
  8
1
  6
Continuous
 62
     7
370
     9
100
AcDbVertex
100
AcDb2dVertex
 10
109.1468130895192
 20
121.5592654189413
 30
0.0
  0
VERTEX
  5
236
330
1F7
100
AcDbEntity
  8
1
  6
Continuous
 62
     7
370
     9
100
AcDbVertex
100
AcDb2dVertex
 10
109.1628130895192
 20
121.5537654189413
 30
0.0
  0
VERTEX
  5
237
330
1F7
100
AcDbEntity
  8
1
  6
Continuous
 62
     7
370
     9
100
AcDbVertex
100
AcDb2dVertex
 10
109.1787130895192
 20
121.5483654189413
 30
0.0
  0
VERTEX
  5
238
330
1F7
100
AcDbEntity
  8
1
  6
Continuous
 62
     7
370
     9
100
AcDbVertex
100
AcDb2dVertex
 10
109.1946130895192
 20
121.5427654189413
 30
0.0
  0
VERTEX
  5
239
330
1F7
100
AcDbEntity
  8
1
  6
Continuous
 62
     7
370
     9
100
AcDbVertex
100
AcDb2dVertex
 10
109.2105130895192
 20
121.5371654189413
 30
0.0
  0
VERTEX
  5
23A
330
1F7
100
AcDbEntity
  8
1
  6
Continuous
 62
     7
370
     9
100
AcDbVertex
100
AcDb2dVertex
 10
109.2264130895192
 20
121.5315654189413
 30
0.0
  0
VERTEX
  5
23B
330
1F7
100
AcDbEntity
  8
1
  6
Continuous
 62
     7
370
     9
100
AcDbVertex
100
AcDb2dVertex
 10
109.2423130895192
 20
121.5258654189413
 30
0.0
  0
VERTEX
  5
23C
330
1F7
100
AcDbEntity
  8
1
  6
Continuous
 62
     7
370
     9
100
AcDbVertex
100
AcDb2dVertex
 10
109.2582130895192
 20
121.5200654189413
 30
0.0
  0
VERTEX
  5
23D
330
1F7
100
AcDbEntity
  8
1
  6
Continuous
 62
     7
370
     9
100
AcDbVertex
100
AcDb2dVertex
 10
109.2741130895192
 20
121.5142654189413
 30
0.0
  0
VERTEX
  5
23E
330
1F7
100
AcDbEntity
  8
1
  6
Continuous
 62
     7
370
     9
100
AcDbVertex
100
AcDb2dVertex
 10
109.2900130895192
 20
121.5083654189413
 30
0.0
  0
VERTEX
  5
23F
330
1F7
100
AcDbEntity
  8
1
  6
Continuous
 62
     7
370
     9
100
AcDbVertex
100
AcDb2dVertex
 10
109.3060130895192
 20
121.5024654189413
 30
0.0
  0
VERTEX
  5
240
330
1F7
100
AcDbEntity
  8
1
  6
Continuous
 62
     7
370
     9
100
AcDbVertex
100
AcDb2dVertex
 10
109.3219130895192
 20
121.4964654189413
 30
0.0
  0
VERTEX
  5
241
330
1F7
100
AcDbEntity
  8
1
  6
Continuous
 62
     7
370
     9
100
AcDbVertex
100
AcDb2dVertex
 10
109.3378130895192
 20
121.4904654189413
 30
0.0
  0
VERTEX
  5
242
330
1F7
100
AcDbEntity
  8
1
  6
Continuous
 62
     7
370
     9
100
AcDbVertex
100
AcDb2dVertex
 10
109.3537130895192
 20
121.4843654189413
 30
0.0
  0
VERTEX
  5
243
330
1F7
100
AcDbEntity
  8
1
  6
Continuous
 62
     7
370
     9
100
AcDbVertex
100
AcDb2dVertex
 10
109.3696130895192
 20
121.4782654189413
 30
0.0
  0
VERTEX
  5
244
330
1F7
100
AcDbEntity
  8
1
  6
Continuous
 62
     7
370
     9
100
AcDbVertex
100
AcDb2dVertex
 10
109.3855130895192
 20
121.4720654189413
 30
0.0
  0
VERTEX
  5
245
330
1F7
100
AcDbEntity
  8
1
  6
Continuous
 62
     7
370
     9
100
AcDbVertex
100
AcDb2dVertex
 10
109.4014130895192
 20
121.4658654189413
 30
0.0
  0
VERTEX
  5
246
330
1F7
100
AcDbEntity
  8
1
  6
Continuous
 62
     7
370
     9
100
AcDbVertex
100
AcDb2dVertex
 10
109.4173130895192
 20
121.4596654189413
 30
0.0
  0
VERTEX
  5
247
330
1F7
100
AcDbEntity
  8
1
  6
Continuous
 62
     7
370
     9
100
AcDbVertex
100
AcDb2dVertex
 10
109.4332130895192
 20
121.4532654189413
 30
0.0
  0
VERTEX
  5
248
330
1F7
100
AcDbEntity
  8
1
  6
Continuous
 62
     7
370
     9
100
AcDbVertex
100
AcDb2dVertex
 10
109.4492130895192
 20
121.4469654189413
 30
0.0
  0
VERTEX
  5
249
330
1F7
100
AcDbEntity
  8
1
  6
Continuous
 62
     7
370
     9
100
AcDbVertex
100
AcDb2dVertex
 10
109.4651130895192
 20
121.4405654189413
 30
0.0
  0
VERTEX
  5
24A
330
1F7
100
AcDbEntity
  8
1
  6
Continuous
 62
     7
370
     9
100
AcDbVertex
100
AcDb2dVertex
 10
109.4810130895192
 20
121.4341654189413
 30
0.0
  0
VERTEX
  5
24B
330
1F7
100
AcDbEntity
  8
1
  6
Continuous
 62
     7
370
     9
100
AcDbVertex
100
AcDb2dVertex
 10
109.4969130895192
 20
121.4276654189413
 30
0.0
  0
VERTEX
  5
24C
330
1F7
100
AcDbEntity
  8
1
  6
Continuous
 62
     7
370
     9
100
AcDbVertex
100
AcDb2dVertex
 10
109.5128130895192
 20
121.4211654189413
 30
0.0
  0
VERTEX
  5
24D
330
1F7
100
AcDbEntity
  8
1
  6
Continuous
 62
     7
370
     9
100
AcDbVertex
100
AcDb2dVertex
 10
109.5287130895192
 20
121.4145654189413
 30
0.0
  0
VERTEX
  5
24E
330
1F7
100
AcDbEntity
  8
1
  6
Continuous
 62
     7
370
     9
100
AcDbVertex
100
AcDb2dVertex
 10
109.5446130895192
 20
121.4079654189413
 30
0.0
  0
VERTEX
  5
24F
330
1F7
100
AcDbEntity
  8
1
  6
Continuous
 62
     7
370
     9
100
AcDbVertex
100
AcDb2dVertex
 10
109.5605130895192
 20
121.4013654189413
 30
0.0
  0
VERTEX
  5
250
330
1F7
100
AcDbEntity
  8
1
  6
Continuous
 62
     7
370
     9
100
AcDbVertex
100
AcDb2dVertex
 10
109.5764130895192
 20
121.3946654189413
 30
0.0
  0
VERTEX
  5
251
330
1F7
100
AcDbEntity
  8
1
  6
Continuous
 62
     7
370
     9
100
AcDbVertex
100
AcDb2dVertex
 10
109.5924130895192
 20
121.3879654189413
 30
0.0
  0
VERTEX
  5
252
330
1F7
100
AcDbEntity
  8
1
  6
Continuous
 62
     7
370
     9
100
AcDbVertex
100
AcDb2dVertex
 10
109.6083130895192
 20
121.3812654189413
 30
0.0
  0
VERTEX
  5
253
330
1F7
100
AcDbEntity
  8
1
  6
Continuous
 62
     7
370
     9
100
AcDbVertex
100
AcDb2dVertex
 10
109.6242130895192
 20
121.3744654189413
 30
0.0
  0
VERTEX
  5
254
330
1F7
100
AcDbEntity
  8
1
  6
Continuous
 62
     7
370
     9
100
AcDbVertex
100
AcDb2dVertex
 10
109.6401130895192
 20
121.3676654189413
 30
0.0
  0
VERTEX
  5
255
330
1F7
100
AcDbEntity
  8
1
  6
Continuous
 62
     7
370
     9
100
AcDbVertex
100
AcDb2dVertex
 10
109.6560130895192
 20
121.3607654189413
 30
0.0
  0
VERTEX
  5
256
330
1F7
100
AcDbEntity
  8
1
  6
Continuous
 62
     7
370
     9
100
AcDbVertex
100
AcDb2dVertex
 10
109.6719130895192
 20
121.3539654189413
 30
0.0
  0
VERTEX
  5
257
330
1F7
100
AcDbEntity
  8
1
  6
Continuous
 62
     7
370
     9
100
AcDbVertex
100
AcDb2dVertex
 10
109.6878130895192
 20
121.3470654189413
 30
0.0
  0
VERTEX
  5
258
330
1F7
100
AcDbEntity
  8
1
  6
Continuous
 62
     7
370
     9
100
AcDbVertex
100
AcDb2dVertex
 10
109.7037130895192
 20
121.3400654189413
 30
0.0
  0
VERTEX
  5
259
330
1F7
100
AcDbEntity
  8
1
  6
Continuous
 62
     7
370
     9
100
AcDbVertex
100
AcDb2dVertex
 10
109.7196130895192
 20
121.3331654189413
 30
0.0
  0
VERTEX
  5
25A
330
1F7
100
AcDbEntity
  8
1
  6
Continuous
 62
     7
370
     9
100
AcDbVertex
100
AcDb2dVertex
 10
109.7356130895192
 20
121.3261654189413
 30
0.0
  0
VERTEX
  5
25B
330
1F7
100
AcDbEntity
  8
1
  6
Continuous
 62
     7
370
     9
100
AcDbVertex
100
AcDb2dVertex
 10
109.7515130895192
 20
121.3191654189413
 30
0.0
  0
VERTEX
  5
25C
330
1F7
100
AcDbEntity
  8
1
  6
Continuous
 62
     7
370
     9
100
AcDbVertex
100
AcDb2dVertex
 10
109.7674130895192
 20
121.3120654189413
 30
0.0
  0
VERTEX
  5
25D
330
1F7
100
AcDbEntity
  8
1
  6
Continuous
 62
     7
370
     9
100
AcDbVertex
100
AcDb2dVertex
 10
109.7833130895192
 20
121.3050654189413
 30
0.0
  0
VERTEX
  5
25E
330
1F7
100
AcDbEntity
  8
1
  6
Continuous
 62
     7
370
     9
100
AcDbVertex
100
AcDb2dVertex
 10
109.7992130895192
 20
121.2979654189413
 30
0.0
  0
VERTEX
  5
25F
330
1F7
100
AcDbEntity
  8
1
  6
Continuous
 62
     7
370
     9
100
AcDbVertex
100
AcDb2dVertex
 10
109.8151130895192
 20
121.2908654189413
 30
0.0
  0
VERTEX
  5
260
330
1F7
100
AcDbEntity
  8
1
  6
Continuous
 62
     7
370
     9
100
AcDbVertex
100
AcDb2dVertex
 10
109.8310130895192
 20
121.2837654189413
 30
0.0
  0
VERTEX
  5
261
330
1F7
100
AcDbEntity
  8
1
  6
Continuous
 62
     7
370
     9
100
AcDbVertex
100
AcDb2dVertex
 10
109.8469130895192
 20
121.2765654189413
 30
0.0
  0
VERTEX
  5
262
330
1F7
100
AcDbEntity
  8
1
  6
Continuous
 62
     7
370
     9
100
AcDbVertex
100
AcDb2dVertex
 10
109.8628130895192
 20
121.2693654189413
 30
0.0
  0
VERTEX
  5
263
330
1F7
100
AcDbEntity
  8
1
  6
Continuous
 62
     7
370
     9
100
AcDbVertex
100
AcDb2dVertex
 10
109.8788130895192
 20
121.2621654189413
 30
0.0
  0
VERTEX
  5
264
330
1F7
100
AcDbEntity
  8
1
  6
Continuous
 62
     7
370
     9
100
AcDbVertex
100
AcDb2dVertex
 10
109.8947130895192
 20
121.2549654189413
 30
0.0
  0
VERTEX
  5
265
330
1F7
100
AcDbEntity
  8
1
  6
Continuous
 62
     7
370
     9
100
AcDbVertex
100
AcDb2dVertex
 10
109.9106130895192
 20
121.2477654189413
 30
0.0
  0
VERTEX
  5
266
330
1F7
100
AcDbEntity
  8
1
  6
Continuous
 62
     7
370
     9
100
AcDbVertex
100
AcDb2dVertex
 10
109.9265130895192
 20
121.2405654189413
 30
0.0
  0
VERTEX
  5
267
330
1F7
100
AcDbEntity
  8
1
  6
Continuous
 62
     7
370
     9
100
AcDbVertex
100
AcDb2dVertex
 10
109.9424130895192
 20
121.2332654189413
 30
0.0
  0
VERTEX
  5
268
330
1F7
100
AcDbEntity
  8
1
  6
Continuous
 62
     7
370
     9
100
AcDbVertex
100
AcDb2dVertex
 10
109.9583130895192
 20
121.2259654189413
 30
0.0
  0
VERTEX
  5
269
330
1F7
100
AcDbEntity
  8
1
  6
Continuous
 62
     7
370
     9
100
AcDbVertex
100
AcDb2dVertex
 10
109.9742130895192
 20
121.2186654189413
 30
0.0
  0
VERTEX
  5
26A
330
1F7
100
AcDbEntity
  8
1
  6
Continuous
 62
     7
370
     9
100
AcDbVertex
100
AcDb2dVertex
 10
109.9901130895192
 20
121.2113654189413
 30
0.0
  0
VERTEX
  5
26B
330
1F7
100
AcDbEntity
  8
1
  6
Continuous
 62
     7
370
     9
100
AcDbVertex
100
AcDb2dVertex
 10
110.0061130895192
 20
121.2040654189413
 30
0.0
  0
VERTEX
  5
26C
330
1F7
100
AcDbEntity
  8
1
  6
Continuous
 62
     7
370
     9
100
AcDbVertex
100
AcDb2dVertex
 10
110.0220130895192
 20
121.1967654189413
 30
0.0
  0
VERTEX
  5
26D
330
1F7
100
AcDbEntity
  8
1
  6
Continuous
 62
     7
370
     9
100
AcDbVertex
100
AcDb2dVertex
 10
110.0379130895192
 20
121.1894654189413
 30
0.0
  0
VERTEX
  5
26E
330
1F7
100
AcDbEntity
  8
1
  6
Continuous
 62
     7
370
     9
100
AcDbVertex
100
AcDb2dVertex
 10
110.0538130895192
 20
121.1820654189413
 30
0.0
  0
VERTEX
  5
26F
330
1F7
100
AcDbEntity
  8
1
  6
Continuous
 62
     7
370
     9
100
AcDbVertex
100
AcDb2dVertex
 10
110.0697130895192
 20
121.1747654189413
 30
0.0
  0
VERTEX
  5
270
330
1F7
100
AcDbEntity
  8
1
  6
Continuous
 62
     7
370
     9
100
AcDbVertex
100
AcDb2dVertex
 10
110.0856130895192
 20
121.1673654189413
 30
0.0
  0
VERTEX
  5
271
330
1F7
100
AcDbEntity
  8
1
  6
Continuous
 62
     7
370
     9
100
AcDbVertex
100
AcDb2dVertex
 10
110.1015130895192
 20
121.1599654189413
 30
0.0
  0
VERTEX
  5
272
330
1F7
100
AcDbEntity
  8
1
  6
Continuous
 62
     7
370
     9
100
AcDbVertex
100
AcDb2dVertex
 10
110.1174130895192
 20
121.1526654189413
 30
0.0
  0
VERTEX
  5
273
330
1F7
100
AcDbEntity
  8
1
  6
Continuous
 62
     7
370
     9
100
AcDbVertex
100
AcDb2dVertex
 10
110.1333130895192
 20
121.1452654189413
 30
0.0
  0
VERTEX
  5
274
330
1F7
100
AcDbEntity
  8
1
  6
Continuous
 62
     7
370
     9
100
AcDbVertex
100
AcDb2dVertex
 10
110.1493130895192
 20
121.1378654189413
 30
0.0
  0
VERTEX
  5
275
330
1F7
100
AcDbEntity
  8
1
  6
Continuous
 62
     7
370
     9
100
AcDbVertex
100
AcDb2dVertex
 10
110.1652130895192
 20
121.1304654189413
 30
0.0
  0
VERTEX
  5
276
330
1F7
100
AcDbEntity
  8
1
  6
Continuous
 62
     7
370
     9
100
AcDbVertex
100
AcDb2dVertex
 10
110.1811130895192
 20
121.1231654189413
 30
0.0
  0
VERTEX
  5
277
330
1F7
100
AcDbEntity
  8
1
  6
Continuous
 62
     7
370
     9
100
AcDbVertex
100
AcDb2dVertex
 10
110.1970130895192
 20
121.1157654189413
 30
0.0
  0
SEQEND
  5
278
330
1F7
100
AcDbEntity
  8
1
  6
Continuous
 62
     7
370
     9
  0
POLYLINE
  5
279
330
1F
100
AcDbEntity
  8
1
  6
Continuous
 62
     7
370
     9
100
AcDb2dPolyline
 66
     1
 10
0.0
 20
0.0
 30
0.0
  0
VERTEX
  5
27A
330
279
100
AcDbEntity
  8
1
  6
Continuous
 62
     7
370
     9
100
AcDbVertex
100
AcDb2dVertex
 10
110.1970130895192
 20
121.1157654189413
 30
0.0
  0
VERTEX
  5
27B
330
279
100
AcDbEntity
  8
1
  6
Continuous
 62
     7
370
     9
100
AcDbVertex
100
AcDb2dVertex
 10
110.2224130895192
 20
121.1216654189413
 30
0.0
  0
VERTEX
  5
27C
330
279
100
AcDbEntity
  8
1
  6
Continuous
 62
     7
370
     9
100
AcDbVertex
100
AcDb2dVertex
 10
110.2478130895192
 20
121.1275654189413
 30
0.0
  0
VERTEX
  5
27D
330
279
100
AcDbEntity
  8
1
  6
Continuous
 62
     7
370
     9
100
AcDbVertex
100
AcDb2dVertex
 10
110.2732130895192
 20
121.1334654189413
 30
0.0
  0
VERTEX
  5
27E
330
279
100
AcDbEntity
  8
1
  6
Continuous
 62
     7
370
     9
100
AcDbVertex
100
AcDb2dVertex
 10
110.2987130895192
 20
121.1393654189413
 30
0.0
  0
VERTEX
  5
27F
330
279
100
AcDbEntity
  8
1
  6
Continuous
 62
     7
370
     9
100
AcDbVertex
100
AcDb2dVertex
 10
110.3241130895192
 20
121.1452654189413
 30
0.0
  0
VERTEX
  5
280
330
279
100
AcDbEntity
  8
1
  6
Continuous
 62
     7
370
     9
100
AcDbVertex
100
AcDb2dVertex
 10
110.3495130895192
 20
121.1510654189413
 30
0.0
  0
VERTEX
  5
281
330
279
100
AcDbEntity
  8
1
  6
Continuous
 62
     7
370
     9
100
AcDbVertex
100
AcDb2dVertex
 10
110.3749130895192
 20
121.1569654189413
 30
0.0
  0
VERTEX
  5
282
330
279
100
AcDbEntity
  8
1
  6
Continuous
 62
     7
370
     9
100
AcDbVertex
100
AcDb2dVertex
 10
110.4003130895192
 20
121.1628654189413
 30
0.0
  0
VERTEX
  5
283
330
279
100
AcDbEntity
  8
1
  6
Continuous
 62
     7
370
     9
100
AcDbVertex
100
AcDb2dVertex
 10
110.4257130895192
 20
121.1687654189413
 30
0.0
  0
VERTEX
  5
284
330
279
100
AcDbEntity
  8
1
  6
Continuous
 62
     7
370
     9
100
AcDbVertex
100
AcDb2dVertex
 10
110.4512130895192
 20
121.1746654189413
 30
0.0
  0
VERTEX
  5
285
330
279
100
AcDbEntity
  8
1
  6
Continuous
 62
     7
370
     9
100
AcDbVertex
100
AcDb2dVertex
 10
110.4766130895192
 20
121.1804654189413
 30
0.0
  0
VERTEX
  5
286
330
279
100
AcDbEntity
  8
1
  6
Continuous
 62
     7
370
     9
100
AcDbVertex
100
AcDb2dVertex
 10
110.5020130895192
 20
121.1863654189413
 30
0.0
  0
VERTEX
  5
287
330
279
100
AcDbEntity
  8
1
  6
Continuous
 62
     7
370
     9
100
AcDbVertex
100
AcDb2dVertex
 10
110.5274130895192
 20
121.1922654189413
 30
0.0
  0
VERTEX
  5
288
330
279
100
AcDbEntity
  8
1
  6
Continuous
 62
     7
370
     9
100
AcDbVertex
100
AcDb2dVertex
 10
110.5528130895192
 20
121.1980654189413
 30
0.0
  0
VERTEX
  5
289
330
279
100
AcDbEntity
  8
1
  6
Continuous
 62
     7
370
     9
100
AcDbVertex
100
AcDb2dVertex
 10
110.5783130895192
 20
121.2039654189413
 30
0.0
  0
VERTEX
  5
28A
330
279
100
AcDbEntity
  8
1
  6
Continuous
 62
     7
370
     9
100
AcDbVertex
100
AcDb2dVertex
 10
110.6037130895192
 20
121.2097654189413
 30
0.0
  0
VERTEX
  5
28B
330
279
100
AcDbEntity
  8
1
  6
Continuous
 62
     7
370
     9
100
AcDbVertex
100
AcDb2dVertex
 10
110.6291130895192
 20
121.2156654189413
 30
0.0
  0
VERTEX
  5
28C
330
279
100
AcDbEntity
  8
1
  6
Continuous
 62
     7
370
     9
100
AcDbVertex
100
AcDb2dVertex
 10
110.6545130895192
 20
121.2214654189413
 30
0.0
  0
VERTEX
  5
28D
330
279
100
AcDbEntity
  8
1
  6
Continuous
 62
     7
370
     9
100
AcDbVertex
100
AcDb2dVertex
 10
110.6799130895192
 20
121.2272654189413
 30
0.0
  0
VERTEX
  5
28E
330
279
100
AcDbEntity
  8
1
  6
Continuous
 62
     7
370
     9
100
AcDbVertex
100
AcDb2dVertex
 10
110.7053130895192
 20
121.2330654189413
 30
0.0
  0
VERTEX
  5
28F
330
279
100
AcDbEntity
  8
1
  6
Continuous
 62
     7
370
     9
100
AcDbVertex
100
AcDb2dVertex
 10
110.7308130895192
 20
121.2388654189413
 30
0.0
  0
VERTEX
  5
290
330
279
100
AcDbEntity
  8
1
  6
Continuous
 62
     7
370
     9
100
AcDbVertex
100
AcDb2dVertex
 10
110.7562130895192
 20
121.2446654189413
 30
0.0
  0
VERTEX
  5
291
330
279
100
AcDbEntity
  8
1
  6
Continuous
 62
     7
370
     9
100
AcDbVertex
100
AcDb2dVertex
 10
110.7816130895192
 20
121.2504654189413
 30
0.0
  0
VERTEX
  5
292
330
279
100
AcDbEntity
  8
1
  6
Continuous
 62
     7
370
     9
100
AcDbVertex
100
AcDb2dVertex
 10
110.8070130895192
 20
121.2562654189413
 30
0.0
  0
VERTEX
  5
293
330
279
100
AcDbEntity
  8
1
  6
Continuous
 62
     7
370
     9
100
AcDbVertex
100
AcDb2dVertex
 10
110.8324130895192
 20
121.2619654189413
 30
0.0
  0
VERTEX
  5
294
330
279
100
AcDbEntity
  8
1
  6
Continuous
 62
     7
370
     9
100
AcDbVertex
100
AcDb2dVertex
 10
110.8579130895192
 20
121.2677654189413
 30
0.0
  0
VERTEX
  5
295
330
279
100
AcDbEntity
  8
1
  6
Continuous
 62
     7
370
     9
100
AcDbVertex
100
AcDb2dVertex
 10
110.8833130895192
 20
121.2734654189413
 30
0.0
  0
VERTEX
  5
296
330
279
100
AcDbEntity
  8
1
  6
Continuous
 62
     7
370
     9
100
AcDbVertex
100
AcDb2dVertex
 10
110.9087130895192
 20
121.2791654189413
 30
0.0
  0
VERTEX
  5
297
330
279
100
AcDbEntity
  8
1
  6
Continuous
 62
     7
370
     9
100
AcDbVertex
100
AcDb2dVertex
 10
110.9341130895192
 20
121.2848654189413
 30
0.0
  0
VERTEX
  5
298
330
279
100
AcDbEntity
  8
1
  6
Continuous
 62
     7
370
     9
100
AcDbVertex
100
AcDb2dVertex
 10
110.9595130895192
 20
121.2905654189413
 30
0.0
  0
VERTEX
  5
299
330
279
100
AcDbEntity
  8
1
  6
Continuous
 62
     7
370
     9
100
AcDbVertex
100
AcDb2dVertex
 10
110.9849130895192
 20
121.2962654189413
 30
0.0
  0
VERTEX
  5
29A
330
279
100
AcDbEntity
  8
1
  6
Continuous
 62
     7
370
     9
100
AcDbVertex
100
AcDb2dVertex
 10
111.0104130895192
 20
121.3019654189413
 30
0.0
  0
VERTEX
  5
29B
330
279
100
AcDbEntity
  8
1
  6
Continuous
 62
     7
370
     9
100
AcDbVertex
100
AcDb2dVertex
 10
111.0358130895192
 20
121.3075654189413
 30
0.0
  0
VERTEX
  5
29C
330
279
100
AcDbEntity
  8
1
  6
Continuous
 62
     7
370
     9
100
AcDbVertex
100
AcDb2dVertex
 10
111.0612130895192
 20
121.3132654189413
 30
0.0
  0
VERTEX
  5
29D
330
279
100
AcDbEntity
  8
1
  6
Continuous
 62
     7
370
     9
100
AcDbVertex
100
AcDb2dVertex
 10
111.0866130895192
 20
121.3188654189413
 30
0.0
  0
VERTEX
  5
29E
330
279
100
AcDbEntity
  8
1
  6
Continuous
 62
     7
370
     9
100
AcDbVertex
100
AcDb2dVertex
 10
111.1120130895192
 20
121.3244654189413
 30
0.0
  0
VERTEX
  5
29F
330
279
100
AcDbEntity
  8
1
  6
Continuous
 62
     7
370
     9
100
AcDbVertex
100
AcDb2dVertex
 10
111.1374130895192
 20
121.3300654189413
 30
0.0
  0
VERTEX
  5
2A0
330
279
100
AcDbEntity
  8
1
  6
Continuous
 62
     7
370
     9
100
AcDbVertex
100
AcDb2dVertex
 10
111.1629130895192
 20
121.3355654189413
 30
0.0
  0
VERTEX
  5
2A1
330
279
100
AcDbEntity
  8
1
  6
Continuous
 62
     7
370
     9
100
AcDbVertex
100
AcDb2dVertex
 10
111.1883130895192
 20
121.3411654189413
 30
0.0
  0
VERTEX
  5
2A2
330
279
100
AcDbEntity
  8
1
  6
Continuous
 62
     7
370
     9
100
AcDbVertex
100
AcDb2dVertex
 10
111.2137130895192
 20
121.3466654189413
 30
0.0
  0
VERTEX
  5
2A3
330
279
100
AcDbEntity
  8
1
  6
Continuous
 62
     7
370
     9
100
AcDbVertex
100
AcDb2dVertex
 10
111.2391130895192
 20
121.3521654189413
 30
0.0
  0
VERTEX
  5
2A4
330
279
100
AcDbEntity
  8
1
  6
Continuous
 62
     7
370
     9
100
AcDbVertex
100
AcDb2dVertex
 10
111.2645130895192
 20
121.3576654189413
 30
0.0
  0
VERTEX
  5
2A5
330
279
100
AcDbEntity
  8
1
  6
Continuous
 62
     7
370
     9
100
AcDbVertex
100
AcDb2dVertex
 10
111.2900130895192
 20
121.3631654189413
 30
0.0
  0
VERTEX
  5
2A6
330
279
100
AcDbEntity
  8
1
  6
Continuous
 62
     7
370
     9
100
AcDbVertex
100
AcDb2dVertex
 10
111.3154130895192
 20
121.3686654189413
 30
0.0
  0
VERTEX
  5
2A7
330
279
100
AcDbEntity
  8
1
  6
Continuous
 62
     7
370
     9
100
AcDbVertex
100
AcDb2dVertex
 10
111.3408130895192
 20
121.3740654189413
 30
0.0
  0
VERTEX
  5
2A8
330
279
100
AcDbEntity
  8
1
  6
Continuous
 62
     7
370
     9
100
AcDbVertex
100
AcDb2dVertex
 10
111.3662130895192
 20
121.3794654189413
 30
0.0
  0
VERTEX
  5
2A9
330
279
100
AcDbEntity
  8
1
  6
Continuous
 62
     7
370
     9
100
AcDbVertex
100
AcDb2dVertex
 10
111.3916130895192
 20
121.3848654189413
 30
0.0
  0
VERTEX
  5
2AA
330
279
100
AcDbEntity
  8
1
  6
Continuous
 62
     7
370
     9
100
AcDbVertex
100
AcDb2dVertex
 10
111.4170130895192
 20
121.3902654189413
 30
0.0
  0
VERTEX
  5
2AB
330
279
100
AcDbEntity
  8
1
  6
Continuous
 62
     7
370
     9
100
AcDbVertex
100
AcDb2dVertex
 10
111.4425130895192
 20
121.3955654189413
 30
0.0
  0
VERTEX
  5
2AC
330
279
100
AcDbEntity
  8
1
  6
Continuous
 62
     7
370
     9
100
AcDbVertex
100
AcDb2dVertex
 10
111.4679130895192
 20
121.4009654189413
 30
0.0
  0
VERTEX
  5
2AD
330
279
100
AcDbEntity
  8
1
  6
Continuous
 62
     7
370
     9
100
AcDbVertex
100
AcDb2dVertex
 10
111.4933130895192
 20
121.4062654189413
 30
0.0
  0
VERTEX
  5
2AE
330
279
100
AcDbEntity
  8
1
  6
Continuous
 62
     7
370
     9
100
AcDbVertex
100
AcDb2dVertex
 10
111.5187130895192
 20
121.4114654189413
 30
0.0
  0
VERTEX
  5
2AF
330
279
100
AcDbEntity
  8
1
  6
Continuous
 62
     7
370
     9
100
AcDbVertex
100
AcDb2dVertex
 10
111.5441130895192
 20
121.4167654189413
 30
0.0
  0
VERTEX
  5
2B0
330
279
100
AcDbEntity
  8
1
  6
Continuous
 62
     7
370
     9
100
AcDbVertex
100
AcDb2dVertex
 10
111.5696130895192
 20
121.4219654189413
 30
0.0
  0
VERTEX
  5
2B1
330
279
100
AcDbEntity
  8
1
  6
Continuous
 62
     7
370
     9
100
AcDbVertex
100
AcDb2dVertex
 10
111.5950130895192
 20
121.4271654189413
 30
0.0
  0
VERTEX
  5
2B2
330
279
100
AcDbEntity
  8
1
  6
Continuous
 62
     7
370
     9
100
AcDbVertex
100
AcDb2dVertex
 10
111.6204130895192
 20
121.4323654189413
 30
0.0
  0
VERTEX
  5
2B3
330
279
100
AcDbEntity
  8
1
  6
Continuous
 62
     7
370
     9
100
AcDbVertex
100
AcDb2dVertex
 10
111.6458130895192
 20
121.4375654189413
 30
0.0
  0
VERTEX
  5
2B4
330
279
100
AcDbEntity
  8
1
  6
Continuous
 62
     7
370
     9
100
AcDbVertex
100
AcDb2dVertex
 10
111.6712130895192
 20
121.4426654189413
 30
0.0
  0
VERTEX
  5
2B5
330
279
100
AcDbEntity
  8
1
  6
Continuous
 62
     7
370
     9
100
AcDbVertex
100
AcDb2dVertex
 10
111.6966130895192
 20
121.4477654189413
 30
0.0
  0
VERTEX
  5
2B6
330
279
100
AcDbEntity
  8
1
  6
Continuous
 62
     7
370
     9
100
AcDbVertex
100
AcDb2dVertex
 10
111.7221130895192
 20
121.4528654189413
 30
0.0
  0
VERTEX
  5
2B7
330
279
100
AcDbEntity
  8
1
  6
Continuous
 62
     7
370
     9
100
AcDbVertex
100
AcDb2dVertex
 10
111.7475130895192
 20
121.4578654189413
 30
0.0
  0
VERTEX
  5
2B8
330
279
100
AcDbEntity
  8
1
  6
Continuous
 62
     7
370
     9
100
AcDbVertex
100
AcDb2dVertex
 10
111.7729130895192
 20
121.4628654189413
 30
0.0
  0
VERTEX
  5
2B9
330
279
100
AcDbEntity
  8
1
  6
Continuous
 62
     7
370
     9
100
AcDbVertex
100
AcDb2dVertex
 10
111.7983130895192
 20
121.4678654189413
 30
0.0
  0
VERTEX
  5
2BA
330
279
100
AcDbEntity
  8
1
  6
Continuous
 62
     7
370
     9
100
AcDbVertex
100
AcDb2dVertex
 10
111.8237130895192
 20
121.4728654189413
 30
0.0
  0
VERTEX
  5
2BB
330
279
100
AcDbEntity
  8
1
  6
Continuous
 62
     7
370
     9
100
AcDbVertex
100
AcDb2dVertex
 10
111.8492130895192
 20
121.4777654189413
 30
0.0
  0
VERTEX
  5
2BC
330
279
100
AcDbEntity
  8
1
  6
Continuous
 62
     7
370
     9
100
AcDbVertex
100
AcDb2dVertex
 10
111.8746130895192
 20
121.4826654189413
 30
0.0
  0
VERTEX
  5
2BD
330
279
100
AcDbEntity
  8
1
  6
Continuous
 62
     7
370
     9
100
AcDbVertex
100
AcDb2dVertex
 10
111.9000130895192
 20
121.4875654189413
 30
0.0
  0
VERTEX
  5
2BE
330
279
100
AcDbEntity
  8
1
  6
Continuous
 62
     7
370
     9
100
AcDbVertex
100
AcDb2dVertex
 10
111.9254130895192
 20
121.4923654189413
 30
0.0
  0
VERTEX
  5
2BF
330
279
100
AcDbEntity
  8
1
  6
Continuous
 62
     7
370
     9
100
AcDbVertex
100
AcDb2dVertex
 10
111.9508130895192
 20
121.4971654189413
 30
0.0
  0
VERTEX
  5
2C0
330
279
100
AcDbEntity
  8
1
  6
Continuous
 62
     7
370
     9
100
AcDbVertex
100
AcDb2dVertex
 10
111.9762130895192
 20
121.5019654189413
 30
0.0
  0
VERTEX
  5
2C1
330
279
100
AcDbEntity
  8
1
  6
Continuous
 62
     7
370
     9
100
AcDbVertex
100
AcDb2dVertex
 10
112.0017130895192
 20
121.5066654189413
 30
0.0
  0
VERTEX
  5
2C2
330
279
100
AcDbEntity
  8
1
  6
Continuous
 62
     7
370
     9
100
AcDbVertex
100
AcDb2dVertex
 10
112.0271130895192
 20
121.5113654189413
 30
0.0
  0
VERTEX
  5
2C3
330
279
100
AcDbEntity
  8
1
  6
Continuous
 62
     7
370
     9
100
AcDbVertex
100
AcDb2dVertex
 10
112.0525130895192
 20
121.5160654189413
 30
0.0
  0
VERTEX
  5
2C4
330
279
100
AcDbEntity
  8
1
  6
Continuous
 62
     7
370
     9
100
AcDbVertex
100
AcDb2dVertex
 10
112.0779130895192
 20
121.5206654189413
 30
0.0
  0
VERTEX
  5
2C5
330
279
100
AcDbEntity
  8
1
  6
Continuous
 62
     7
370
     9
100
AcDbVertex
100
AcDb2dVertex
 10
112.1033130895192
 20
121.5252654189413
 30
0.0
  0
VERTEX
  5
2C6
330
279
100
AcDbEntity
  8
1
  6
Continuous
 62
     7
370
     9
100
AcDbVertex
100
AcDb2dVertex
 10
112.1287130895192
 20
121.5298654189413
 30
0.0
  0
VERTEX
  5
2C7
330
279
100
AcDbEntity
  8
1
  6
Continuous
 62
     7
370
     9
100
AcDbVertex
100
AcDb2dVertex
 10
112.1542130895192
 20
121.5343654189413
 30
0.0
  0
VERTEX
  5
2C8
330
279
100
AcDbEntity
  8
1
  6
Continuous
 62
     7
370
     9
100
AcDbVertex
100
AcDb2dVertex
 10
112.1796130895192
 20
121.5388654189413
 30
0.0
  0
VERTEX
  5
2C9
330
279
100
AcDbEntity
  8
1
  6
Continuous
 62
     7
370
     9
100
AcDbVertex
100
AcDb2dVertex
 10
112.2050130895192
 20
121.5433654189413
 30
0.0
  0
VERTEX
  5
2CA
330
279
100
AcDbEntity
  8
1
  6
Continuous
 62
     7
370
     9
100
AcDbVertex
100
AcDb2dVertex
 10
112.2304130895192
 20
121.5477654189413
 30
0.0
  0
VERTEX
  5
2CB
330
279
100
AcDbEntity
  8
1
  6
Continuous
 62
     7
370
     9
100
AcDbVertex
100
AcDb2dVertex
 10
112.2558130895192
 20
121.5521654189413
 30
0.0
  0
VERTEX
  5
2CC
330
279
100
AcDbEntity
  8
1
  6
Continuous
 62
     7
370
     9
100
AcDbVertex
100
AcDb2dVertex
 10
112.2813130895192
 20
121.5564654189413
 30
0.0
  0
VERTEX
  5
2CD
330
279
100
AcDbEntity
  8
1
  6
Continuous
 62
     7
370
     9
100
AcDbVertex
100
AcDb2dVertex
 10
112.3067130895192
 20
121.5608654189413
 30
0.0
  0
VERTEX
  5
2CE
330
279
100
AcDbEntity
  8
1
  6
Continuous
 62
     7
370
     9
100
AcDbVertex
100
AcDb2dVertex
 10
112.3321130895192
 20
121.5650654189413
 30
0.0
  0
VERTEX
  5
2CF
330
279
100
AcDbEntity
  8
1
  6
Continuous
 62
     7
370
     9
100
AcDbVertex
100
AcDb2dVertex
 10
112.3575130895192
 20
121.5693654189413
 30
0.0
  0
VERTEX
  5
2D0
330
279
100
AcDbEntity
  8
1
  6
Continuous
 62
     7
370
     9
100
AcDbVertex
100
AcDb2dVertex
 10
112.3829130895192
 20
121.5735654189413
 30
0.0
  0
VERTEX
  5
2D1
330
279
100
AcDbEntity
  8
1
  6
Continuous
 62
     7
370
     9
100
AcDbVertex
100
AcDb2dVertex
 10
112.4083130895192
 20
121.5776654189413
 30
0.0
  0
VERTEX
  5
2D2
330
279
100
AcDbEntity
  8
1
  6
Continuous
 62
     7
370
     9
100
AcDbVertex
100
AcDb2dVertex
 10
112.4338130895192
 20
121.5817654189413
 30
0.0
  0
VERTEX
  5
2D3
330
279
100
AcDbEntity
  8
1
  6
Continuous
 62
     7
370
     9
100
AcDbVertex
100
AcDb2dVertex
 10
112.4592130895192
 20
121.5858654189413
 30
0.0
  0
VERTEX
  5
2D4
330
279
100
AcDbEntity
  8
1
  6
Continuous
 62
     7
370
     9
100
AcDbVertex
100
AcDb2dVertex
 10
112.4846130895192
 20
121.5898654189413
 30
0.0
  0
VERTEX
  5
2D5
330
279
100
AcDbEntity
  8
1
  6
Continuous
 62
     7
370
     9
100
AcDbVertex
100
AcDb2dVertex
 10
112.5100130895192
 20
121.5938654189413
 30
0.0
  0
VERTEX
  5
2D6
330
279
100
AcDbEntity
  8
1
  6
Continuous
 62
     7
370
     9
100
AcDbVertex
100
AcDb2dVertex
 10
112.5354130895192
 20
121.5978654189413
 30
0.0
  0
VERTEX
  5
2D7
330
279
100
AcDbEntity
  8
1
  6
Continuous
 62
     7
370
     9
100
AcDbVertex
100
AcDb2dVertex
 10
112.5609130895192
 20
121.6017654189413
 30
0.0
  0
VERTEX
  5
2D8
330
279
100
AcDbEntity
  8
1
  6
Continuous
 62
     7
370
     9
100
AcDbVertex
100
AcDb2dVertex
 10
112.5863130895192
 20
121.6055654189413
 30
0.0
  0
VERTEX
  5
2D9
330
279
100
AcDbEntity
  8
1
  6
Continuous
 62
     7
370
     9
100
AcDbVertex
100
AcDb2dVertex
 10
112.6117130895192
 20
121.6093654189413
 30
0.0
  0
VERTEX
  5
2DA
330
279
100
AcDbEntity
  8
1
  6
Continuous
 62
     7
370
     9
100
AcDbVertex
100
AcDb2dVertex
 10
112.6371130895192
 20
121.6131654189413
 30
0.0
  0
VERTEX
  5
2DB
330
279
100
AcDbEntity
  8
1
  6
Continuous
 62
     7
370
     9
100
AcDbVertex
100
AcDb2dVertex
 10
112.6625130895192
 20
121.6168654189413
 30
0.0
  0
VERTEX
  5
2DC
330
279
100
AcDbEntity
  8
1
  6
Continuous
 62
     7
370
     9
100
AcDbVertex
100
AcDb2dVertex
 10
112.6879130895192
 20
121.6205654189413
 30
0.0
  0
VERTEX
  5
2DD
330
279
100
AcDbEntity
  8
1
  6
Continuous
 62
     7
370
     9
100
AcDbVertex
100
AcDb2dVertex
 10
112.7134130895192
 20
121.6241654189413
 30
0.0
  0
VERTEX
  5
2DE
330
279
100
AcDbEntity
  8
1
  6
Continuous
 62
     7
370
     9
100
AcDbVertex
100
AcDb2dVertex
 10
112.7388130895192
 20
121.6277654189413
 30
0.0
  0
VERTEX
  5
2DF
330
279
100
AcDbEntity
  8
1
  6
Continuous
 62
     7
370
     9
100
AcDbVertex
100
AcDb2dVertex
 10
112.7642130895192
 20
121.6313654189413
 30
0.0
  0
VERTEX
  5
2E0
330
279
100
AcDbEntity
  8
1
  6
Continuous
 62
     7
370
     9
100
AcDbVertex
100
AcDb2dVertex
 10
112.7896130895192
 20
121.6348654189413
 30
0.0
  0
VERTEX
  5
2E1
330
279
100
AcDbEntity
  8
1
  6
Continuous
 62
     7
370
     9
100
AcDbVertex
100
AcDb2dVertex
 10
112.8150130895192
 20
121.6382654189413
 30
0.0
  0
VERTEX
  5
2E2
330
279
100
AcDbEntity
  8
1
  6
Continuous
 62
     7
370
     9
100
AcDbVertex
100
AcDb2dVertex
 10
112.8405130895192
 20
121.6416654189413
 30
0.0
  0
VERTEX
  5
2E3
330
279
100
AcDbEntity
  8
1
  6
Continuous
 62
     7
370
     9
100
AcDbVertex
100
AcDb2dVertex
 10
112.8659130895192
 20
121.6450654189413
 30
0.0
  0
VERTEX
  5
2E4
330
279
100
AcDbEntity
  8
1
  6
Continuous
 62
     7
370
     9
100
AcDbVertex
100
AcDb2dVertex
 10
112.8913130895192
 20
121.6483654189413
 30
0.0
  0
VERTEX
  5
2E5
330
279
100
AcDbEntity
  8
1
  6
Continuous
 62
     7
370
     9
100
AcDbVertex
100
AcDb2dVertex
 10
112.9167130895192
 20
121.6515654189413
 30
0.0
  0
VERTEX
  5
2E6
330
279
100
AcDbEntity
  8
1
  6
Continuous
 62
     7
370
     9
100
AcDbVertex
100
AcDb2dVertex
 10
112.9421130895192
 20
121.6547654189413
 30
0.0
  0
VERTEX
  5
2E7
330
279
100
AcDbEntity
  8
1
  6
Continuous
 62
     7
370
     9
100
AcDbVertex
100
AcDb2dVertex
 10
112.9675130895192
 20
121.6579654189413
 30
0.0
  0
VERTEX
  5
2E8
330
279
100
AcDbEntity
  8
1
  6
Continuous
 62
     7
370
     9
100
AcDbVertex
100
AcDb2dVertex
 10
112.9930130895192
 20
121.6610654189413
 30
0.0
  0
VERTEX
  5
2E9
330
279
100
AcDbEntity
  8
1
  6
Continuous
 62
     7
370
     9
100
AcDbVertex
100
AcDb2dVertex
 10
113.0184130895192
 20
121.6640654189413
 30
0.0
  0
VERTEX
  5
2EA
330
279
100
AcDbEntity
  8
1
  6
Continuous
 62
     7
370
     9
100
AcDbVertex
100
AcDb2dVertex
 10
113.0438130895192
 20
121.6670654189413
 30
0.0
  0
VERTEX
  5
2EB
330
279
100
AcDbEntity
  8
1
  6
Continuous
 62
     7
370
     9
100
AcDbVertex
100
AcDb2dVertex
 10
113.0692130895192
 20
121.6700654189413
 30
0.0
  0
VERTEX
  5
2EC
330
279
100
AcDbEntity
  8
1
  6
Continuous
 62
     7
370
     9
100
AcDbVertex
100
AcDb2dVertex
 10
113.0946130895192
 20
121.6729654189413
 30
0.0
  0
VERTEX
  5
2ED
330
279
100
AcDbEntity
  8
1
  6
Continuous
 62
     7
370
     9
100
AcDbVertex
100
AcDb2dVertex
 10
113.1200130895192
 20
121.6757654189413
 30
0.0
  0
VERTEX
  5
2EE
330
279
100
AcDbEntity
  8
1
  6
Continuous
 62
     7
370
     9
100
AcDbVertex
100
AcDb2dVertex
 10
113.1455130895192
 20
121.6785654189413
 30
0.0
  0
VERTEX
  5
2EF
330
279
100
AcDbEntity
  8
1
  6
Continuous
 62
     7
370
     9
100
AcDbVertex
100
AcDb2dVertex
 10
113.1709130895192
 20
121.6812654189413
 30
0.0
  0
VERTEX
  5
2F0
330
279
100
AcDbEntity
  8
1
  6
Continuous
 62
     7
370
     9
100
AcDbVertex
100
AcDb2dVertex
 10
113.1963130895192
 20
121.6839654189413
 30
0.0
  0
VERTEX
  5
2F1
330
279
100
AcDbEntity
  8
1
  6
Continuous
 62
     7
370
     9
100
AcDbVertex
100
AcDb2dVertex
 10
113.2217130895192
 20
121.6865654189413
 30
0.0
  0
VERTEX
  5
2F2
330
279
100
AcDbEntity
  8
1
  6
Continuous
 62
     7
370
     9
100
AcDbVertex
100
AcDb2dVertex
 10
113.2471130895192
 20
121.6891654189413
 30
0.0
  0
VERTEX
  5
2F3
330
279
100
AcDbEntity
  8
1
  6
Continuous
 62
     7
370
     9
100
AcDbVertex
100
AcDb2dVertex
 10
113.2726130895192
 20
121.6916654189413
 30
0.0
  0
VERTEX
  5
2F4
330
279
100
AcDbEntity
  8
1
  6
Continuous
 62
     7
370
     9
100
AcDbVertex
100
AcDb2dVertex
 10
113.2980130895192
 20
121.6940654189413
 30
0.0
  0
VERTEX
  5
2F5
330
279
100
AcDbEntity
  8
1
  6
Continuous
 62
     7
370
     9
100
AcDbVertex
100
AcDb2dVertex
 10
113.3234130895192
 20
121.6964654189413
 30
0.0
  0
VERTEX
  5
2F6
330
279
100
AcDbEntity
  8
1
  6
Continuous
 62
     7
370
     9
100
AcDbVertex
100
AcDb2dVertex
 10
113.3488130895192
 20
121.6988654189413
 30
0.0
  0
VERTEX
  5
2F7
330
279
100
AcDbEntity
  8
1
  6
Continuous
 62
     7
370
     9
100
AcDbVertex
100
AcDb2dVertex
 10
113.3742130895192
 20
121.7011654189413
 30
0.0
  0
VERTEX
  5
2F8
330
279
100
AcDbEntity
  8
1
  6
Continuous
 62
     7
370
     9
100
AcDbVertex
100
AcDb2dVertex
 10
113.3996130895192
 20
121.7033654189413
 30
0.0
  0
VERTEX
  5
2F9
330
279
100
AcDbEntity
  8
1
  6
Continuous
 62
     7
370
     9
100
AcDbVertex
100
AcDb2dVertex
 10
113.4251130895192
 20
121.7054654189413
 30
0.0
  0
VERTEX
  5
2FA
330
279
100
AcDbEntity
  8
1
  6
Continuous
 62
     7
370
     9
100
AcDbVertex
100
AcDb2dVertex
 10
113.4505130895192
 20
121.7076654189413
 30
0.0
  0
VERTEX
  5
2FB
330
279
100
AcDbEntity
  8
1
  6
Continuous
 62
     7
370
     9
100
AcDbVertex
100
AcDb2dVertex
 10
113.4759130895192
 20
121.7096654189413
 30
0.0
  0
VERTEX
  5
2FC
330
279
100
AcDbEntity
  8
1
  6
Continuous
 62
     7
370
     9
100
AcDbVertex
100
AcDb2dVertex
 10
113.5013130895192
 20
121.7116654189413
 30
0.0
  0
VERTEX
  5
2FD
330
279
100
AcDbEntity
  8
1
  6
Continuous
 62
     7
370
     9
100
AcDbVertex
100
AcDb2dVertex
 10
113.5267130895192
 20
121.7135654189413
 30
0.0
  0
VERTEX
  5
2FE
330
279
100
AcDbEntity
  8
1
  6
Continuous
 62
     7
370
     9
100
AcDbVertex
100
AcDb2dVertex
 10
113.5522130895192
 20
121.7154654189413
 30
0.0
  0
VERTEX
  5
2FF
330
279
100
AcDbEntity
  8
1
  6
Continuous
 62
     7
370
     9
100
AcDbVertex
100
AcDb2dVertex
 10
113.5776130895192
 20
121.7172654189413
 30
0.0
  0
VERTEX
  5
300
330
279
100
AcDbEntity
  8
1
  6
Continuous
 62
     7
370
     9
100
AcDbVertex
100
AcDb2dVertex
 10
113.6030130895192
 20
121.7189654189413
 30
0.0
  0
VERTEX
  5
301
330
279
100
AcDbEntity
  8
1
  6
Continuous
 62
     7
370
     9
100
AcDbVertex
100
AcDb2dVertex
 10
113.6284130895192
 20
121.7206654189413
 30
0.0
  0
VERTEX
  5
302
330
279
100
AcDbEntity
  8
1
  6
Continuous
 62
     7
370
     9
100
AcDbVertex
100
AcDb2dVertex
 10
113.6538130895192
 20
121.7222654189413
 30
0.0
  0
VERTEX
  5
303
330
279
100
AcDbEntity
  8
1
  6
Continuous
 62
     7
370
     9
100
AcDbVertex
100
AcDb2dVertex
 10
113.6792130895192
 20
121.7238654189413
 30
0.0
  0
VERTEX
  5
304
330
279
100
AcDbEntity
  8
1
  6
Continuous
 62
     7
370
     9
100
AcDbVertex
100
AcDb2dVertex
 10
113.7047130895192
 20
121.7252654189413
 30
0.0
  0
VERTEX
  5
305
330
279
100
AcDbEntity
  8
1
  6
Continuous
 62
     7
370
     9
100
AcDbVertex
100
AcDb2dVertex
 10
113.7301130895192
 20
121.7267654189413
 30
0.0
  0
VERTEX
  5
306
330
279
100
AcDbEntity
  8
1
  6
Continuous
 62
     7
370
     9
100
AcDbVertex
100
AcDb2dVertex
 10
113.7555130895192
 20
121.7280654189413
 30
0.0
  0
VERTEX
  5
307
330
279
100
AcDbEntity
  8
1
  6
Continuous
 62
     7
370
     9
100
AcDbVertex
100
AcDb2dVertex
 10
113.7809130895192
 20
121.7293654189413
 30
0.0
  0
VERTEX
  5
308
330
279
100
AcDbEntity
  8
1
  6
Continuous
 62
     7
370
     9
100
AcDbVertex
100
AcDb2dVertex
 10
113.8063130895192
 20
121.7305654189413
 30
0.0
  0
VERTEX
  5
309
330
279
100
AcDbEntity
  8
1
  6
Continuous
 62
     7
370
     9
100
AcDbVertex
100
AcDb2dVertex
 10
113.8318130895192
 20
121.7317654189413
 30
0.0
  0
VERTEX
  5
30A
330
279
100
AcDbEntity
  8
1
  6
Continuous
 62
     7
370
     9
100
AcDbVertex
100
AcDb2dVertex
 10
113.8572130895192
 20
121.7328654189413
 30
0.0
  0
VERTEX
  5
30B
330
279
100
AcDbEntity
  8
1
  6
Continuous
 62
     7
370
     9
100
AcDbVertex
100
AcDb2dVertex
 10
113.8826130895192
 20
121.7338654189413
 30
0.0
  0
VERTEX
  5
30C
330
279
100
AcDbEntity
  8
1
  6
Continuous
 62
     7
370
     9
100
AcDbVertex
100
AcDb2dVertex
 10
113.9080130895192
 20
121.7348654189413
 30
0.0
  0
VERTEX
  5
30D
330
279
100
AcDbEntity
  8
1
  6
Continuous
 62
     7
370
     9
100
AcDbVertex
100
AcDb2dVertex
 10
113.9334130895192
 20
121.7357654189413
 30
0.0
  0
VERTEX
  5
30E
330
279
100
AcDbEntity
  8
1
  6
Continuous
 62
     7
370
     9
100
AcDbVertex
100
AcDb2dVertex
 10
113.9588130895192
 20
121.7365654189413
 30
0.0
  0
VERTEX
  5
30F
330
279
100
AcDbEntity
  8
1
  6
Continuous
 62
     7
370
     9
100
AcDbVertex
100
AcDb2dVertex
 10
113.9843130895192
 20
121.7373654189413
 30
0.0
  0
VERTEX
  5
310
330
279
100
AcDbEntity
  8
1
  6
Continuous
 62
     7
370
     9
100
AcDbVertex
100
AcDb2dVertex
 10
114.0097130895192
 20
121.7379654189413
 30
0.0
  0
VERTEX
  5
311
330
279
100
AcDbEntity
  8
1
  6
Continuous
 62
     7
370
     9
100
AcDbVertex
100
AcDb2dVertex
 10
114.0351130895192
 20
121.7385654189413
 30
0.0
  0
VERTEX
  5
312
330
279
100
AcDbEntity
  8
1
  6
Continuous
 62
     7
370
     9
100
AcDbVertex
100
AcDb2dVertex
 10
114.0605130895192
 20
121.7391654189413
 30
0.0
  0
VERTEX
  5
313
330
279
100
AcDbEntity
  8
1
  6
Continuous
 62
     7
370
     9
100
AcDbVertex
100
AcDb2dVertex
 10
114.0859130895192
 20
121.7396654189413
 30
0.0
  0
VERTEX
  5
314
330
279
100
AcDbEntity
  8
1
  6
Continuous
 62
     7
370
     9
100
AcDbVertex
100
AcDb2dVertex
 10
114.1113130895192
 20
121.7400654189413
 30
0.0
  0
VERTEX
  5
315
330
279
100
AcDbEntity
  8
1
  6
Continuous
 62
     7
370
     9
100
AcDbVertex
100
AcDb2dVertex
 10
114.1368130895192
 20
121.7403654189413
 30
0.0
  0
VERTEX
  5
316
330
279
100
AcDbEntity
  8
1
  6
Continuous
 62
     7
370
     9
100
AcDbVertex
100
AcDb2dVertex
 10
114.1622130895192
 20
121.7406654189413
 30
0.0
  0
VERTEX
  5
317
330
279
100
AcDbEntity
  8
1
  6
Continuous
 62
     7
370
     9
100
AcDbVertex
100
AcDb2dVertex
 10
114.1876130895192
 20
121.7407654189413
 30
0.0
  0
VERTEX
  5
318
330
279
100
AcDbEntity
  8
1
  6
Continuous
 62
     7
370
     9
100
AcDbVertex
100
AcDb2dVertex
 10
114.2130130895192
 20
121.7408654189413
 30
0.0
  0
VERTEX
  5
319
330
279
100
AcDbEntity
  8
1
  6
Continuous
 62
     7
370
     9
100
AcDbVertex
100
AcDb2dVertex
 10
114.2384130895192
 20
121.7409654189413
 30
0.0
  0
SEQEND
  5
31A
330
279
100
AcDbEntity
  8
1
  6
Continuous
 62
     7
370
     9
  0
POLYLINE
  5
31B
330
1F
100
AcDbEntity
  8
1
  6
Continuous
 62
     7
370
     9
100
AcDb2dPolyline
 66
     1
 10
0.0
 20
0.0
 30
0.0
  0
VERTEX
  5
31C
330
31B
100
AcDbEntity
  8
1
  6
Continuous
 62
     7
370
     9
100
AcDbVertex
100
AcDb2dVertex
 10
120.3006130895192
 20
121.7409654189413
 30
0.0
  0
VERTEX
  5
31D
330
31B
100
AcDbEntity
  8
1
  6
Continuous
 62
     7
370
     9
100
AcDbVertex
100
AcDb2dVertex
 10
120.2847130895192
 20
121.7408654189413
 30
0.0
  0
VERTEX
  5
31E
330
31B
100
AcDbEntity
  8
1
  6
Continuous
 62
     7
370
     9
100
AcDbVertex
100
AcDb2dVertex
 10
120.2688130895192
 20
121.7407654189413
 30
0.0
  0
VERTEX
  5
31F
330
31B
100
AcDbEntity
  8
1
  6
Continuous
 62
     7
370
     9
100
AcDbVertex
100
AcDb2dVertex
 10
120.2529130895192
 20
121.7404654189413
 30
0.0
  0
VERTEX
  5
320
330
31B
100
AcDbEntity
  8
1
  6
Continuous
 62
     7
370
     9
100
AcDbVertex
100
AcDb2dVertex
 10
120.2370130895192
 20
121.7400654189413
 30
0.0
  0
VERTEX
  5
321
330
31B
100
AcDbEntity
  8
1
  6
Continuous
 62
     7
370
     9
100
AcDbVertex
100
AcDb2dVertex
 10
120.2211130895192
 20
121.7394654189413
 30
0.0
  0
VERTEX
  5
322
330
31B
100
AcDbEntity
  8
1
  6
Continuous
 62
     7
370
     9
100
AcDbVertex
100
AcDb2dVertex
 10
120.2051130895192
 20
121.7388654189413
 30
0.0
  0
VERTEX
  5
323
330
31B
100
AcDbEntity
  8
1
  6
Continuous
 62
     7
370
     9
100
AcDbVertex
100
AcDb2dVertex
 10
120.1892130895192
 20
121.7381654189413
 30
0.0
  0
VERTEX
  5
324
330
31B
100
AcDbEntity
  8
1
  6
Continuous
 62
     7
370
     9
100
AcDbVertex
100
AcDb2dVertex
 10
120.1733130895192
 20
121.7372654189413
 30
0.0
  0
VERTEX
  5
325
330
31B
100
AcDbEntity
  8
1
  6
Continuous
 62
     7
370
     9
100
AcDbVertex
100
AcDb2dVertex
 10
120.1574130895192
 20
121.7363654189413
 30
0.0
  0
VERTEX
  5
326
330
31B
100
AcDbEntity
  8
1
  6
Continuous
 62
     7
370
     9
100
AcDbVertex
100
AcDb2dVertex
 10
120.1415130895192
 20
121.7352654189413
 30
0.0
  0
VERTEX
  5
327
330
31B
100
AcDbEntity
  8
1
  6
Continuous
 62
     7
370
     9
100
AcDbVertex
100
AcDb2dVertex
 10
120.1256130895192
 20
121.7341654189413
 30
0.0
  0
VERTEX
  5
328
330
31B
100
AcDbEntity
  8
1
  6
Continuous
 62
     7
370
     9
100
AcDbVertex
100
AcDb2dVertex
 10
120.1097130895192
 20
121.7328654189413
 30
0.0
  0
VERTEX
  5
329
330
31B
100
AcDbEntity
  8
1
  6
Continuous
 62
     7
370
     9
100
AcDbVertex
100
AcDb2dVertex
 10
120.0938130895192
 20
121.7314654189413
 30
0.0
  0
VERTEX
  5
32A
330
31B
100
AcDbEntity
  8
1
  6
Continuous
 62
     7
370
     9
100
AcDbVertex
100
AcDb2dVertex
 10
120.0779130895192
 20
121.7299654189413
 30
0.0
  0
VERTEX
  5
32B
330
31B
100
AcDbEntity
  8
1
  6
Continuous
 62
     7
370
     9
100
AcDbVertex
100
AcDb2dVertex
 10
120.0619130895192
 20
121.7283654189413
 30
0.0
  0
VERTEX
  5
32C
330
31B
100
AcDbEntity
  8
1
  6
Continuous
 62
     7
370
     9
100
AcDbVertex
100
AcDb2dVertex
 10
120.0460130895192
 20
121.7266654189413
 30
0.0
  0
VERTEX
  5
32D
330
31B
100
AcDbEntity
  8
1
  6
Continuous
 62
     7
370
     9
100
AcDbVertex
100
AcDb2dVertex
 10
120.0301130895192
 20
121.7248654189413
 30
0.0
  0
VERTEX
  5
32E
330
31B
100
AcDbEntity
  8
1
  6
Continuous
 62
     7
370
     9
100
AcDbVertex
100
AcDb2dVertex
 10
120.0142130895192
 20
121.7229654189413
 30
0.0
  0
VERTEX
  5
32F
330
31B
100
AcDbEntity
  8
1
  6
Continuous
 62
     7
370
     9
100
AcDbVertex
100
AcDb2dVertex
 10
119.9983130895192
 20
121.7209654189413
 30
0.0
  0
VERTEX
  5
330
330
31B
100
AcDbEntity
  8
1
  6
Continuous
 62
     7
370
     9
100
AcDbVertex
100
AcDb2dVertex
 10
119.9824130895192
 20
121.7188654189413
 30
0.0
  0
VERTEX
  5
331
330
31B
100
AcDbEntity
  8
1
  6
Continuous
 62
     7
370
     9
100
AcDbVertex
100
AcDb2dVertex
 10
119.9665130895192
 20
121.7167654189413
 30
0.0
  0
VERTEX
  5
332
330
31B
100
AcDbEntity
  8
1
  6
Continuous
 62
     7
370
     9
100
AcDbVertex
100
AcDb2dVertex
 10
119.9506130895192
 20
121.7144654189413
 30
0.0
  0
VERTEX
  5
333
330
31B
100
AcDbEntity
  8
1
  6
Continuous
 62
     7
370
     9
100
AcDbVertex
100
AcDb2dVertex
 10
119.9347130895192
 20
121.7120654189413
 30
0.0
  0
VERTEX
  5
334
330
31B
100
AcDbEntity
  8
1
  6
Continuous
 62
     7
370
     9
100
AcDbVertex
100
AcDb2dVertex
 10
119.9187130895192
 20
121.7095654189413
 30
0.0
  0
VERTEX
  5
335
330
31B
100
AcDbEntity
  8
1
  6
Continuous
 62
     7
370
     9
100
AcDbVertex
100
AcDb2dVertex
 10
119.9028130895192
 20
121.7069654189413
 30
0.0
  0
VERTEX
  5
336
330
31B
100
AcDbEntity
  8
1
  6
Continuous
 62
     7
370
     9
100
AcDbVertex
100
AcDb2dVertex
 10
119.8869130895192
 20
121.7043654189413
 30
0.0
  0
VERTEX
  5
337
330
31B
100
AcDbEntity
  8
1
  6
Continuous
 62
     7
370
     9
100
AcDbVertex
100
AcDb2dVertex
 10
119.8710130895192
 20
121.7015654189413
 30
0.0
  0
VERTEX
  5
338
330
31B
100
AcDbEntity
  8
1
  6
Continuous
 62
     7
370
     9
100
AcDbVertex
100
AcDb2dVertex
 10
119.8551130895192
 20
121.6986654189413
 30
0.0
  0
VERTEX
  5
339
330
31B
100
AcDbEntity
  8
1
  6
Continuous
 62
     7
370
     9
100
AcDbVertex
100
AcDb2dVertex
 10
119.8392130895192
 20
121.6957654189413
 30
0.0
  0
VERTEX
  5
33A
330
31B
100
AcDbEntity
  8
1
  6
Continuous
 62
     7
370
     9
100
AcDbVertex
100
AcDb2dVertex
 10
119.8233130895192
 20
121.6927654189413
 30
0.0
  0
VERTEX
  5
33B
330
31B
100
AcDbEntity
  8
1
  6
Continuous
 62
     7
370
     9
100
AcDbVertex
100
AcDb2dVertex
 10
119.8074130895192
 20
121.6896654189413
 30
0.0
  0
VERTEX
  5
33C
330
31B
100
AcDbEntity
  8
1
  6
Continuous
 62
     7
370
     9
100
AcDbVertex
100
AcDb2dVertex
 10
119.7915130895192
 20
121.6863654189413
 30
0.0
  0
VERTEX
  5
33D
330
31B
100
AcDbEntity
  8
1
  6
Continuous
 62
     7
370
     9
100
AcDbVertex
100
AcDb2dVertex
 10
119.7755130895192
 20
121.6830654189413
 30
0.0
  0
VERTEX
  5
33E
330
31B
100
AcDbEntity
  8
1
  6
Continuous
 62
     7
370
     9
100
AcDbVertex
100
AcDb2dVertex
 10
119.7596130895192
 20
121.6797654189413
 30
0.0
  0
VERTEX
  5
33F
330
31B
100
AcDbEntity
  8
1
  6
Continuous
 62
     7
370
     9
100
AcDbVertex
100
AcDb2dVertex
 10
119.7437130895192
 20
121.6762654189413
 30
0.0
  0
VERTEX
  5
340
330
31B
100
AcDbEntity
  8
1
  6
Continuous
 62
     7
370
     9
100
AcDbVertex
100
AcDb2dVertex
 10
119.7278130895192
 20
121.6726654189413
 30
0.0
  0
VERTEX
  5
341
330
31B
100
AcDbEntity
  8
1
  6
Continuous
 62
     7
370
     9
100
AcDbVertex
100
AcDb2dVertex
 10
119.7119130895192
 20
121.6690654189413
 30
0.0
  0
VERTEX
  5
342
330
31B
100
AcDbEntity
  8
1
  6
Continuous
 62
     7
370
     9
100
AcDbVertex
100
AcDb2dVertex
 10
119.6960130895192
 20
121.6653654189413
 30
0.0
  0
VERTEX
  5
343
330
31B
100
AcDbEntity
  8
1
  6
Continuous
 62
     7
370
     9
100
AcDbVertex
100
AcDb2dVertex
 10
119.6801130895192
 20
121.6615654189413
 30
0.0
  0
VERTEX
  5
344
330
31B
100
AcDbEntity
  8
1
  6
Continuous
 62
     7
370
     9
100
AcDbVertex
100
AcDb2dVertex
 10
119.6642130895192
 20
121.6576654189413
 30
0.0
  0
VERTEX
  5
345
330
31B
100
AcDbEntity
  8
1
  6
Continuous
 62
     7
370
     9
100
AcDbVertex
100
AcDb2dVertex
 10
119.6483130895192
 20
121.6537654189413
 30
0.0
  0
VERTEX
  5
346
330
31B
100
AcDbEntity
  8
1
  6
Continuous
 62
     7
370
     9
100
AcDbVertex
100
AcDb2dVertex
 10
119.6323130895192
 20
121.6496654189413
 30
0.0
  0
VERTEX
  5
347
330
31B
100
AcDbEntity
  8
1
  6
Continuous
 62
     7
370
     9
100
AcDbVertex
100
AcDb2dVertex
 10
119.6164130895192
 20
121.6455654189413
 30
0.0
  0
VERTEX
  5
348
330
31B
100
AcDbEntity
  8
1
  6
Continuous
 62
     7
370
     9
100
AcDbVertex
100
AcDb2dVertex
 10
119.6005130895192
 20
121.6413654189413
 30
0.0
  0
VERTEX
  5
349
330
31B
100
AcDbEntity
  8
1
  6
Continuous
 62
     7
370
     9
100
AcDbVertex
100
AcDb2dVertex
 10
119.5846130895192
 20
121.6370654189413
 30
0.0
  0
VERTEX
  5
34A
330
31B
100
AcDbEntity
  8
1
  6
Continuous
 62
     7
370
     9
100
AcDbVertex
100
AcDb2dVertex
 10
119.5687130895192
 20
121.6327654189413
 30
0.0
  0
VERTEX
  5
34B
330
31B
100
AcDbEntity
  8
1
  6
Continuous
 62
     7
370
     9
100
AcDbVertex
100
AcDb2dVertex
 10
119.5528130895192
 20
121.6283654189413
 30
0.0
  0
VERTEX
  5
34C
330
31B
100
AcDbEntity
  8
1
  6
Continuous
 62
     7
370
     9
100
AcDbVertex
100
AcDb2dVertex
 10
119.5369130895192
 20
121.6238654189413
 30
0.0
  0
VERTEX
  5
34D
330
31B
100
AcDbEntity
  8
1
  6
Continuous
 62
     7
370
     9
100
AcDbVertex
100
AcDb2dVertex
 10
119.5210130895192
 20
121.6192654189413
 30
0.0
  0
VERTEX
  5
34E
330
31B
100
AcDbEntity
  8
1
  6
Continuous
 62
     7
370
     9
100
AcDbVertex
100
AcDb2dVertex
 10
119.5051130895192
 20
121.6146654189413
 30
0.0
  0
VERTEX
  5
34F
330
31B
100
AcDbEntity
  8
1
  6
Continuous
 62
     7
370
     9
100
AcDbVertex
100
AcDb2dVertex
 10
119.4891130895192
 20
121.6099654189413
 30
0.0
  0
VERTEX
  5
350
330
31B
100
AcDbEntity
  8
1
  6
Continuous
 62
     7
370
     9
100
AcDbVertex
100
AcDb2dVertex
 10
119.4732130895192
 20
121.6051654189413
 30
0.0
  0
VERTEX
  5
351
330
31B
100
AcDbEntity
  8
1
  6
Continuous
 62
     7
370
     9
100
AcDbVertex
100
AcDb2dVertex
 10
119.4573130895192
 20
121.6003654189413
 30
0.0
  0
VERTEX
  5
352
330
31B
100
AcDbEntity
  8
1
  6
Continuous
 62
     7
370
     9
100
AcDbVertex
100
AcDb2dVertex
 10
119.4414130895192
 20
121.5954654189413
 30
0.0
  0
VERTEX
  5
353
330
31B
100
AcDbEntity
  8
1
  6
Continuous
 62
     7
370
     9
100
AcDbVertex
100
AcDb2dVertex
 10
119.4255130895192
 20
121.5904654189413
 30
0.0
  0
VERTEX
  5
354
330
31B
100
AcDbEntity
  8
1
  6
Continuous
 62
     7
370
     9
100
AcDbVertex
100
AcDb2dVertex
 10
119.4096130895192
 20
121.5853654189413
 30
0.0
  0
VERTEX
  5
355
330
31B
100
AcDbEntity
  8
1
  6
Continuous
 62
     7
370
     9
100
AcDbVertex
100
AcDb2dVertex
 10
119.3937130895192
 20
121.5802654189413
 30
0.0
  0
VERTEX
  5
356
330
31B
100
AcDbEntity
  8
1
  6
Continuous
 62
     7
370
     9
100
AcDbVertex
100
AcDb2dVertex
 10
119.3778130895192
 20
121.5751654189413
 30
0.0
  0
VERTEX
  5
357
330
31B
100
AcDbEntity
  8
1
  6
Continuous
 62
     7
370
     9
100
AcDbVertex
100
AcDb2dVertex
 10
119.3619130895192
 20
121.5698654189413
 30
0.0
  0
VERTEX
  5
358
330
31B
100
AcDbEntity
  8
1
  6
Continuous
 62
     7
370
     9
100
AcDbVertex
100
AcDb2dVertex
 10
119.3459130895192
 20
121.5645654189413
 30
0.0
  0
VERTEX
  5
359
330
31B
100
AcDbEntity
  8
1
  6
Continuous
 62
     7
370
     9
100
AcDbVertex
100
AcDb2dVertex
 10
119.3300130895192
 20
121.5592654189413
 30
0.0
  0
VERTEX
  5
35A
330
31B
100
AcDbEntity
  8
1
  6
Continuous
 62
     7
370
     9
100
AcDbVertex
100
AcDb2dVertex
 10
119.3141130895192
 20
121.5537654189413
 30
0.0
  0
VERTEX
  5
35B
330
31B
100
AcDbEntity
  8
1
  6
Continuous
 62
     7
370
     9
100
AcDbVertex
100
AcDb2dVertex
 10
119.2982130895192
 20
121.5483654189413
 30
0.0
  0
VERTEX
  5
35C
330
31B
100
AcDbEntity
  8
1
  6
Continuous
 62
     7
370
     9
100
AcDbVertex
100
AcDb2dVertex
 10
119.2823130895192
 20
121.5427654189413
 30
0.0
  0
VERTEX
  5
35D
330
31B
100
AcDbEntity
  8
1
  6
Continuous
 62
     7
370
     9
100
AcDbVertex
100
AcDb2dVertex
 10
119.2664130895192
 20
121.5371654189413
 30
0.0
  0
VERTEX
  5
35E
330
31B
100
AcDbEntity
  8
1
  6
Continuous
 62
     7
370
     9
100
AcDbVertex
100
AcDb2dVertex
 10
119.2505130895192
 20
121.5315654189413
 30
0.0
  0
VERTEX
  5
35F
330
31B
100
AcDbEntity
  8
1
  6
Continuous
 62
     7
370
     9
100
AcDbVertex
100
AcDb2dVertex
 10
119.2346130895192
 20
121.5258654189413
 30
0.0
  0
VERTEX
  5
360
330
31B
100
AcDbEntity
  8
1
  6
Continuous
 62
     7
370
     9
100
AcDbVertex
100
AcDb2dVertex
 10
119.2187130895192
 20
121.5200654189413
 30
0.0
  0
VERTEX
  5
361
330
31B
100
AcDbEntity
  8
1
  6
Continuous
 62
     7
370
     9
100
AcDbVertex
100
AcDb2dVertex
 10
119.2027130895192
 20
121.5142654189413
 30
0.0
  0
VERTEX
  5
362
330
31B
100
AcDbEntity
  8
1
  6
Continuous
 62
     7
370
     9
100
AcDbVertex
100
AcDb2dVertex
 10
119.1868130895192
 20
121.5083654189413
 30
0.0
  0
VERTEX
  5
363
330
31B
100
AcDbEntity
  8
1
  6
Continuous
 62
     7
370
     9
100
AcDbVertex
100
AcDb2dVertex
 10
119.1709130895192
 20
121.5024654189413
 30
0.0
  0
VERTEX
  5
364
330
31B
100
AcDbEntity
  8
1
  6
Continuous
 62
     7
370
     9
100
AcDbVertex
100
AcDb2dVertex
 10
119.1550130895192
 20
121.4964654189413
 30
0.0
  0
VERTEX
  5
365
330
31B
100
AcDbEntity
  8
1
  6
Continuous
 62
     7
370
     9
100
AcDbVertex
100
AcDb2dVertex
 10
119.1391130895192
 20
121.4904654189413
 30
0.0
  0
VERTEX
  5
366
330
31B
100
AcDbEntity
  8
1
  6
Continuous
 62
     7
370
     9
100
AcDbVertex
100
AcDb2dVertex
 10
119.1232130895192
 20
121.4843654189413
 30
0.0
  0
VERTEX
  5
367
330
31B
100
AcDbEntity
  8
1
  6
Continuous
 62
     7
370
     9
100
AcDbVertex
100
AcDb2dVertex
 10
119.1073130895192
 20
121.4782654189413
 30
0.0
  0
VERTEX
  5
368
330
31B
100
AcDbEntity
  8
1
  6
Continuous
 62
     7
370
     9
100
AcDbVertex
100
AcDb2dVertex
 10
119.0914130895192
 20
121.4720654189413
 30
0.0
  0
VERTEX
  5
369
330
31B
100
AcDbEntity
  8
1
  6
Continuous
 62
     7
370
     9
100
AcDbVertex
100
AcDb2dVertex
 10
119.0755130895192
 20
121.4658654189413
 30
0.0
  0
VERTEX
  5
36A
330
31B
100
AcDbEntity
  8
1
  6
Continuous
 62
     7
370
     9
100
AcDbVertex
100
AcDb2dVertex
 10
119.0595130895192
 20
121.4596654189413
 30
0.0
  0
VERTEX
  5
36B
330
31B
100
AcDbEntity
  8
1
  6
Continuous
 62
     7
370
     9
100
AcDbVertex
100
AcDb2dVertex
 10
119.0436130895192
 20
121.4532654189413
 30
0.0
  0
VERTEX
  5
36C
330
31B
100
AcDbEntity
  8
1
  6
Continuous
 62
     7
370
     9
100
AcDbVertex
100
AcDb2dVertex
 10
119.0277130895192
 20
121.4469654189413
 30
0.0
  0
VERTEX
  5
36D
330
31B
100
AcDbEntity
  8
1
  6
Continuous
 62
     7
370
     9
100
AcDbVertex
100
AcDb2dVertex
 10
119.0118130895192
 20
121.4405654189413
 30
0.0
  0
VERTEX
  5
36E
330
31B
100
AcDbEntity
  8
1
  6
Continuous
 62
     7
370
     9
100
AcDbVertex
100
AcDb2dVertex
 10
118.9959130895192
 20
121.4341654189413
 30
0.0
  0
VERTEX
  5
36F
330
31B
100
AcDbEntity
  8
1
  6
Continuous
 62
     7
370
     9
100
AcDbVertex
100
AcDb2dVertex
 10
118.9800130895192
 20
121.4276654189413
 30
0.0
  0
VERTEX
  5
370
330
31B
100
AcDbEntity
  8
1
  6
Continuous
 62
     7
370
     9
100
AcDbVertex
100
AcDb2dVertex
 10
118.9641130895192
 20
121.4211654189413
 30
0.0
  0
VERTEX
  5
371
330
31B
100
AcDbEntity
  8
1
  6
Continuous
 62
     7
370
     9
100
AcDbVertex
100
AcDb2dVertex
 10
118.9482130895192
 20
121.4145654189413
 30
0.0
  0
VERTEX
  5
372
330
31B
100
AcDbEntity
  8
1
  6
Continuous
 62
     7
370
     9
100
AcDbVertex
100
AcDb2dVertex
 10
118.9322130895192
 20
121.4079654189413
 30
0.0
  0
VERTEX
  5
373
330
31B
100
AcDbEntity
  8
1
  6
Continuous
 62
     7
370
     9
100
AcDbVertex
100
AcDb2dVertex
 10
118.9163130895192
 20
121.4013654189413
 30
0.0
  0
VERTEX
  5
374
330
31B
100
AcDbEntity
  8
1
  6
Continuous
 62
     7
370
     9
100
AcDbVertex
100
AcDb2dVertex
 10
118.9004130895192
 20
121.3946654189413
 30
0.0
  0
VERTEX
  5
375
330
31B
100
AcDbEntity
  8
1
  6
Continuous
 62
     7
370
     9
100
AcDbVertex
100
AcDb2dVertex
 10
118.8845130895192
 20
121.3879654189413
 30
0.0
  0
VERTEX
  5
376
330
31B
100
AcDbEntity
  8
1
  6
Continuous
 62
     7
370
     9
100
AcDbVertex
100
AcDb2dVertex
 10
118.8686130895192
 20
121.3812654189413
 30
0.0
  0
VERTEX
  5
377
330
31B
100
AcDbEntity
  8
1
  6
Continuous
 62
     7
370
     9
100
AcDbVertex
100
AcDb2dVertex
 10
118.8527130895192
 20
121.3744654189413
 30
0.0
  0
VERTEX
  5
378
330
31B
100
AcDbEntity
  8
1
  6
Continuous
 62
     7
370
     9
100
AcDbVertex
100
AcDb2dVertex
 10
118.8368130895192
 20
121.3676654189413
 30
0.0
  0
VERTEX
  5
379
330
31B
100
AcDbEntity
  8
1
  6
Continuous
 62
     7
370
     9
100
AcDbVertex
100
AcDb2dVertex
 10
118.8209130895192
 20
121.3607654189413
 30
0.0
  0
VERTEX
  5
37A
330
31B
100
AcDbEntity
  8
1
  6
Continuous
 62
     7
370
     9
100
AcDbVertex
100
AcDb2dVertex
 10
118.8050130895192
 20
121.3539654189413
 30
0.0
  0
VERTEX
  5
37B
330
31B
100
AcDbEntity
  8
1
  6
Continuous
 62
     7
370
     9
100
AcDbVertex
100
AcDb2dVertex
 10
118.7890130895192
 20
121.3470654189413
 30
0.0
  0
VERTEX
  5
37C
330
31B
100
AcDbEntity
  8
1
  6
Continuous
 62
     7
370
     9
100
AcDbVertex
100
AcDb2dVertex
 10
118.7731130895192
 20
121.3400654189413
 30
0.0
  0
VERTEX
  5
37D
330
31B
100
AcDbEntity
  8
1
  6
Continuous
 62
     7
370
     9
100
AcDbVertex
100
AcDb2dVertex
 10
118.7572130895192
 20
121.3331654189413
 30
0.0
  0
VERTEX
  5
37E
330
31B
100
AcDbEntity
  8
1
  6
Continuous
 62
     7
370
     9
100
AcDbVertex
100
AcDb2dVertex
 10
118.7413130895192
 20
121.3261654189413
 30
0.0
  0
VERTEX
  5
37F
330
31B
100
AcDbEntity
  8
1
  6
Continuous
 62
     7
370
     9
100
AcDbVertex
100
AcDb2dVertex
 10
118.7254130895192
 20
121.3191654189413
 30
0.0
  0
VERTEX
  5
380
330
31B
100
AcDbEntity
  8
1
  6
Continuous
 62
     7
370
     9
100
AcDbVertex
100
AcDb2dVertex
 10
118.7095130895192
 20
121.3120654189413
 30
0.0
  0
VERTEX
  5
381
330
31B
100
AcDbEntity
  8
1
  6
Continuous
 62
     7
370
     9
100
AcDbVertex
100
AcDb2dVertex
 10
118.6936130895192
 20
121.3050654189413
 30
0.0
  0
VERTEX
  5
382
330
31B
100
AcDbEntity
  8
1
  6
Continuous
 62
     7
370
     9
100
AcDbVertex
100
AcDb2dVertex
 10
118.6777130895192
 20
121.2979654189413
 30
0.0
  0
VERTEX
  5
383
330
31B
100
AcDbEntity
  8
1
  6
Continuous
 62
     7
370
     9
100
AcDbVertex
100
AcDb2dVertex
 10
118.6618130895192
 20
121.2908654189413
 30
0.0
  0
VERTEX
  5
384
330
31B
100
AcDbEntity
  8
1
  6
Continuous
 62
     7
370
     9
100
AcDbVertex
100
AcDb2dVertex
 10
118.6458130895192
 20
121.2837654189413
 30
0.0
  0
VERTEX
  5
385
330
31B
100
AcDbEntity
  8
1
  6
Continuous
 62
     7
370
     9
100
AcDbVertex
100
AcDb2dVertex
 10
118.6299130895192
 20
121.2765654189413
 30
0.0
  0
VERTEX
  5
386
330
31B
100
AcDbEntity
  8
1
  6
Continuous
 62
     7
370
     9
100
AcDbVertex
100
AcDb2dVertex
 10
118.6140130895192
 20
121.2693654189413
 30
0.0
  0
VERTEX
  5
387
330
31B
100
AcDbEntity
  8
1
  6
Continuous
 62
     7
370
     9
100
AcDbVertex
100
AcDb2dVertex
 10
118.5981130895192
 20
121.2621654189413
 30
0.0
  0
VERTEX
  5
388
330
31B
100
AcDbEntity
  8
1
  6
Continuous
 62
     7
370
     9
100
AcDbVertex
100
AcDb2dVertex
 10
118.5822130895192
 20
121.2549654189413
 30
0.0
  0
VERTEX
  5
389
330
31B
100
AcDbEntity
  8
1
  6
Continuous
 62
     7
370
     9
100
AcDbVertex
100
AcDb2dVertex
 10
118.5663130895192
 20
121.2477654189413
 30
0.0
  0
VERTEX
  5
38A
330
31B
100
AcDbEntity
  8
1
  6
Continuous
 62
     7
370
     9
100
AcDbVertex
100
AcDb2dVertex
 10
118.5504130895192
 20
121.2405654189413
 30
0.0
  0
VERTEX
  5
38B
330
31B
100
AcDbEntity
  8
1
  6
Continuous
 62
     7
370
     9
100
AcDbVertex
100
AcDb2dVertex
 10
118.5345130895192
 20
121.2332654189413
 30
0.0
  0
VERTEX
  5
38C
330
31B
100
AcDbEntity
  8
1
  6
Continuous
 62
     7
370
     9
100
AcDbVertex
100
AcDb2dVertex
 10
118.5186130895192
 20
121.2259654189413
 30
0.0
  0
VERTEX
  5
38D
330
31B
100
AcDbEntity
  8
1
  6
Continuous
 62
     7
370
     9
100
AcDbVertex
100
AcDb2dVertex
 10
118.5026130895192
 20
121.2186654189413
 30
0.0
  0
VERTEX
  5
38E
330
31B
100
AcDbEntity
  8
1
  6
Continuous
 62
     7
370
     9
100
AcDbVertex
100
AcDb2dVertex
 10
118.4867130895192
 20
121.2113654189413
 30
0.0
  0
VERTEX
  5
38F
330
31B
100
AcDbEntity
  8
1
  6
Continuous
 62
     7
370
     9
100
AcDbVertex
100
AcDb2dVertex
 10
118.4708130895192
 20
121.2040654189413
 30
0.0
  0
VERTEX
  5
390
330
31B
100
AcDbEntity
  8
1
  6
Continuous
 62
     7
370
     9
100
AcDbVertex
100
AcDb2dVertex
 10
118.4549130895192
 20
121.1967654189413
 30
0.0
  0
VERTEX
  5
391
330
31B
100
AcDbEntity
  8
1
  6
Continuous
 62
     7
370
     9
100
AcDbVertex
100
AcDb2dVertex
 10
118.4390130895192
 20
121.1894654189413
 30
0.0
  0
VERTEX
  5
392
330
31B
100
AcDbEntity
  8
1
  6
Continuous
 62
     7
370
     9
100
AcDbVertex
100
AcDb2dVertex
 10
118.4231130895192
 20
121.1820654189413
 30
0.0
  0
VERTEX
  5
393
330
31B
100
AcDbEntity
  8
1
  6
Continuous
 62
     7
370
     9
100
AcDbVertex
100
AcDb2dVertex
 10
118.4072130895192
 20
121.1747654189413
 30
0.0
  0
VERTEX
  5
394
330
31B
100
AcDbEntity
  8
1
  6
Continuous
 62
     7
370
     9
100
AcDbVertex
100
AcDb2dVertex
 10
118.3913130895192
 20
121.1673654189413
 30
0.0
  0
VERTEX
  5
395
330
31B
100
AcDbEntity
  8
1
  6
Continuous
 62
     7
370
     9
100
AcDbVertex
100
AcDb2dVertex
 10
118.3754130895192
 20
121.1599654189413
 30
0.0
  0
VERTEX
  5
396
330
31B
100
AcDbEntity
  8
1
  6
Continuous
 62
     7
370
     9
100
AcDbVertex
100
AcDb2dVertex
 10
118.3594130895192
 20
121.1526654189413
 30
0.0
  0
VERTEX
  5
397
330
31B
100
AcDbEntity
  8
1
  6
Continuous
 62
     7
370
     9
100
AcDbVertex
100
AcDb2dVertex
 10
118.3435130895192
 20
121.1452654189413
 30
0.0
  0
VERTEX
  5
398
330
31B
100
AcDbEntity
  8
1
  6
Continuous
 62
     7
370
     9
100
AcDbVertex
100
AcDb2dVertex
 10
118.3276130895192
 20
121.1378654189413
 30
0.0
  0
VERTEX
  5
399
330
31B
100
AcDbEntity
  8
1
  6
Continuous
 62
     7
370
     9
100
AcDbVertex
100
AcDb2dVertex
 10
118.3117130895192
 20
121.1304654189413
 30
0.0
  0
VERTEX
  5
39A
330
31B
100
AcDbEntity
  8
1
  6
Continuous
 62
     7
370
     9
100
AcDbVertex
100
AcDb2dVertex
 10
118.2958130895192
 20
121.1231654189413
 30
0.0
  0
VERTEX
  5
39B
330
31B
100
AcDbEntity
  8
1
  6
Continuous
 62
     7
370
     9
100
AcDbVertex
100
AcDb2dVertex
 10
118.2799130895192
 20
121.1157654189413
 30
0.0
  0
SEQEND
  5
39C
330
31B
100
AcDbEntity
  8
1
  6
Continuous
 62
     7
370
     9
  0
POLYLINE
  5
39D
330
1F
100
AcDbEntity
  8
1
  6
Continuous
 62
     7
370
     9
100
AcDb2dPolyline
 66
     1
 10
0.0
 20
0.0
 30
0.0
  0
VERTEX
  5
39E
330
39D
100
AcDbEntity
  8
1
  6
Continuous
 62
     7
370
     9
100
AcDbVertex
100
AcDb2dVertex
 10
120.3006130895192
 20
114.7409654189413
 30
0.0
  0
VERTEX
  5
39F
330
39D
100
AcDbEntity
  8
1
  6
Continuous
 62
     7
370
     9
100
AcDbVertex
100
AcDb2dVertex
 10
120.2847130895192
 20
114.7409654189413
 30
0.0
  0
VERTEX
  5
3A0
330
39D
100
AcDbEntity
  8
1
  6
Continuous
 62
     7
370
     9
100
AcDbVertex
100
AcDb2dVertex
 10
120.2688130895192
 20
114.7411654189413
 30
0.0
  0
VERTEX
  5
3A1
330
39D
100
AcDbEntity
  8
1
  6
Continuous
 62
     7
370
     9
100
AcDbVertex
100
AcDb2dVertex
 10
120.2529130895192
 20
114.7414654189413
 30
0.0
  0
VERTEX
  5
3A2
330
39D
100
AcDbEntity
  8
1
  6
Continuous
 62
     7
370
     9
100
AcDbVertex
100
AcDb2dVertex
 10
120.2370130895192
 20
114.7418654189413
 30
0.0
  0
VERTEX
  5
3A3
330
39D
100
AcDbEntity
  8
1
  6
Continuous
 62
     7
370
     9
100
AcDbVertex
100
AcDb2dVertex
 10
120.2211130895192
 20
114.7423654189413
 30
0.0
  0
VERTEX
  5
3A4
330
39D
100
AcDbEntity
  8
1
  6
Continuous
 62
     7
370
     9
100
AcDbVertex
100
AcDb2dVertex
 10
120.2051130895192
 20
114.7429654189413
 30
0.0
  0
VERTEX
  5
3A5
330
39D
100
AcDbEntity
  8
1
  6
Continuous
 62
     7
370
     9
100
AcDbVertex
100
AcDb2dVertex
 10
120.1892130895192
 20
114.7437654189413
 30
0.0
  0
VERTEX
  5
3A6
330
39D
100
AcDbEntity
  8
1
  6
Continuous
 62
     7
370
     9
100
AcDbVertex
100
AcDb2dVertex
 10
120.1733130895192
 20
114.7445654189413
 30
0.0
  0
VERTEX
  5
3A7
330
39D
100
AcDbEntity
  8
1
  6
Continuous
 62
     7
370
     9
100
AcDbVertex
100
AcDb2dVertex
 10
120.1574130895192
 20
114.7455654189413
 30
0.0
  0
VERTEX
  5
3A8
330
39D
100
AcDbEntity
  8
1
  6
Continuous
 62
     7
370
     9
100
AcDbVertex
100
AcDb2dVertex
 10
120.1415130895192
 20
114.7465654189413
 30
0.0
  0
VERTEX
  5
3A9
330
39D
100
AcDbEntity
  8
1
  6
Continuous
 62
     7
370
     9
100
AcDbVertex
100
AcDb2dVertex
 10
120.1256130895192
 20
114.7477654189413
 30
0.0
  0
VERTEX
  5
3AA
330
39D
100
AcDbEntity
  8
1
  6
Continuous
 62
     7
370
     9
100
AcDbVertex
100
AcDb2dVertex
 10
120.1097130895192
 20
114.7490654189413
 30
0.0
  0
VERTEX
  5
3AB
330
39D
100
AcDbEntity
  8
1
  6
Continuous
 62
     7
370
     9
100
AcDbVertex
100
AcDb2dVertex
 10
120.0938130895192
 20
114.7504654189413
 30
0.0
  0
VERTEX
  5
3AC
330
39D
100
AcDbEntity
  8
1
  6
Continuous
 62
     7
370
     9
100
AcDbVertex
100
AcDb2dVertex
 10
120.0779130895192
 20
114.7519654189413
 30
0.0
  0
VERTEX
  5
3AD
330
39D
100
AcDbEntity
  8
1
  6
Continuous
 62
     7
370
     9
100
AcDbVertex
100
AcDb2dVertex
 10
120.0619130895192
 20
114.7535654189413
 30
0.0
  0
VERTEX
  5
3AE
330
39D
100
AcDbEntity
  8
1
  6
Continuous
 62
     7
370
     9
100
AcDbVertex
100
AcDb2dVertex
 10
120.0460130895192
 20
114.7551654189413
 30
0.0
  0
VERTEX
  5
3AF
330
39D
100
AcDbEntity
  8
1
  6
Continuous
 62
     7
370
     9
100
AcDbVertex
100
AcDb2dVertex
 10
120.0301130895192
 20
114.7569654189413
 30
0.0
  0
VERTEX
  5
3B0
330
39D
100
AcDbEntity
  8
1
  6
Continuous
 62
     7
370
     9
100
AcDbVertex
100
AcDb2dVertex
 10
120.0142130895192
 20
114.7588654189413
 30
0.0
  0
VERTEX
  5
3B1
330
39D
100
AcDbEntity
  8
1
  6
Continuous
 62
     7
370
     9
100
AcDbVertex
100
AcDb2dVertex
 10
119.9983130895192
 20
114.7608654189413
 30
0.0
  0
VERTEX
  5
3B2
330
39D
100
AcDbEntity
  8
1
  6
Continuous
 62
     7
370
     9
100
AcDbVertex
100
AcDb2dVertex
 10
119.9824130895192
 20
114.7629654189413
 30
0.0
  0
VERTEX
  5
3B3
330
39D
100
AcDbEntity
  8
1
  6
Continuous
 62
     7
370
     9
100
AcDbVertex
100
AcDb2dVertex
 10
119.9665130895192
 20
114.7651654189413
 30
0.0
  0
VERTEX
  5
3B4
330
39D
100
AcDbEntity
  8
1
  6
Continuous
 62
     7
370
     9
100
AcDbVertex
100
AcDb2dVertex
 10
119.9506130895192
 20
114.7674654189413
 30
0.0
  0
VERTEX
  5
3B5
330
39D
100
AcDbEntity
  8
1
  6
Continuous
 62
     7
370
     9
100
AcDbVertex
100
AcDb2dVertex
 10
119.9347130895192
 20
114.7698654189413
 30
0.0
  0
VERTEX
  5
3B6
330
39D
100
AcDbEntity
  8
1
  6
Continuous
 62
     7
370
     9
100
AcDbVertex
100
AcDb2dVertex
 10
119.9187130895192
 20
114.7723654189413
 30
0.0
  0
VERTEX
  5
3B7
330
39D
100
AcDbEntity
  8
1
  6
Continuous
 62
     7
370
     9
100
AcDbVertex
100
AcDb2dVertex
 10
119.9028130895192
 20
114.7748654189413
 30
0.0
  0
VERTEX
  5
3B8
330
39D
100
AcDbEntity
  8
1
  6
Continuous
 62
     7
370
     9
100
AcDbVertex
100
AcDb2dVertex
 10
119.8869130895192
 20
114.7775654189413
 30
0.0
  0
VERTEX
  5
3B9
330
39D
100
AcDbEntity
  8
1
  6
Continuous
 62
     7
370
     9
100
AcDbVertex
100
AcDb2dVertex
 10
119.8710130895192
 20
114.7803654189413
 30
0.0
  0
VERTEX
  5
3BA
330
39D
100
AcDbEntity
  8
1
  6
Continuous
 62
     7
370
     9
100
AcDbVertex
100
AcDb2dVertex
 10
119.8551130895192
 20
114.7831654189413
 30
0.0
  0
VERTEX
  5
3BB
330
39D
100
AcDbEntity
  8
1
  6
Continuous
 62
     7
370
     9
100
AcDbVertex
100
AcDb2dVertex
 10
119.8392130895192
 20
114.7861654189413
 30
0.0
  0
VERTEX
  5
3BC
330
39D
100
AcDbEntity
  8
1
  6
Continuous
 62
     7
370
     9
100
AcDbVertex
100
AcDb2dVertex
 10
119.8233130895192
 20
114.7891654189413
 30
0.0
  0
VERTEX
  5
3BD
330
39D
100
AcDbEntity
  8
1
  6
Continuous
 62
     7
370
     9
100
AcDbVertex
100
AcDb2dVertex
 10
119.8074130895192
 20
114.7922654189413
 30
0.0
  0
VERTEX
  5
3BE
330
39D
100
AcDbEntity
  8
1
  6
Continuous
 62
     7
370
     9
100
AcDbVertex
100
AcDb2dVertex
 10
119.7915130895192
 20
114.7954654189413
 30
0.0
  0
VERTEX
  5
3BF
330
39D
100
AcDbEntity
  8
1
  6
Continuous
 62
     7
370
     9
100
AcDbVertex
100
AcDb2dVertex
 10
119.7755130895192
 20
114.7987654189413
 30
0.0
  0
VERTEX
  5
3C0
330
39D
100
AcDbEntity
  8
1
  6
Continuous
 62
     7
370
     9
100
AcDbVertex
100
AcDb2dVertex
 10
119.7596130895192
 20
114.8021654189413
 30
0.0
  0
VERTEX
  5
3C1
330
39D
100
AcDbEntity
  8
1
  6
Continuous
 62
     7
370
     9
100
AcDbVertex
100
AcDb2dVertex
 10
119.7437130895192
 20
114.8056654189413
 30
0.0
  0
VERTEX
  5
3C2
330
39D
100
AcDbEntity
  8
1
  6
Continuous
 62
     7
370
     9
100
AcDbVertex
100
AcDb2dVertex
 10
119.7278130895192
 20
114.8091654189413
 30
0.0
  0
VERTEX
  5
3C3
330
39D
100
AcDbEntity
  8
1
  6
Continuous
 62
     7
370
     9
100
AcDbVertex
100
AcDb2dVertex
 10
119.7119130895192
 20
114.8128654189413
 30
0.0
  0
VERTEX
  5
3C4
330
39D
100
AcDbEntity
  8
1
  6
Continuous
 62
     7
370
     9
100
AcDbVertex
100
AcDb2dVertex
 10
119.6960130895192
 20
114.8165654189413
 30
0.0
  0
VERTEX
  5
3C5
330
39D
100
AcDbEntity
  8
1
  6
Continuous
 62
     7
370
     9
100
AcDbVertex
100
AcDb2dVertex
 10
119.6801130895192
 20
114.8203654189413
 30
0.0
  0
VERTEX
  5
3C6
330
39D
100
AcDbEntity
  8
1
  6
Continuous
 62
     7
370
     9
100
AcDbVertex
100
AcDb2dVertex
 10
119.6642130895192
 20
114.8241654189413
 30
0.0
  0
VERTEX
  5
3C7
330
39D
100
AcDbEntity
  8
1
  6
Continuous
 62
     7
370
     9
100
AcDbVertex
100
AcDb2dVertex
 10
119.6483130895192
 20
114.8281654189413
 30
0.0
  0
VERTEX
  5
3C8
330
39D
100
AcDbEntity
  8
1
  6
Continuous
 62
     7
370
     9
100
AcDbVertex
100
AcDb2dVertex
 10
119.6323130895192
 20
114.8321654189413
 30
0.0
  0
VERTEX
  5
3C9
330
39D
100
AcDbEntity
  8
1
  6
Continuous
 62
     7
370
     9
100
AcDbVertex
100
AcDb2dVertex
 10
119.6164130895192
 20
114.8363654189413
 30
0.0
  0
VERTEX
  5
3CA
330
39D
100
AcDbEntity
  8
1
  6
Continuous
 62
     7
370
     9
100
AcDbVertex
100
AcDb2dVertex
 10
119.6005130895192
 20
114.8405654189413
 30
0.0
  0
VERTEX
  5
3CB
330
39D
100
AcDbEntity
  8
1
  6
Continuous
 62
     7
370
     9
100
AcDbVertex
100
AcDb2dVertex
 10
119.5846130895192
 20
114.8447654189413
 30
0.0
  0
VERTEX
  5
3CC
330
39D
100
AcDbEntity
  8
1
  6
Continuous
 62
     7
370
     9
100
AcDbVertex
100
AcDb2dVertex
 10
119.5687130895192
 20
114.8491654189413
 30
0.0
  0
VERTEX
  5
3CD
330
39D
100
AcDbEntity
  8
1
  6
Continuous
 62
     7
370
     9
100
AcDbVertex
100
AcDb2dVertex
 10
119.5528130895192
 20
114.8535654189413
 30
0.0
  0
VERTEX
  5
3CE
330
39D
100
AcDbEntity
  8
1
  6
Continuous
 62
     7
370
     9
100
AcDbVertex
100
AcDb2dVertex
 10
119.5369130895192
 20
114.8580654189413
 30
0.0
  0
VERTEX
  5
3CF
330
39D
100
AcDbEntity
  8
1
  6
Continuous
 62
     7
370
     9
100
AcDbVertex
100
AcDb2dVertex
 10
119.5210130895192
 20
114.8625654189413
 30
0.0
  0
VERTEX
  5
3D0
330
39D
100
AcDbEntity
  8
1
  6
Continuous
 62
     7
370
     9
100
AcDbVertex
100
AcDb2dVertex
 10
119.5051130895192
 20
114.8672654189413
 30
0.0
  0
VERTEX
  5
3D1
330
39D
100
AcDbEntity
  8
1
  6
Continuous
 62
     7
370
     9
100
AcDbVertex
100
AcDb2dVertex
 10
119.4891130895192
 20
114.8719654189413
 30
0.0
  0
VERTEX
  5
3D2
330
39D
100
AcDbEntity
  8
1
  6
Continuous
 62
     7
370
     9
100
AcDbVertex
100
AcDb2dVertex
 10
119.4732130895192
 20
114.8767654189413
 30
0.0
  0
VERTEX
  5
3D3
330
39D
100
AcDbEntity
  8
1
  6
Continuous
 62
     7
370
     9
100
AcDbVertex
100
AcDb2dVertex
 10
119.4573130895192
 20
114.8815654189413
 30
0.0
  0
VERTEX
  5
3D4
330
39D
100
AcDbEntity
  8
1
  6
Continuous
 62
     7
370
     9
100
AcDbVertex
100
AcDb2dVertex
 10
119.4414130895192
 20
114.8864654189413
 30
0.0
  0
VERTEX
  5
3D5
330
39D
100
AcDbEntity
  8
1
  6
Continuous
 62
     7
370
     9
100
AcDbVertex
100
AcDb2dVertex
 10
119.4255130895192
 20
114.8914654189413
 30
0.0
  0
VERTEX
  5
3D6
330
39D
100
AcDbEntity
  8
1
  6
Continuous
 62
     7
370
     9
100
AcDbVertex
100
AcDb2dVertex
 10
119.4096130895192
 20
114.8964654189413
 30
0.0
  0
VERTEX
  5
3D7
330
39D
100
AcDbEntity
  8
1
  6
Continuous
 62
     7
370
     9
100
AcDbVertex
100
AcDb2dVertex
 10
119.3937130895192
 20
114.9015654189413
 30
0.0
  0
VERTEX
  5
3D8
330
39D
100
AcDbEntity
  8
1
  6
Continuous
 62
     7
370
     9
100
AcDbVertex
100
AcDb2dVertex
 10
119.3778130895192
 20
114.9067654189413
 30
0.0
  0
VERTEX
  5
3D9
330
39D
100
AcDbEntity
  8
1
  6
Continuous
 62
     7
370
     9
100
AcDbVertex
100
AcDb2dVertex
 10
119.3619130895192
 20
114.9119654189413
 30
0.0
  0
VERTEX
  5
3DA
330
39D
100
AcDbEntity
  8
1
  6
Continuous
 62
     7
370
     9
100
AcDbVertex
100
AcDb2dVertex
 10
119.3459130895192
 20
114.9172654189413
 30
0.0
  0
VERTEX
  5
3DB
330
39D
100
AcDbEntity
  8
1
  6
Continuous
 62
     7
370
     9
100
AcDbVertex
100
AcDb2dVertex
 10
119.3300130895192
 20
114.9226654189413
 30
0.0
  0
VERTEX
  5
3DC
330
39D
100
AcDbEntity
  8
1
  6
Continuous
 62
     7
370
     9
100
AcDbVertex
100
AcDb2dVertex
 10
119.3141130895192
 20
114.9280654189413
 30
0.0
  0
VERTEX
  5
3DD
330
39D
100
AcDbEntity
  8
1
  6
Continuous
 62
     7
370
     9
100
AcDbVertex
100
AcDb2dVertex
 10
119.2982130895192
 20
114.9335654189413
 30
0.0
  0
VERTEX
  5
3DE
330
39D
100
AcDbEntity
  8
1
  6
Continuous
 62
     7
370
     9
100
AcDbVertex
100
AcDb2dVertex
 10
119.2823130895192
 20
114.9390654189413
 30
0.0
  0
VERTEX
  5
3DF
330
39D
100
AcDbEntity
  8
1
  6
Continuous
 62
     7
370
     9
100
AcDbVertex
100
AcDb2dVertex
 10
119.2664130895192
 20
114.9446654189413
 30
0.0
  0
VERTEX
  5
3E0
330
39D
100
AcDbEntity
  8
1
  6
Continuous
 62
     7
370
     9
100
AcDbVertex
100
AcDb2dVertex
 10
119.2505130895192
 20
114.9503654189413
 30
0.0
  0
VERTEX
  5
3E1
330
39D
100
AcDbEntity
  8
1
  6
Continuous
 62
     7
370
     9
100
AcDbVertex
100
AcDb2dVertex
 10
119.2346130895192
 20
114.9560654189413
 30
0.0
  0
VERTEX
  5
3E2
330
39D
100
AcDbEntity
  8
1
  6
Continuous
 62
     7
370
     9
100
AcDbVertex
100
AcDb2dVertex
 10
119.2187130895192
 20
114.9618654189413
 30
0.0
  0
VERTEX
  5
3E3
330
39D
100
AcDbEntity
  8
1
  6
Continuous
 62
     7
370
     9
100
AcDbVertex
100
AcDb2dVertex
 10
119.2027130895192
 20
114.9676654189413
 30
0.0
  0
VERTEX
  5
3E4
330
39D
100
AcDbEntity
  8
1
  6
Continuous
 62
     7
370
     9
100
AcDbVertex
100
AcDb2dVertex
 10
119.1868130895192
 20
114.9734654189413
 30
0.0
  0
VERTEX
  5
3E5
330
39D
100
AcDbEntity
  8
1
  6
Continuous
 62
     7
370
     9
100
AcDbVertex
100
AcDb2dVertex
 10
119.1709130895192
 20
114.9794654189413
 30
0.0
  0
VERTEX
  5
3E6
330
39D
100
AcDbEntity
  8
1
  6
Continuous
 62
     7
370
     9
100
AcDbVertex
100
AcDb2dVertex
 10
119.1550130895192
 20
114.9853654189413
 30
0.0
  0
VERTEX
  5
3E7
330
39D
100
AcDbEntity
  8
1
  6
Continuous
 62
     7
370
     9
100
AcDbVertex
100
AcDb2dVertex
 10
119.1391130895192
 20
114.9914654189413
 30
0.0
  0
VERTEX
  5
3E8
330
39D
100
AcDbEntity
  8
1
  6
Continuous
 62
     7
370
     9
100
AcDbVertex
100
AcDb2dVertex
 10
119.1232130895192
 20
114.9974654189413
 30
0.0
  0
VERTEX
  5
3E9
330
39D
100
AcDbEntity
  8
1
  6
Continuous
 62
     7
370
     9
100
AcDbVertex
100
AcDb2dVertex
 10
119.1073130895192
 20
115.0036654189413
 30
0.0
  0
VERTEX
  5
3EA
330
39D
100
AcDbEntity
  8
1
  6
Continuous
 62
     7
370
     9
100
AcDbVertex
100
AcDb2dVertex
 10
119.0914130895192
 20
115.0097654189413
 30
0.0
  0
VERTEX
  5
3EB
330
39D
100
AcDbEntity
  8
1
  6
Continuous
 62
     7
370
     9
100
AcDbVertex
100
AcDb2dVertex
 10
119.0755130895192
 20
115.0160654189413
 30
0.0
  0
VERTEX
  5
3EC
330
39D
100
AcDbEntity
  8
1
  6
Continuous
 62
     7
370
     9
100
AcDbVertex
100
AcDb2dVertex
 10
119.0595130895192
 20
115.0222654189413
 30
0.0
  0
VERTEX
  5
3ED
330
39D
100
AcDbEntity
  8
1
  6
Continuous
 62
     7
370
     9
100
AcDbVertex
100
AcDb2dVertex
 10
119.0436130895192
 20
115.0285654189413
 30
0.0
  0
VERTEX
  5
3EE
330
39D
100
AcDbEntity
  8
1
  6
Continuous
 62
     7
370
     9
100
AcDbVertex
100
AcDb2dVertex
 10
119.0277130895192
 20
115.0349654189413
 30
0.0
  0
VERTEX
  5
3EF
330
39D
100
AcDbEntity
  8
1
  6
Continuous
 62
     7
370
     9
100
AcDbVertex
100
AcDb2dVertex
 10
119.0118130895192
 20
115.0413654189413
 30
0.0
  0
VERTEX
  5
3F0
330
39D
100
AcDbEntity
  8
1
  6
Continuous
 62
     7
370
     9
100
AcDbVertex
100
AcDb2dVertex
 10
118.9959130895192
 20
115.0477654189413
 30
0.0
  0
VERTEX
  5
3F1
330
39D
100
AcDbEntity
  8
1
  6
Continuous
 62
     7
370
     9
100
AcDbVertex
100
AcDb2dVertex
 10
118.9800130895192
 20
115.0542654189413
 30
0.0
  0
VERTEX
  5
3F2
330
39D
100
AcDbEntity
  8
1
  6
Continuous
 62
     7
370
     9
100
AcDbVertex
100
AcDb2dVertex
 10
118.9641130895192
 20
115.0607654189413
 30
0.0
  0
VERTEX
  5
3F3
330
39D
100
AcDbEntity
  8
1
  6
Continuous
 62
     7
370
     9
100
AcDbVertex
100
AcDb2dVertex
 10
118.9482130895192
 20
115.0673654189413
 30
0.0
  0
VERTEX
  5
3F4
330
39D
100
AcDbEntity
  8
1
  6
Continuous
 62
     7
370
     9
100
AcDbVertex
100
AcDb2dVertex
 10
118.9322130895192
 20
115.0739654189413
 30
0.0
  0
VERTEX
  5
3F5
330
39D
100
AcDbEntity
  8
1
  6
Continuous
 62
     7
370
     9
100
AcDbVertex
100
AcDb2dVertex
 10
118.9163130895192
 20
115.0805654189413
 30
0.0
  0
VERTEX
  5
3F6
330
39D
100
AcDbEntity
  8
1
  6
Continuous
 62
     7
370
     9
100
AcDbVertex
100
AcDb2dVertex
 10
118.9004130895192
 20
115.0872654189413
 30
0.0
  0
VERTEX
  5
3F7
330
39D
100
AcDbEntity
  8
1
  6
Continuous
 62
     7
370
     9
100
AcDbVertex
100
AcDb2dVertex
 10
118.8845130895192
 20
115.0939654189413
 30
0.0
  0
VERTEX
  5
3F8
330
39D
100
AcDbEntity
  8
1
  6
Continuous
 62
     7
370
     9
100
AcDbVertex
100
AcDb2dVertex
 10
118.8686130895192
 20
115.1006654189413
 30
0.0
  0
VERTEX
  5
3F9
330
39D
100
AcDbEntity
  8
1
  6
Continuous
 62
     7
370
     9
100
AcDbVertex
100
AcDb2dVertex
 10
118.8527130895192
 20
115.1074654189413
 30
0.0
  0
VERTEX
  5
3FA
330
39D
100
AcDbEntity
  8
1
  6
Continuous
 62
     7
370
     9
100
AcDbVertex
100
AcDb2dVertex
 10
118.8368130895192
 20
115.1142654189413
 30
0.0
  0
VERTEX
  5
3FB
330
39D
100
AcDbEntity
  8
1
  6
Continuous
 62
     7
370
     9
100
AcDbVertex
100
AcDb2dVertex
 10
118.8209130895192
 20
115.1210654189413
 30
0.0
  0
VERTEX
  5
3FC
330
39D
100
AcDbEntity
  8
1
  6
Continuous
 62
     7
370
     9
100
AcDbVertex
100
AcDb2dVertex
 10
118.8050130895192
 20
115.1279654189413
 30
0.0
  0
VERTEX
  5
3FD
330
39D
100
AcDbEntity
  8
1
  6
Continuous
 62
     7
370
     9
100
AcDbVertex
100
AcDb2dVertex
 10
118.7890130895192
 20
115.1348654189413
 30
0.0
  0
VERTEX
  5
3FE
330
39D
100
AcDbEntity
  8
1
  6
Continuous
 62
     7
370
     9
100
AcDbVertex
100
AcDb2dVertex
 10
118.7731130895192
 20
115.1417654189413
 30
0.0
  0
VERTEX
  5
3FF
330
39D
100
AcDbEntity
  8
1
  6
Continuous
 62
     7
370
     9
100
AcDbVertex
100
AcDb2dVertex
 10
118.7572130895192
 20
115.1487654189413
 30
0.0
  0
VERTEX
  5
400
330
39D
100
AcDbEntity
  8
1
  6
Continuous
 62
     7
370
     9
100
AcDbVertex
100
AcDb2dVertex
 10
118.7413130895192
 20
115.1557654189413
 30
0.0
  0
VERTEX
  5
401
330
39D
100
AcDbEntity
  8
1
  6
Continuous
 62
     7
370
     9
100
AcDbVertex
100
AcDb2dVertex
 10
118.7254130895192
 20
115.1627654189413
 30
0.0
  0
VERTEX
  5
402
330
39D
100
AcDbEntity
  8
1
  6
Continuous
 62
     7
370
     9
100
AcDbVertex
100
AcDb2dVertex
 10
118.7095130895192
 20
115.1697654189413
 30
0.0
  0
VERTEX
  5
403
330
39D
100
AcDbEntity
  8
1
  6
Continuous
 62
     7
370
     9
100
AcDbVertex
100
AcDb2dVertex
 10
118.6936130895192
 20
115.1768654189413
 30
0.0
  0
VERTEX
  5
404
330
39D
100
AcDbEntity
  8
1
  6
Continuous
 62
     7
370
     9
100
AcDbVertex
100
AcDb2dVertex
 10
118.6777130895192
 20
115.1839654189413
 30
0.0
  0
VERTEX
  5
405
330
39D
100
AcDbEntity
  8
1
  6
Continuous
 62
     7
370
     9
100
AcDbVertex
100
AcDb2dVertex
 10
118.6618130895192
 20
115.1910654189413
 30
0.0
  0
VERTEX
  5
406
330
39D
100
AcDbEntity
  8
1
  6
Continuous
 62
     7
370
     9
100
AcDbVertex
100
AcDb2dVertex
 10
118.6458130895192
 20
115.1981654189413
 30
0.0
  0
VERTEX
  5
407
330
39D
100
AcDbEntity
  8
1
  6
Continuous
 62
     7
370
     9
100
AcDbVertex
100
AcDb2dVertex
 10
118.6299130895192
 20
115.2053654189413
 30
0.0
  0
VERTEX
  5
408
330
39D
100
AcDbEntity
  8
1
  6
Continuous
 62
     7
370
     9
100
AcDbVertex
100
AcDb2dVertex
 10
118.6140130895192
 20
115.2124654189413
 30
0.0
  0
VERTEX
  5
409
330
39D
100
AcDbEntity
  8
1
  6
Continuous
 62
     7
370
     9
100
AcDbVertex
100
AcDb2dVertex
 10
118.5981130895192
 20
115.2196654189413
 30
0.0
  0
VERTEX
  5
40A
330
39D
100
AcDbEntity
  8
1
  6
Continuous
 62
     7
370
     9
100
AcDbVertex
100
AcDb2dVertex
 10
118.5822130895192
 20
115.2268654189413
 30
0.0
  0
VERTEX
  5
40B
330
39D
100
AcDbEntity
  8
1
  6
Continuous
 62
     7
370
     9
100
AcDbVertex
100
AcDb2dVertex
 10
118.5663130895192
 20
115.2341654189413
 30
0.0
  0
VERTEX
  5
40C
330
39D
100
AcDbEntity
  8
1
  6
Continuous
 62
     7
370
     9
100
AcDbVertex
100
AcDb2dVertex
 10
118.5504130895192
 20
115.2413654189413
 30
0.0
  0
VERTEX
  5
40D
330
39D
100
AcDbEntity
  8
1
  6
Continuous
 62
     7
370
     9
100
AcDbVertex
100
AcDb2dVertex
 10
118.5345130895192
 20
115.2486654189413
 30
0.0
  0
VERTEX
  5
40E
330
39D
100
AcDbEntity
  8
1
  6
Continuous
 62
     7
370
     9
100
AcDbVertex
100
AcDb2dVertex
 10
118.5186130895192
 20
115.2558654189413
 30
0.0
  0
VERTEX
  5
40F
330
39D
100
AcDbEntity
  8
1
  6
Continuous
 62
     7
370
     9
100
AcDbVertex
100
AcDb2dVertex
 10
118.5026130895192
 20
115.2631654189413
 30
0.0
  0
VERTEX
  5
410
330
39D
100
AcDbEntity
  8
1
  6
Continuous
 62
     7
370
     9
100
AcDbVertex
100
AcDb2dVertex
 10
118.4867130895192
 20
115.2704654189413
 30
0.0
  0
VERTEX
  5
411
330
39D
100
AcDbEntity
  8
1
  6
Continuous
 62
     7
370
     9
100
AcDbVertex
100
AcDb2dVertex
 10
118.4708130895192
 20
115.2778654189413
 30
0.0
  0
VERTEX
  5
412
330
39D
100
AcDbEntity
  8
1
  6
Continuous
 62
     7
370
     9
100
AcDbVertex
100
AcDb2dVertex
 10
118.4549130895192
 20
115.2851654189413
 30
0.0
  0
VERTEX
  5
413
330
39D
100
AcDbEntity
  8
1
  6
Continuous
 62
     7
370
     9
100
AcDbVertex
100
AcDb2dVertex
 10
118.4390130895192
 20
115.2924654189413
 30
0.0
  0
VERTEX
  5
414
330
39D
100
AcDbEntity
  8
1
  6
Continuous
 62
     7
370
     9
100
AcDbVertex
100
AcDb2dVertex
 10
118.4231130895192
 20
115.2998654189413
 30
0.0
  0
VERTEX
  5
415
330
39D
100
AcDbEntity
  8
1
  6
Continuous
 62
     7
370
     9
100
AcDbVertex
100
AcDb2dVertex
 10
118.4072130895192
 20
115.3071654189413
 30
0.0
  0
VERTEX
  5
416
330
39D
100
AcDbEntity
  8
1
  6
Continuous
 62
     7
370
     9
100
AcDbVertex
100
AcDb2dVertex
 10
118.3913130895192
 20
115.3145654189413
 30
0.0
  0
VERTEX
  5
417
330
39D
100
AcDbEntity
  8
1
  6
Continuous
 62
     7
370
     9
100
AcDbVertex
100
AcDb2dVertex
 10
118.3754130895192
 20
115.3218654189413
 30
0.0
  0
VERTEX
  5
418
330
39D
100
AcDbEntity
  8
1
  6
Continuous
 62
     7
370
     9
100
AcDbVertex
100
AcDb2dVertex
 10
118.3594130895192
 20
115.3292654189413
 30
0.0
  0
VERTEX
  5
419
330
39D
100
AcDbEntity
  8
1
  6
Continuous
 62
     7
370
     9
100
AcDbVertex
100
AcDb2dVertex
 10
118.3435130895192
 20
115.3366654189413
 30
0.0
  0
VERTEX
  5
41A
330
39D
100
AcDbEntity
  8
1
  6
Continuous
 62
     7
370
     9
100
AcDbVertex
100
AcDb2dVertex
 10
118.3276130895192
 20
115.3440654189413
 30
0.0
  0
VERTEX
  5
41B
330
39D
100
AcDbEntity
  8
1
  6
Continuous
 62
     7
370
     9
100
AcDbVertex
100
AcDb2dVertex
 10
118.3117130895192
 20
115.3513654189413
 30
0.0
  0
VERTEX
  5
41C
330
39D
100
AcDbEntity
  8
1
  6
Continuous
 62
     7
370
     9
100
AcDbVertex
100
AcDb2dVertex
 10
118.2958130895192
 20
115.3587654189413
 30
0.0
  0
VERTEX
  5
41D
330
39D
100
AcDbEntity
  8
1
  6
Continuous
 62
     7
370
     9
100
AcDbVertex
100
AcDb2dVertex
 10
118.2799130895192
 20
115.3661654189413
 30
0.0
  0
SEQEND
  5
41E
330
39D
100
AcDbEntity
  8
1
  6
Continuous
 62
     7
370
     9
  0
POLYLINE
  5
41F
330
1F
100
AcDbEntity
  8
1
  6
Continuous
 62
     7
370
     9
100
AcDb2dPolyline
 66
     1
 10
0.0
 20
0.0
 30
0.0
  0
VERTEX
  5
420
330
41F
100
AcDbEntity
  8
1
  6
Continuous
 62
     7
370
     9
100
AcDbVertex
100
AcDb2dVertex
 10
118.2799130895192
 20
121.1157654189413
 30
0.0
  0
VERTEX
  5
421
330
41F
100
AcDbEntity
  8
1
  6
Continuous
 62
     7
370
     9
100
AcDbVertex
100
AcDb2dVertex
 10
118.2545130895192
 20
121.1216654189413
 30
0.0
  0
VERTEX
  5
422
330
41F
100
AcDbEntity
  8
1
  6
Continuous
 62
     7
370
     9
100
AcDbVertex
100
AcDb2dVertex
 10
118.2291130895192
 20
121.1275654189413
 30
0.0
  0
VERTEX
  5
423
330
41F
100
AcDbEntity
  8
1
  6
Continuous
 62
     7
370
     9
100
AcDbVertex
100
AcDb2dVertex
 10
118.2036130895192
 20
121.1334654189413
 30
0.0
  0
VERTEX
  5
424
330
41F
100
AcDbEntity
  8
1
  6
Continuous
 62
     7
370
     9
100
AcDbVertex
100
AcDb2dVertex
 10
118.1782130895192
 20
121.1393654189413
 30
0.0
  0
VERTEX
  5
425
330
41F
100
AcDbEntity
  8
1
  6
Continuous
 62
     7
370
     9
100
AcDbVertex
100
AcDb2dVertex
 10
118.1528130895192
 20
121.1452654189413
 30
0.0
  0
VERTEX
  5
426
330
41F
100
AcDbEntity
  8
1
  6
Continuous
 62
     7
370
     9
100
AcDbVertex
100
AcDb2dVertex
 10
118.1274130895192
 20
121.1510654189413
 30
0.0
  0
VERTEX
  5
427
330
41F
100
AcDbEntity
  8
1
  6
Continuous
 62
     7
370
     9
100
AcDbVertex
100
AcDb2dVertex
 10
118.1020130895192
 20
121.1569654189413
 30
0.0
  0
VERTEX
  5
428
330
41F
100
AcDbEntity
  8
1
  6
Continuous
 62
     7
370
     9
100
AcDbVertex
100
AcDb2dVertex
 10
118.0765130895192
 20
121.1628654189413
 30
0.0
  0
VERTEX
  5
429
330
41F
100
AcDbEntity
  8
1
  6
Continuous
 62
     7
370
     9
100
AcDbVertex
100
AcDb2dVertex
 10
118.0511130895192
 20
121.1687654189413
 30
0.0
  0
VERTEX
  5
42A
330
41F
100
AcDbEntity
  8
1
  6
Continuous
 62
     7
370
     9
100
AcDbVertex
100
AcDb2dVertex
 10
118.0257130895192
 20
121.1746654189413
 30
0.0
  0
VERTEX
  5
42B
330
41F
100
AcDbEntity
  8
1
  6
Continuous
 62
     7
370
     9
100
AcDbVertex
100
AcDb2dVertex
 10
118.0003130895192
 20
121.1804654189413
 30
0.0
  0
VERTEX
  5
42C
330
41F
100
AcDbEntity
  8
1
  6
Continuous
 62
     7
370
     9
100
AcDbVertex
100
AcDb2dVertex
 10
117.9749130895192
 20
121.1863654189413
 30
0.0
  0
VERTEX
  5
42D
330
41F
100
AcDbEntity
  8
1
  6
Continuous
 62
     7
370
     9
100
AcDbVertex
100
AcDb2dVertex
 10
117.9495130895192
 20
121.1922654189413
 30
0.0
  0
VERTEX
  5
42E
330
41F
100
AcDbEntity
  8
1
  6
Continuous
 62
     7
370
     9
100
AcDbVertex
100
AcDb2dVertex
 10
117.9240130895192
 20
121.1980654189413
 30
0.0
  0
VERTEX
  5
42F
330
41F
100
AcDbEntity
  8
1
  6
Continuous
 62
     7
370
     9
100
AcDbVertex
100
AcDb2dVertex
 10
117.8986130895192
 20
121.2039654189413
 30
0.0
  0
VERTEX
  5
430
330
41F
100
AcDbEntity
  8
1
  6
Continuous
 62
     7
370
     9
100
AcDbVertex
100
AcDb2dVertex
 10
117.8732130895192
 20
121.2097654189413
 30
0.0
  0
VERTEX
  5
431
330
41F
100
AcDbEntity
  8
1
  6
Continuous
 62
     7
370
     9
100
AcDbVertex
100
AcDb2dVertex
 10
117.8478130895192
 20
121.2156654189413
 30
0.0
  0
VERTEX
  5
432
330
41F
100
AcDbEntity
  8
1
  6
Continuous
 62
     7
370
     9
100
AcDbVertex
100
AcDb2dVertex
 10
117.8224130895192
 20
121.2214654189413
 30
0.0
  0
VERTEX
  5
433
330
41F
100
AcDbEntity
  8
1
  6
Continuous
 62
     7
370
     9
100
AcDbVertex
100
AcDb2dVertex
 10
117.7969130895192
 20
121.2272654189413
 30
0.0
  0
VERTEX
  5
434
330
41F
100
AcDbEntity
  8
1
  6
Continuous
 62
     7
370
     9
100
AcDbVertex
100
AcDb2dVertex
 10
117.7715130895192
 20
121.2330654189413
 30
0.0
  0
VERTEX
  5
435
330
41F
100
AcDbEntity
  8
1
  6
Continuous
 62
     7
370
     9
100
AcDbVertex
100
AcDb2dVertex
 10
117.7461130895192
 20
121.2388654189413
 30
0.0
  0
VERTEX
  5
436
330
41F
100
AcDbEntity
  8
1
  6
Continuous
 62
     7
370
     9
100
AcDbVertex
100
AcDb2dVertex
 10
117.7207130895192
 20
121.2446654189413
 30
0.0
  0
VERTEX
  5
437
330
41F
100
AcDbEntity
  8
1
  6
Continuous
 62
     7
370
     9
100
AcDbVertex
100
AcDb2dVertex
 10
117.6953130895192
 20
121.2504654189413
 30
0.0
  0
VERTEX
  5
438
330
41F
100
AcDbEntity
  8
1
  6
Continuous
 62
     7
370
     9
100
AcDbVertex
100
AcDb2dVertex
 10
117.6699130895192
 20
121.2562654189413
 30
0.0
  0
VERTEX
  5
439
330
41F
100
AcDbEntity
  8
1
  6
Continuous
 62
     7
370
     9
100
AcDbVertex
100
AcDb2dVertex
 10
117.6444130895192
 20
121.2619654189413
 30
0.0
  0
VERTEX
  5
43A
330
41F
100
AcDbEntity
  8
1
  6
Continuous
 62
     7
370
     9
100
AcDbVertex
100
AcDb2dVertex
 10
117.6190130895192
 20
121.2677654189413
 30
0.0
  0
VERTEX
  5
43B
330
41F
100
AcDbEntity
  8
1
  6
Continuous
 62
     7
370
     9
100
AcDbVertex
100
AcDb2dVertex
 10
117.5936130895192
 20
121.2734654189413
 30
0.0
  0
VERTEX
  5
43C
330
41F
100
AcDbEntity
  8
1
  6
Continuous
 62
     7
370
     9
100
AcDbVertex
100
AcDb2dVertex
 10
117.5682130895192
 20
121.2791654189413
 30
0.0
  0
VERTEX
  5
43D
330
41F
100
AcDbEntity
  8
1
  6
Continuous
 62
     7
370
     9
100
AcDbVertex
100
AcDb2dVertex
 10
117.5428130895192
 20
121.2848654189413
 30
0.0
  0
VERTEX
  5
43E
330
41F
100
AcDbEntity
  8
1
  6
Continuous
 62
     7
370
     9
100
AcDbVertex
100
AcDb2dVertex
 10
117.5174130895192
 20
121.2905654189413
 30
0.0
  0
VERTEX
  5
43F
330
41F
100
AcDbEntity
  8
1
  6
Continuous
 62
     7
370
     9
100
AcDbVertex
100
AcDb2dVertex
 10
117.4919130895192
 20
121.2962654189413
 30
0.0
  0
VERTEX
  5
440
330
41F
100
AcDbEntity
  8
1
  6
Continuous
 62
     7
370
     9
100
AcDbVertex
100
AcDb2dVertex
 10
117.4665130895192
 20
121.3019654189413
 30
0.0
  0
VERTEX
  5
441
330
41F
100
AcDbEntity
  8
1
  6
Continuous
 62
     7
370
     9
100
AcDbVertex
100
AcDb2dVertex
 10
117.4411130895192
 20
121.3075654189413
 30
0.0
  0
VERTEX
  5
442
330
41F
100
AcDbEntity
  8
1
  6
Continuous
 62
     7
370
     9
100
AcDbVertex
100
AcDb2dVertex
 10
117.4157130895192
 20
121.3132654189413
 30
0.0
  0
VERTEX
  5
443
330
41F
100
AcDbEntity
  8
1
  6
Continuous
 62
     7
370
     9
100
AcDbVertex
100
AcDb2dVertex
 10
117.3903130895192
 20
121.3188654189413
 30
0.0
  0
VERTEX
  5
444
330
41F
100
AcDbEntity
  8
1
  6
Continuous
 62
     7
370
     9
100
AcDbVertex
100
AcDb2dVertex
 10
117.3648130895192
 20
121.3244654189413
 30
0.0
  0
VERTEX
  5
445
330
41F
100
AcDbEntity
  8
1
  6
Continuous
 62
     7
370
     9
100
AcDbVertex
100
AcDb2dVertex
 10
117.3394130895192
 20
121.3300654189413
 30
0.0
  0
VERTEX
  5
446
330
41F
100
AcDbEntity
  8
1
  6
Continuous
 62
     7
370
     9
100
AcDbVertex
100
AcDb2dVertex
 10
117.3140130895192
 20
121.3355654189413
 30
0.0
  0
VERTEX
  5
447
330
41F
100
AcDbEntity
  8
1
  6
Continuous
 62
     7
370
     9
100
AcDbVertex
100
AcDb2dVertex
 10
117.2886130895192
 20
121.3411654189413
 30
0.0
  0
VERTEX
  5
448
330
41F
100
AcDbEntity
  8
1
  6
Continuous
 62
     7
370
     9
100
AcDbVertex
100
AcDb2dVertex
 10
117.2632130895192
 20
121.3466654189413
 30
0.0
  0
VERTEX
  5
449
330
41F
100
AcDbEntity
  8
1
  6
Continuous
 62
     7
370
     9
100
AcDbVertex
100
AcDb2dVertex
 10
117.2378130895192
 20
121.3521654189413
 30
0.0
  0
VERTEX
  5
44A
330
41F
100
AcDbEntity
  8
1
  6
Continuous
 62
     7
370
     9
100
AcDbVertex
100
AcDb2dVertex
 10
117.2123130895192
 20
121.3576654189413
 30
0.0
  0
VERTEX
  5
44B
330
41F
100
AcDbEntity
  8
1
  6
Continuous
 62
     7
370
     9
100
AcDbVertex
100
AcDb2dVertex
 10
117.1869130895192
 20
121.3631654189413
 30
0.0
  0
VERTEX
  5
44C
330
41F
100
AcDbEntity
  8
1
  6
Continuous
 62
     7
370
     9
100
AcDbVertex
100
AcDb2dVertex
 10
117.1615130895192
 20
121.3686654189413
 30
0.0
  0
VERTEX
  5
44D
330
41F
100
AcDbEntity
  8
1
  6
Continuous
 62
     7
370
     9
100
AcDbVertex
100
AcDb2dVertex
 10
117.1361130895192
 20
121.3740654189413
 30
0.0
  0
VERTEX
  5
44E
330
41F
100
AcDbEntity
  8
1
  6
Continuous
 62
     7
370
     9
100
AcDbVertex
100
AcDb2dVertex
 10
117.1107130895192
 20
121.3794654189413
 30
0.0
  0
VERTEX
  5
44F
330
41F
100
AcDbEntity
  8
1
  6
Continuous
 62
     7
370
     9
100
AcDbVertex
100
AcDb2dVertex
 10
117.0852130895192
 20
121.3848654189413
 30
0.0
  0
VERTEX
  5
450
330
41F
100
AcDbEntity
  8
1
  6
Continuous
 62
     7
370
     9
100
AcDbVertex
100
AcDb2dVertex
 10
117.0598130895192
 20
121.3902654189413
 30
0.0
  0
VERTEX
  5
451
330
41F
100
AcDbEntity
  8
1
  6
Continuous
 62
     7
370
     9
100
AcDbVertex
100
AcDb2dVertex
 10
117.0344130895192
 20
121.3955654189413
 30
0.0
  0
VERTEX
  5
452
330
41F
100
AcDbEntity
  8
1
  6
Continuous
 62
     7
370
     9
100
AcDbVertex
100
AcDb2dVertex
 10
117.0090130895192
 20
121.4009654189413
 30
0.0
  0
VERTEX
  5
453
330
41F
100
AcDbEntity
  8
1
  6
Continuous
 62
     7
370
     9
100
AcDbVertex
100
AcDb2dVertex
 10
116.9836130895192
 20
121.4062654189413
 30
0.0
  0
VERTEX
  5
454
330
41F
100
AcDbEntity
  8
1
  6
Continuous
 62
     7
370
     9
100
AcDbVertex
100
AcDb2dVertex
 10
116.9582130895192
 20
121.4114654189413
 30
0.0
  0
VERTEX
  5
455
330
41F
100
AcDbEntity
  8
1
  6
Continuous
 62
     7
370
     9
100
AcDbVertex
100
AcDb2dVertex
 10
116.9327130895192
 20
121.4167654189413
 30
0.0
  0
VERTEX
  5
456
330
41F
100
AcDbEntity
  8
1
  6
Continuous
 62
     7
370
     9
100
AcDbVertex
100
AcDb2dVertex
 10
116.9073130895192
 20
121.4219654189413
 30
0.0
  0
VERTEX
  5
457
330
41F
100
AcDbEntity
  8
1
  6
Continuous
 62
     7
370
     9
100
AcDbVertex
100
AcDb2dVertex
 10
116.8819130895192
 20
121.4271654189413
 30
0.0
  0
VERTEX
  5
458
330
41F
100
AcDbEntity
  8
1
  6
Continuous
 62
     7
370
     9
100
AcDbVertex
100
AcDb2dVertex
 10
116.8565130895192
 20
121.4323654189413
 30
0.0
  0
VERTEX
  5
459
330
41F
100
AcDbEntity
  8
1
  6
Continuous
 62
     7
370
     9
100
AcDbVertex
100
AcDb2dVertex
 10
116.8311130895192
 20
121.4375654189413
 30
0.0
  0
VERTEX
  5
45A
330
41F
100
AcDbEntity
  8
1
  6
Continuous
 62
     7
370
     9
100
AcDbVertex
100
AcDb2dVertex
 10
116.8056130895192
 20
121.4426654189413
 30
0.0
  0
VERTEX
  5
45B
330
41F
100
AcDbEntity
  8
1
  6
Continuous
 62
     7
370
     9
100
AcDbVertex
100
AcDb2dVertex
 10
116.7802130895192
 20
121.4477654189413
 30
0.0
  0
VERTEX
  5
45C
330
41F
100
AcDbEntity
  8
1
  6
Continuous
 62
     7
370
     9
100
AcDbVertex
100
AcDb2dVertex
 10
116.7548130895192
 20
121.4528654189413
 30
0.0
  0
VERTEX
  5
45D
330
41F
100
AcDbEntity
  8
1
  6
Continuous
 62
     7
370
     9
100
AcDbVertex
100
AcDb2dVertex
 10
116.7294130895192
 20
121.4578654189413
 30
0.0
  0
VERTEX
  5
45E
330
41F
100
AcDbEntity
  8
1
  6
Continuous
 62
     7
370
     9
100
AcDbVertex
100
AcDb2dVertex
 10
116.7040130895192
 20
121.4628654189413
 30
0.0
  0
VERTEX
  5
45F
330
41F
100
AcDbEntity
  8
1
  6
Continuous
 62
     7
370
     9
100
AcDbVertex
100
AcDb2dVertex
 10
116.6786130895192
 20
121.4678654189413
 30
0.0
  0
VERTEX
  5
460
330
41F
100
AcDbEntity
  8
1
  6
Continuous
 62
     7
370
     9
100
AcDbVertex
100
AcDb2dVertex
 10
116.6531130895192
 20
121.4728654189413
 30
0.0
  0
VERTEX
  5
461
330
41F
100
AcDbEntity
  8
1
  6
Continuous
 62
     7
370
     9
100
AcDbVertex
100
AcDb2dVertex
 10
116.6277130895192
 20
121.4777654189413
 30
0.0
  0
VERTEX
  5
462
330
41F
100
AcDbEntity
  8
1
  6
Continuous
 62
     7
370
     9
100
AcDbVertex
100
AcDb2dVertex
 10
116.6023130895192
 20
121.4826654189413
 30
0.0
  0
VERTEX
  5
463
330
41F
100
AcDbEntity
  8
1
  6
Continuous
 62
     7
370
     9
100
AcDbVertex
100
AcDb2dVertex
 10
116.5769130895192
 20
121.4875654189413
 30
0.0
  0
VERTEX
  5
464
330
41F
100
AcDbEntity
  8
1
  6
Continuous
 62
     7
370
     9
100
AcDbVertex
100
AcDb2dVertex
 10
116.5515130895192
 20
121.4923654189413
 30
0.0
  0
VERTEX
  5
465
330
41F
100
AcDbEntity
  8
1
  6
Continuous
 62
     7
370
     9
100
AcDbVertex
100
AcDb2dVertex
 10
116.5261130895192
 20
121.4971654189413
 30
0.0
  0
VERTEX
  5
466
330
41F
100
AcDbEntity
  8
1
  6
Continuous
 62
     7
370
     9
100
AcDbVertex
100
AcDb2dVertex
 10
116.5006130895192
 20
121.5019654189413
 30
0.0
  0
VERTEX
  5
467
330
41F
100
AcDbEntity
  8
1
  6
Continuous
 62
     7
370
     9
100
AcDbVertex
100
AcDb2dVertex
 10
116.4752130895192
 20
121.5066654189413
 30
0.0
  0
VERTEX
  5
468
330
41F
100
AcDbEntity
  8
1
  6
Continuous
 62
     7
370
     9
100
AcDbVertex
100
AcDb2dVertex
 10
116.4498130895192
 20
121.5113654189413
 30
0.0
  0
VERTEX
  5
469
330
41F
100
AcDbEntity
  8
1
  6
Continuous
 62
     7
370
     9
100
AcDbVertex
100
AcDb2dVertex
 10
116.4244130895192
 20
121.5160654189413
 30
0.0
  0
VERTEX
  5
46A
330
41F
100
AcDbEntity
  8
1
  6
Continuous
 62
     7
370
     9
100
AcDbVertex
100
AcDb2dVertex
 10
116.3990130895192
 20
121.5206654189413
 30
0.0
  0
VERTEX
  5
46B
330
41F
100
AcDbEntity
  8
1
  6
Continuous
 62
     7
370
     9
100
AcDbVertex
100
AcDb2dVertex
 10
116.3735130895192
 20
121.5252654189413
 30
0.0
  0
VERTEX
  5
46C
330
41F
100
AcDbEntity
  8
1
  6
Continuous
 62
     7
370
     9
100
AcDbVertex
100
AcDb2dVertex
 10
116.3481130895192
 20
121.5298654189413
 30
0.0
  0
VERTEX
  5
46D
330
41F
100
AcDbEntity
  8
1
  6
Continuous
 62
     7
370
     9
100
AcDbVertex
100
AcDb2dVertex
 10
116.3227130895192
 20
121.5343654189413
 30
0.0
  0
VERTEX
  5
46E
330
41F
100
AcDbEntity
  8
1
  6
Continuous
 62
     7
370
     9
100
AcDbVertex
100
AcDb2dVertex
 10
116.2973130895192
 20
121.5388654189413
 30
0.0
  0
VERTEX
  5
46F
330
41F
100
AcDbEntity
  8
1
  6
Continuous
 62
     7
370
     9
100
AcDbVertex
100
AcDb2dVertex
 10
116.2719130895192
 20
121.5433654189413
 30
0.0
  0
VERTEX
  5
470
330
41F
100
AcDbEntity
  8
1
  6
Continuous
 62
     7
370
     9
100
AcDbVertex
100
AcDb2dVertex
 10
116.2465130895192
 20
121.5477654189413
 30
0.0
  0
VERTEX
  5
471
330
41F
100
AcDbEntity
  8
1
  6
Continuous
 62
     7
370
     9
100
AcDbVertex
100
AcDb2dVertex
 10
116.2210130895192
 20
121.5521654189413
 30
0.0
  0
VERTEX
  5
472
330
41F
100
AcDbEntity
  8
1
  6
Continuous
 62
     7
370
     9
100
AcDbVertex
100
AcDb2dVertex
 10
116.1956130895192
 20
121.5564654189413
 30
0.0
  0
VERTEX
  5
473
330
41F
100
AcDbEntity
  8
1
  6
Continuous
 62
     7
370
     9
100
AcDbVertex
100
AcDb2dVertex
 10
116.1702130895192
 20
121.5608654189413
 30
0.0
  0
VERTEX
  5
474
330
41F
100
AcDbEntity
  8
1
  6
Continuous
 62
     7
370
     9
100
AcDbVertex
100
AcDb2dVertex
 10
116.1448130895192
 20
121.5650654189413
 30
0.0
  0
VERTEX
  5
475
330
41F
100
AcDbEntity
  8
1
  6
Continuous
 62
     7
370
     9
100
AcDbVertex
100
AcDb2dVertex
 10
116.1194130895192
 20
121.5693654189413
 30
0.0
  0
VERTEX
  5
476
330
41F
100
AcDbEntity
  8
1
  6
Continuous
 62
     7
370
     9
100
AcDbVertex
100
AcDb2dVertex
 10
116.0939130895192
 20
121.5735654189413
 30
0.0
  0
VERTEX
  5
477
330
41F
100
AcDbEntity
  8
1
  6
Continuous
 62
     7
370
     9
100
AcDbVertex
100
AcDb2dVertex
 10
116.0685130895192
 20
121.5776654189413
 30
0.0
  0
VERTEX
  5
478
330
41F
100
AcDbEntity
  8
1
  6
Continuous
 62
     7
370
     9
100
AcDbVertex
100
AcDb2dVertex
 10
116.0431130895192
 20
121.5817654189413
 30
0.0
  0
VERTEX
  5
479
330
41F
100
AcDbEntity
  8
1
  6
Continuous
 62
     7
370
     9
100
AcDbVertex
100
AcDb2dVertex
 10
116.0177130895192
 20
121.5858654189413
 30
0.0
  0
VERTEX
  5
47A
330
41F
100
AcDbEntity
  8
1
  6
Continuous
 62
     7
370
     9
100
AcDbVertex
100
AcDb2dVertex
 10
115.9923130895192
 20
121.5898654189413
 30
0.0
  0
VERTEX
  5
47B
330
41F
100
AcDbEntity
  8
1
  6
Continuous
 62
     7
370
     9
100
AcDbVertex
100
AcDb2dVertex
 10
115.9669130895192
 20
121.5938654189413
 30
0.0
  0
VERTEX
  5
47C
330
41F
100
AcDbEntity
  8
1
  6
Continuous
 62
     7
370
     9
100
AcDbVertex
100
AcDb2dVertex
 10
115.9414130895192
 20
121.5978654189413
 30
0.0
  0
VERTEX
  5
47D
330
41F
100
AcDbEntity
  8
1
  6
Continuous
 62
     7
370
     9
100
AcDbVertex
100
AcDb2dVertex
 10
115.9160130895192
 20
121.6017654189413
 30
0.0
  0
VERTEX
  5
47E
330
41F
100
AcDbEntity
  8
1
  6
Continuous
 62
     7
370
     9
100
AcDbVertex
100
AcDb2dVertex
 10
115.8906130895192
 20
121.6055654189413
 30
0.0
  0
VERTEX
  5
47F
330
41F
100
AcDbEntity
  8
1
  6
Continuous
 62
     7
370
     9
100
AcDbVertex
100
AcDb2dVertex
 10
115.8652130895192
 20
121.6093654189413
 30
0.0
  0
VERTEX
  5
480
330
41F
100
AcDbEntity
  8
1
  6
Continuous
 62
     7
370
     9
100
AcDbVertex
100
AcDb2dVertex
 10
115.8398130895192
 20
121.6131654189413
 30
0.0
  0
VERTEX
  5
481
330
41F
100
AcDbEntity
  8
1
  6
Continuous
 62
     7
370
     9
100
AcDbVertex
100
AcDb2dVertex
 10
115.8143130895192
 20
121.6168654189413
 30
0.0
  0
VERTEX
  5
482
330
41F
100
AcDbEntity
  8
1
  6
Continuous
 62
     7
370
     9
100
AcDbVertex
100
AcDb2dVertex
 10
115.7889130895192
 20
121.6205654189413
 30
0.0
  0
VERTEX
  5
483
330
41F
100
AcDbEntity
  8
1
  6
Continuous
 62
     7
370
     9
100
AcDbVertex
100
AcDb2dVertex
 10
115.7635130895192
 20
121.6241654189413
 30
0.0
  0
VERTEX
  5
484
330
41F
100
AcDbEntity
  8
1
  6
Continuous
 62
     7
370
     9
100
AcDbVertex
100
AcDb2dVertex
 10
115.7381130895192
 20
121.6277654189413
 30
0.0
  0
VERTEX
  5
485
330
41F
100
AcDbEntity
  8
1
  6
Continuous
 62
     7
370
     9
100
AcDbVertex
100
AcDb2dVertex
 10
115.7127130895192
 20
121.6313654189413
 30
0.0
  0
VERTEX
  5
486
330
41F
100
AcDbEntity
  8
1
  6
Continuous
 62
     7
370
     9
100
AcDbVertex
100
AcDb2dVertex
 10
115.6873130895192
 20
121.6348654189413
 30
0.0
  0
VERTEX
  5
487
330
41F
100
AcDbEntity
  8
1
  6
Continuous
 62
     7
370
     9
100
AcDbVertex
100
AcDb2dVertex
 10
115.6618130895192
 20
121.6382654189413
 30
0.0
  0
VERTEX
  5
488
330
41F
100
AcDbEntity
  8
1
  6
Continuous
 62
     7
370
     9
100
AcDbVertex
100
AcDb2dVertex
 10
115.6364130895192
 20
121.6416654189413
 30
0.0
  0
VERTEX
  5
489
330
41F
100
AcDbEntity
  8
1
  6
Continuous
 62
     7
370
     9
100
AcDbVertex
100
AcDb2dVertex
 10
115.6110130895192
 20
121.6450654189413
 30
0.0
  0
VERTEX
  5
48A
330
41F
100
AcDbEntity
  8
1
  6
Continuous
 62
     7
370
     9
100
AcDbVertex
100
AcDb2dVertex
 10
115.5856130895192
 20
121.6483654189413
 30
0.0
  0
VERTEX
  5
48B
330
41F
100
AcDbEntity
  8
1
  6
Continuous
 62
     7
370
     9
100
AcDbVertex
100
AcDb2dVertex
 10
115.5602130895192
 20
121.6515654189413
 30
0.0
  0
VERTEX
  5
48C
330
41F
100
AcDbEntity
  8
1
  6
Continuous
 62
     7
370
     9
100
AcDbVertex
100
AcDb2dVertex
 10
115.5348130895192
 20
121.6547654189413
 30
0.0
  0
VERTEX
  5
48D
330
41F
100
AcDbEntity
  8
1
  6
Continuous
 62
     7
370
     9
100
AcDbVertex
100
AcDb2dVertex
 10
115.5093130895192
 20
121.6579654189413
 30
0.0
  0
VERTEX
  5
48E
330
41F
100
AcDbEntity
  8
1
  6
Continuous
 62
     7
370
     9
100
AcDbVertex
100
AcDb2dVertex
 10
115.4839130895192
 20
121.6610654189413
 30
0.0
  0
VERTEX
  5
48F
330
41F
100
AcDbEntity
  8
1
  6
Continuous
 62
     7
370
     9
100
AcDbVertex
100
AcDb2dVertex
 10
115.4585130895192
 20
121.6640654189413
 30
0.0
  0
VERTEX
  5
490
330
41F
100
AcDbEntity
  8
1
  6
Continuous
 62
     7
370
     9
100
AcDbVertex
100
AcDb2dVertex
 10
115.4331130895192
 20
121.6670654189413
 30
0.0
  0
VERTEX
  5
491
330
41F
100
AcDbEntity
  8
1
  6
Continuous
 62
     7
370
     9
100
AcDbVertex
100
AcDb2dVertex
 10
115.4077130895192
 20
121.6700654189413
 30
0.0
  0
VERTEX
  5
492
330
41F
100
AcDbEntity
  8
1
  6
Continuous
 62
     7
370
     9
100
AcDbVertex
100
AcDb2dVertex
 10
115.3822130895192
 20
121.6729654189413
 30
0.0
  0
VERTEX
  5
493
330
41F
100
AcDbEntity
  8
1
  6
Continuous
 62
     7
370
     9
100
AcDbVertex
100
AcDb2dVertex
 10
115.3568130895192
 20
121.6757654189413
 30
0.0
  0
VERTEX
  5
494
330
41F
100
AcDbEntity
  8
1
  6
Continuous
 62
     7
370
     9
100
AcDbVertex
100
AcDb2dVertex
 10
115.3314130895192
 20
121.6785654189413
 30
0.0
  0
VERTEX
  5
495
330
41F
100
AcDbEntity
  8
1
  6
Continuous
 62
     7
370
     9
100
AcDbVertex
100
AcDb2dVertex
 10
115.3060130895192
 20
121.6812654189413
 30
0.0
  0
VERTEX
  5
496
330
41F
100
AcDbEntity
  8
1
  6
Continuous
 62
     7
370
     9
100
AcDbVertex
100
AcDb2dVertex
 10
115.2806130895192
 20
121.6839654189413
 30
0.0
  0
VERTEX
  5
497
330
41F
100
AcDbEntity
  8
1
  6
Continuous
 62
     7
370
     9
100
AcDbVertex
100
AcDb2dVertex
 10
115.2552130895192
 20
121.6865654189413
 30
0.0
  0
VERTEX
  5
498
330
41F
100
AcDbEntity
  8
1
  6
Continuous
 62
     7
370
     9
100
AcDbVertex
100
AcDb2dVertex
 10
115.2297130895192
 20
121.6891654189413
 30
0.0
  0
VERTEX
  5
499
330
41F
100
AcDbEntity
  8
1
  6
Continuous
 62
     7
370
     9
100
AcDbVertex
100
AcDb2dVertex
 10
115.2043130895192
 20
121.6916654189413
 30
0.0
  0
VERTEX
  5
49A
330
41F
100
AcDbEntity
  8
1
  6
Continuous
 62
     7
370
     9
100
AcDbVertex
100
AcDb2dVertex
 10
115.1789130895192
 20
121.6940654189413
 30
0.0
  0
VERTEX
  5
49B
330
41F
100
AcDbEntity
  8
1
  6
Continuous
 62
     7
370
     9
100
AcDbVertex
100
AcDb2dVertex
 10
115.1535130895192
 20
121.6964654189413
 30
0.0
  0
VERTEX
  5
49C
330
41F
100
AcDbEntity
  8
1
  6
Continuous
 62
     7
370
     9
100
AcDbVertex
100
AcDb2dVertex
 10
115.1281130895192
 20
121.6988654189413
 30
0.0
  0
VERTEX
  5
49D
330
41F
100
AcDbEntity
  8
1
  6
Continuous
 62
     7
370
     9
100
AcDbVertex
100
AcDb2dVertex
 10
115.1026130895192
 20
121.7011654189413
 30
0.0
  0
VERTEX
  5
49E
330
41F
100
AcDbEntity
  8
1
  6
Continuous
 62
     7
370
     9
100
AcDbVertex
100
AcDb2dVertex
 10
115.0772130895192
 20
121.7033654189413
 30
0.0
  0
VERTEX
  5
49F
330
41F
100
AcDbEntity
  8
1
  6
Continuous
 62
     7
370
     9
100
AcDbVertex
100
AcDb2dVertex
 10
115.0518130895192
 20
121.7054654189413
 30
0.0
  0
VERTEX
  5
4A0
330
41F
100
AcDbEntity
  8
1
  6
Continuous
 62
     7
370
     9
100
AcDbVertex
100
AcDb2dVertex
 10
115.0264130895192
 20
121.7076654189413
 30
0.0
  0
VERTEX
  5
4A1
330
41F
100
AcDbEntity
  8
1
  6
Continuous
 62
     7
370
     9
100
AcDbVertex
100
AcDb2dVertex
 10
115.0010130895192
 20
121.7096654189413
 30
0.0
  0
VERTEX
  5
4A2
330
41F
100
AcDbEntity
  8
1
  6
Continuous
 62
     7
370
     9
100
AcDbVertex
100
AcDb2dVertex
 10
114.9756130895192
 20
121.7116654189413
 30
0.0
  0
VERTEX
  5
4A3
330
41F
100
AcDbEntity
  8
1
  6
Continuous
 62
     7
370
     9
100
AcDbVertex
100
AcDb2dVertex
 10
114.9501130895192
 20
121.7135654189413
 30
0.0
  0
VERTEX
  5
4A4
330
41F
100
AcDbEntity
  8
1
  6
Continuous
 62
     7
370
     9
100
AcDbVertex
100
AcDb2dVertex
 10
114.9247130895192
 20
121.7154654189413
 30
0.0
  0
VERTEX
  5
4A5
330
41F
100
AcDbEntity
  8
1
  6
Continuous
 62
     7
370
     9
100
AcDbVertex
100
AcDb2dVertex
 10
114.8993130895192
 20
121.7172654189413
 30
0.0
  0
VERTEX
  5
4A6
330
41F
100
AcDbEntity
  8
1
  6
Continuous
 62
     7
370
     9
100
AcDbVertex
100
AcDb2dVertex
 10
114.8739130895192
 20
121.7189654189413
 30
0.0
  0
VERTEX
  5
4A7
330
41F
100
AcDbEntity
  8
1
  6
Continuous
 62
     7
370
     9
100
AcDbVertex
100
AcDb2dVertex
 10
114.8485130895192
 20
121.7206654189413
 30
0.0
  0
VERTEX
  5
4A8
330
41F
100
AcDbEntity
  8
1
  6
Continuous
 62
     7
370
     9
100
AcDbVertex
100
AcDb2dVertex
 10
114.8231130895192
 20
121.7222654189413
 30
0.0
  0
VERTEX
  5
4A9
330
41F
100
AcDbEntity
  8
1
  6
Continuous
 62
     7
370
     9
100
AcDbVertex
100
AcDb2dVertex
 10
114.7976130895192
 20
121.7238654189413
 30
0.0
  0
VERTEX
  5
4AA
330
41F
100
AcDbEntity
  8
1
  6
Continuous
 62
     7
370
     9
100
AcDbVertex
100
AcDb2dVertex
 10
114.7722130895192
 20
121.7252654189413
 30
0.0
  0
VERTEX
  5
4AB
330
41F
100
AcDbEntity
  8
1
  6
Continuous
 62
     7
370
     9
100
AcDbVertex
100
AcDb2dVertex
 10
114.7468130895192
 20
121.7267654189413
 30
0.0
  0
VERTEX
  5
4AC
330
41F
100
AcDbEntity
  8
1
  6
Continuous
 62
     7
370
     9
100
AcDbVertex
100
AcDb2dVertex
 10
114.7214130895192
 20
121.7280654189413
 30
0.0
  0
VERTEX
  5
4AD
330
41F
100
AcDbEntity
  8
1
  6
Continuous
 62
     7
370
     9
100
AcDbVertex
100
AcDb2dVertex
 10
114.6960130895192
 20
121.7293654189413
 30
0.0
  0
VERTEX
  5
4AE
330
41F
100
AcDbEntity
  8
1
  6
Continuous
 62
     7
370
     9
100
AcDbVertex
100
AcDb2dVertex
 10
114.6705130895192
 20
121.7305654189413
 30
0.0
  0
VERTEX
  5
4AF
330
41F
100
AcDbEntity
  8
1
  6
Continuous
 62
     7
370
     9
100
AcDbVertex
100
AcDb2dVertex
 10
114.6451130895192
 20
121.7317654189413
 30
0.0
  0
VERTEX
  5
4B0
330
41F
100
AcDbEntity
  8
1
  6
Continuous
 62
     7
370
     9
100
AcDbVertex
100
AcDb2dVertex
 10
114.6197130895192
 20
121.7328654189413
 30
0.0
  0
VERTEX
  5
4B1
330
41F
100
AcDbEntity
  8
1
  6
Continuous
 62
     7
370
     9
100
AcDbVertex
100
AcDb2dVertex
 10
114.5943130895192
 20
121.7338654189413
 30
0.0
  0
VERTEX
  5
4B2
330
41F
100
AcDbEntity
  8
1
  6
Continuous
 62
     7
370
     9
100
AcDbVertex
100
AcDb2dVertex
 10
114.5689130895192
 20
121.7348654189413
 30
0.0
  0
VERTEX
  5
4B3
330
41F
100
AcDbEntity
  8
1
  6
Continuous
 62
     7
370
     9
100
AcDbVertex
100
AcDb2dVertex
 10
114.5435130895192
 20
121.7357654189413
 30
0.0
  0
VERTEX
  5
4B4
330
41F
100
AcDbEntity
  8
1
  6
Continuous
 62
     7
370
     9
100
AcDbVertex
100
AcDb2dVertex
 10
114.5180130895192
 20
121.7365654189413
 30
0.0
  0
VERTEX
  5
4B5
330
41F
100
AcDbEntity
  8
1
  6
Continuous
 62
     7
370
     9
100
AcDbVertex
100
AcDb2dVertex
 10
114.4926130895192
 20
121.7373654189413
 30
0.0
  0
VERTEX
  5
4B6
330
41F
100
AcDbEntity
  8
1
  6
Continuous
 62
     7
370
     9
100
AcDbVertex
100
AcDb2dVertex
 10
114.4672130895192
 20
121.7379654189413
 30
0.0
  0
VERTEX
  5
4B7
330
41F
100
AcDbEntity
  8
1
  6
Continuous
 62
     7
370
     9
100
AcDbVertex
100
AcDb2dVertex
 10
114.4418130895192
 20
121.7385654189413
 30
0.0
  0
VERTEX
  5
4B8
330
41F
100
AcDbEntity
  8
1
  6
Continuous
 62
     7
370
     9
100
AcDbVertex
100
AcDb2dVertex
 10
114.4164130895192
 20
121.7391654189413
 30
0.0
  0
VERTEX
  5
4B9
330
41F
100
AcDbEntity
  8
1
  6
Continuous
 62
     7
370
     9
100
AcDbVertex
100
AcDb2dVertex
 10
114.3909130895192
 20
121.7396654189413
 30
0.0
  0
VERTEX
  5
4BA
330
41F
100
AcDbEntity
  8
1
  6
Continuous
 62
     7
370
     9
100
AcDbVertex
100
AcDb2dVertex
 10
114.3655130895192
 20
121.7400654189413
 30
0.0
  0
VERTEX
  5
4BB
330
41F
100
AcDbEntity
  8
1
  6
Continuous
 62
     7
370
     9
100
AcDbVertex
100
AcDb2dVertex
 10
114.3401130895192
 20
121.7403654189413
 30
0.0
  0
VERTEX
  5
4BC
330
41F
100
AcDbEntity
  8
1
  6
Continuous
 62
     7
370
     9
100
AcDbVertex
100
AcDb2dVertex
 10
114.3147130895192
 20
121.7406654189413
 30
0.0
  0
VERTEX
  5
4BD
330
41F
100
AcDbEntity
  8
1
  6
Continuous
 62
     7
370
     9
100
AcDbVertex
100
AcDb2dVertex
 10
114.2893130895192
 20
121.7407654189413
 30
0.0
  0
VERTEX
  5
4BE
330
41F
100
AcDbEntity
  8
1
  6
Continuous
 62
     7
370
     9
100
AcDbVertex
100
AcDb2dVertex
 10
114.2639130895192
 20
121.7408654189413
 30
0.0
  0
VERTEX
  5
4BF
330
41F
100
AcDbEntity
  8
1
  6
Continuous
 62
     7
370
     9
100
AcDbVertex
100
AcDb2dVertex
 10
114.2384130895192
 20
121.7409654189413
 30
0.0
  0
SEQEND
  5
4C0
330
41F
100
AcDbEntity
  8
1
  6
Continuous
 62
     7
370
     9
  0
POLYLINE
  5
4C1
330
1F
100
AcDbEntity
  8
1
  6
Continuous
 62
     7
370
     9
100
AcDb2dPolyline
 66
     1
 10
0.0
 20
0.0
 30
0.0
  0
VERTEX
  5
4C2
330
4C1
100
AcDbEntity
  8
1
  6
Continuous
 62
     7
370
     9
100
AcDbVertex
100
AcDb2dVertex
 10
118.2799130895192
 20
115.3661654189413
 30
0.0
  0
VERTEX
  5
4C3
330
4C1
100
AcDbEntity
  8
1
  6
Continuous
 62
     7
370
     9
100
AcDbVertex
100
AcDb2dVertex
 10
118.2545130895192
 20
115.3602654189413
 30
0.0
  0
VERTEX
  5
4C4
330
4C1
100
AcDbEntity
  8
1
  6
Continuous
 62
     7
370
     9
100
AcDbVertex
100
AcDb2dVertex
 10
118.2291130895192
 20
115.3543654189413
 30
0.0
  0
VERTEX
  5
4C5
330
4C1
100
AcDbEntity
  8
1
  6
Continuous
 62
     7
370
     9
100
AcDbVertex
100
AcDb2dVertex
 10
118.2036130895192
 20
115.3484654189413
 30
0.0
  0
VERTEX
  5
4C6
330
4C1
100
AcDbEntity
  8
1
  6
Continuous
 62
     7
370
     9
100
AcDbVertex
100
AcDb2dVertex
 10
118.1782130895192
 20
115.3425654189413
 30
0.0
  0
VERTEX
  5
4C7
330
4C1
100
AcDbEntity
  8
1
  6
Continuous
 62
     7
370
     9
100
AcDbVertex
100
AcDb2dVertex
 10
118.1528130895192
 20
115.3366654189413
 30
0.0
  0
VERTEX
  5
4C8
330
4C1
100
AcDbEntity
  8
1
  6
Continuous
 62
     7
370
     9
100
AcDbVertex
100
AcDb2dVertex
 10
118.1274130895192
 20
115.3307654189413
 30
0.0
  0
VERTEX
  5
4C9
330
4C1
100
AcDbEntity
  8
1
  6
Continuous
 62
     7
370
     9
100
AcDbVertex
100
AcDb2dVertex
 10
118.1020130895192
 20
115.3248654189413
 30
0.0
  0
VERTEX
  5
4CA
330
4C1
100
AcDbEntity
  8
1
  6
Continuous
 62
     7
370
     9
100
AcDbVertex
100
AcDb2dVertex
 10
118.0765130895192
 20
115.3190654189413
 30
0.0
  0
VERTEX
  5
4CB
330
4C1
100
AcDbEntity
  8
1
  6
Continuous
 62
     7
370
     9
100
AcDbVertex
100
AcDb2dVertex
 10
118.0511130895192
 20
115.3131654189413
 30
0.0
  0
VERTEX
  5
4CC
330
4C1
100
AcDbEntity
  8
1
  6
Continuous
 62
     7
370
     9
100
AcDbVertex
100
AcDb2dVertex
 10
118.0257130895192
 20
115.3072654189413
 30
0.0
  0
VERTEX
  5
4CD
330
4C1
100
AcDbEntity
  8
1
  6
Continuous
 62
     7
370
     9
100
AcDbVertex
100
AcDb2dVertex
 10
118.0003130895192
 20
115.3013654189413
 30
0.0
  0
VERTEX
  5
4CE
330
4C1
100
AcDbEntity
  8
1
  6
Continuous
 62
     7
370
     9
100
AcDbVertex
100
AcDb2dVertex
 10
117.9749130895192
 20
115.2955654189413
 30
0.0
  0
VERTEX
  5
4CF
330
4C1
100
AcDbEntity
  8
1
  6
Continuous
 62
     7
370
     9
100
AcDbVertex
100
AcDb2dVertex
 10
117.9495130895192
 20
115.2896654189413
 30
0.0
  0
VERTEX
  5
4D0
330
4C1
100
AcDbEntity
  8
1
  6
Continuous
 62
     7
370
     9
100
AcDbVertex
100
AcDb2dVertex
 10
117.9240130895192
 20
115.2837654189413
 30
0.0
  0
VERTEX
  5
4D1
330
4C1
100
AcDbEntity
  8
1
  6
Continuous
 62
     7
370
     9
100
AcDbVertex
100
AcDb2dVertex
 10
117.8986130895192
 20
115.2779654189413
 30
0.0
  0
VERTEX
  5
4D2
330
4C1
100
AcDbEntity
  8
1
  6
Continuous
 62
     7
370
     9
100
AcDbVertex
100
AcDb2dVertex
 10
117.8732130895192
 20
115.2720654189413
 30
0.0
  0
VERTEX
  5
4D3
330
4C1
100
AcDbEntity
  8
1
  6
Continuous
 62
     7
370
     9
100
AcDbVertex
100
AcDb2dVertex
 10
117.8478130895192
 20
115.2662654189413
 30
0.0
  0
VERTEX
  5
4D4
330
4C1
100
AcDbEntity
  8
1
  6
Continuous
 62
     7
370
     9
100
AcDbVertex
100
AcDb2dVertex
 10
117.8224130895192
 20
115.2604654189413
 30
0.0
  0
VERTEX
  5
4D5
330
4C1
100
AcDbEntity
  8
1
  6
Continuous
 62
     7
370
     9
100
AcDbVertex
100
AcDb2dVertex
 10
117.7969130895192
 20
115.2546654189413
 30
0.0
  0
VERTEX
  5
4D6
330
4C1
100
AcDbEntity
  8
1
  6
Continuous
 62
     7
370
     9
100
AcDbVertex
100
AcDb2dVertex
 10
117.7715130895192
 20
115.2488654189413
 30
0.0
  0
VERTEX
  5
4D7
330
4C1
100
AcDbEntity
  8
1
  6
Continuous
 62
     7
370
     9
100
AcDbVertex
100
AcDb2dVertex
 10
117.7461130895192
 20
115.2430654189413
 30
0.0
  0
VERTEX
  5
4D8
330
4C1
100
AcDbEntity
  8
1
  6
Continuous
 62
     7
370
     9
100
AcDbVertex
100
AcDb2dVertex
 10
117.7207130895192
 20
115.2372654189413
 30
0.0
  0
VERTEX
  5
4D9
330
4C1
100
AcDbEntity
  8
1
  6
Continuous
 62
     7
370
     9
100
AcDbVertex
100
AcDb2dVertex
 10
117.6953130895192
 20
115.2314654189413
 30
0.0
  0
VERTEX
  5
4DA
330
4C1
100
AcDbEntity
  8
1
  6
Continuous
 62
     7
370
     9
100
AcDbVertex
100
AcDb2dVertex
 10
117.6699130895192
 20
115.2256654189413
 30
0.0
  0
VERTEX
  5
4DB
330
4C1
100
AcDbEntity
  8
1
  6
Continuous
 62
     7
370
     9
100
AcDbVertex
100
AcDb2dVertex
 10
117.6444130895192
 20
115.2199654189413
 30
0.0
  0
VERTEX
  5
4DC
330
4C1
100
AcDbEntity
  8
1
  6
Continuous
 62
     7
370
     9
100
AcDbVertex
100
AcDb2dVertex
 10
117.6190130895192
 20
115.2141654189413
 30
0.0
  0
VERTEX
  5
4DD
330
4C1
100
AcDbEntity
  8
1
  6
Continuous
 62
     7
370
     9
100
AcDbVertex
100
AcDb2dVertex
 10
117.5936130895192
 20
115.2084654189413
 30
0.0
  0
VERTEX
  5
4DE
330
4C1
100
AcDbEntity
  8
1
  6
Continuous
 62
     7
370
     9
100
AcDbVertex
100
AcDb2dVertex
 10
117.5682130895192
 20
115.2027654189413
 30
0.0
  0
VERTEX
  5
4DF
330
4C1
100
AcDbEntity
  8
1
  6
Continuous
 62
     7
370
     9
100
AcDbVertex
100
AcDb2dVertex
 10
117.5428130895192
 20
115.1969654189413
 30
0.0
  0
VERTEX
  5
4E0
330
4C1
100
AcDbEntity
  8
1
  6
Continuous
 62
     7
370
     9
100
AcDbVertex
100
AcDb2dVertex
 10
117.5174130895192
 20
115.1913654189413
 30
0.0
  0
VERTEX
  5
4E1
330
4C1
100
AcDbEntity
  8
1
  6
Continuous
 62
     7
370
     9
100
AcDbVertex
100
AcDb2dVertex
 10
117.4919130895192
 20
115.1856654189413
 30
0.0
  0
VERTEX
  5
4E2
330
4C1
100
AcDbEntity
  8
1
  6
Continuous
 62
     7
370
     9
100
AcDbVertex
100
AcDb2dVertex
 10
117.4665130895192
 20
115.1799654189413
 30
0.0
  0
VERTEX
  5
4E3
330
4C1
100
AcDbEntity
  8
1
  6
Continuous
 62
     7
370
     9
100
AcDbVertex
100
AcDb2dVertex
 10
117.4411130895192
 20
115.1743654189413
 30
0.0
  0
VERTEX
  5
4E4
330
4C1
100
AcDbEntity
  8
1
  6
Continuous
 62
     7
370
     9
100
AcDbVertex
100
AcDb2dVertex
 10
117.4157130895192
 20
115.1686654189413
 30
0.0
  0
VERTEX
  5
4E5
330
4C1
100
AcDbEntity
  8
1
  6
Continuous
 62
     7
370
     9
100
AcDbVertex
100
AcDb2dVertex
 10
117.3903130895192
 20
115.1630654189413
 30
0.0
  0
VERTEX
  5
4E6
330
4C1
100
AcDbEntity
  8
1
  6
Continuous
 62
     7
370
     9
100
AcDbVertex
100
AcDb2dVertex
 10
117.3648130895192
 20
115.1574654189413
 30
0.0
  0
VERTEX
  5
4E7
330
4C1
100
AcDbEntity
  8
1
  6
Continuous
 62
     7
370
     9
100
AcDbVertex
100
AcDb2dVertex
 10
117.3394130895192
 20
115.1518654189413
 30
0.0
  0
VERTEX
  5
4E8
330
4C1
100
AcDbEntity
  8
1
  6
Continuous
 62
     7
370
     9
100
AcDbVertex
100
AcDb2dVertex
 10
117.3140130895192
 20
115.1462654189413
 30
0.0
  0
VERTEX
  5
4E9
330
4C1
100
AcDbEntity
  8
1
  6
Continuous
 62
     7
370
     9
100
AcDbVertex
100
AcDb2dVertex
 10
117.2886130895192
 20
115.1407654189413
 30
0.0
  0
VERTEX
  5
4EA
330
4C1
100
AcDbEntity
  8
1
  6
Continuous
 62
     7
370
     9
100
AcDbVertex
100
AcDb2dVertex
 10
117.2632130895192
 20
115.1351654189413
 30
0.0
  0
VERTEX
  5
4EB
330
4C1
100
AcDbEntity
  8
1
  6
Continuous
 62
     7
370
     9
100
AcDbVertex
100
AcDb2dVertex
 10
117.2378130895192
 20
115.1296654189413
 30
0.0
  0
VERTEX
  5
4EC
330
4C1
100
AcDbEntity
  8
1
  6
Continuous
 62
     7
370
     9
100
AcDbVertex
100
AcDb2dVertex
 10
117.2123130895192
 20
115.1241654189413
 30
0.0
  0
VERTEX
  5
4ED
330
4C1
100
AcDbEntity
  8
1
  6
Continuous
 62
     7
370
     9
100
AcDbVertex
100
AcDb2dVertex
 10
117.1869130895192
 20
115.1187654189413
 30
0.0
  0
VERTEX
  5
4EE
330
4C1
100
AcDbEntity
  8
1
  6
Continuous
 62
     7
370
     9
100
AcDbVertex
100
AcDb2dVertex
 10
117.1615130895192
 20
115.1132654189413
 30
0.0
  0
VERTEX
  5
4EF
330
4C1
100
AcDbEntity
  8
1
  6
Continuous
 62
     7
370
     9
100
AcDbVertex
100
AcDb2dVertex
 10
117.1361130895192
 20
115.1078654189413
 30
0.0
  0
VERTEX
  5
4F0
330
4C1
100
AcDbEntity
  8
1
  6
Continuous
 62
     7
370
     9
100
AcDbVertex
100
AcDb2dVertex
 10
117.1107130895192
 20
115.1023654189413
 30
0.0
  0
VERTEX
  5
4F1
330
4C1
100
AcDbEntity
  8
1
  6
Continuous
 62
     7
370
     9
100
AcDbVertex
100
AcDb2dVertex
 10
117.0852130895192
 20
115.0970654189413
 30
0.0
  0
VERTEX
  5
4F2
330
4C1
100
AcDbEntity
  8
1
  6
Continuous
 62
     7
370
     9
100
AcDbVertex
100
AcDb2dVertex
 10
117.0598130895192
 20
115.0916654189413
 30
0.0
  0
VERTEX
  5
4F3
330
4C1
100
AcDbEntity
  8
1
  6
Continuous
 62
     7
370
     9
100
AcDbVertex
100
AcDb2dVertex
 10
117.0344130895192
 20
115.0862654189413
 30
0.0
  0
VERTEX
  5
4F4
330
4C1
100
AcDbEntity
  8
1
  6
Continuous
 62
     7
370
     9
100
AcDbVertex
100
AcDb2dVertex
 10
117.0090130895192
 20
115.0809654189413
 30
0.0
  0
VERTEX
  5
4F5
330
4C1
100
AcDbEntity
  8
1
  6
Continuous
 62
     7
370
     9
100
AcDbVertex
100
AcDb2dVertex
 10
116.9836130895192
 20
115.0756654189413
 30
0.0
  0
VERTEX
  5
4F6
330
4C1
100
AcDbEntity
  8
1
  6
Continuous
 62
     7
370
     9
100
AcDbVertex
100
AcDb2dVertex
 10
116.9582130895192
 20
115.0703654189413
 30
0.0
  0
VERTEX
  5
4F7
330
4C1
100
AcDbEntity
  8
1
  6
Continuous
 62
     7
370
     9
100
AcDbVertex
100
AcDb2dVertex
 10
116.9327130895192
 20
115.0651654189413
 30
0.0
  0
VERTEX
  5
4F8
330
4C1
100
AcDbEntity
  8
1
  6
Continuous
 62
     7
370
     9
100
AcDbVertex
100
AcDb2dVertex
 10
116.9073130895192
 20
115.0598654189413
 30
0.0
  0
VERTEX
  5
4F9
330
4C1
100
AcDbEntity
  8
1
  6
Continuous
 62
     7
370
     9
100
AcDbVertex
100
AcDb2dVertex
 10
116.8819130895192
 20
115.0546654189413
 30
0.0
  0
VERTEX
  5
4FA
330
4C1
100
AcDbEntity
  8
1
  6
Continuous
 62
     7
370
     9
100
AcDbVertex
100
AcDb2dVertex
 10
116.8565130895192
 20
115.0495654189413
 30
0.0
  0
VERTEX
  5
4FB
330
4C1
100
AcDbEntity
  8
1
  6
Continuous
 62
     7
370
     9
100
AcDbVertex
100
AcDb2dVertex
 10
116.8311130895192
 20
115.0443654189413
 30
0.0
  0
VERTEX
  5
4FC
330
4C1
100
AcDbEntity
  8
1
  6
Continuous
 62
     7
370
     9
100
AcDbVertex
100
AcDb2dVertex
 10
116.8056130895192
 20
115.0392654189413
 30
0.0
  0
VERTEX
  5
4FD
330
4C1
100
AcDbEntity
  8
1
  6
Continuous
 62
     7
370
     9
100
AcDbVertex
100
AcDb2dVertex
 10
116.7802130895192
 20
115.0341654189413
 30
0.0
  0
VERTEX
  5
4FE
330
4C1
100
AcDbEntity
  8
1
  6
Continuous
 62
     7
370
     9
100
AcDbVertex
100
AcDb2dVertex
 10
116.7548130895192
 20
115.0290654189413
 30
0.0
  0
VERTEX
  5
4FF
330
4C1
100
AcDbEntity
  8
1
  6
Continuous
 62
     7
370
     9
100
AcDbVertex
100
AcDb2dVertex
 10
116.7294130895192
 20
115.0240654189413
 30
0.0
  0
VERTEX
  5
500
330
4C1
100
AcDbEntity
  8
1
  6
Continuous
 62
     7
370
     9
100
AcDbVertex
100
AcDb2dVertex
 10
116.7040130895192
 20
115.0189654189413
 30
0.0
  0
VERTEX
  5
501
330
4C1
100
AcDbEntity
  8
1
  6
Continuous
 62
     7
370
     9
100
AcDbVertex
100
AcDb2dVertex
 10
116.6786130895192
 20
115.0140654189413
 30
0.0
  0
VERTEX
  5
502
330
4C1
100
AcDbEntity
  8
1
  6
Continuous
 62
     7
370
     9
100
AcDbVertex
100
AcDb2dVertex
 10
116.6531130895192
 20
115.0090654189413
 30
0.0
  0
VERTEX
  5
503
330
4C1
100
AcDbEntity
  8
1
  6
Continuous
 62
     7
370
     9
100
AcDbVertex
100
AcDb2dVertex
 10
116.6277130895192
 20
115.0041654189413
 30
0.0
  0
VERTEX
  5
504
330
4C1
100
AcDbEntity
  8
1
  6
Continuous
 62
     7
370
     9
100
AcDbVertex
100
AcDb2dVertex
 10
116.6023130895192
 20
114.9992654189413
 30
0.0
  0
VERTEX
  5
505
330
4C1
100
AcDbEntity
  8
1
  6
Continuous
 62
     7
370
     9
100
AcDbVertex
100
AcDb2dVertex
 10
116.5769130895192
 20
114.9943654189413
 30
0.0
  0
VERTEX
  5
506
330
4C1
100
AcDbEntity
  8
1
  6
Continuous
 62
     7
370
     9
100
AcDbVertex
100
AcDb2dVertex
 10
116.5515130895192
 20
114.9895654189413
 30
0.0
  0
VERTEX
  5
507
330
4C1
100
AcDbEntity
  8
1
  6
Continuous
 62
     7
370
     9
100
AcDbVertex
100
AcDb2dVertex
 10
116.5261130895192
 20
114.9847654189413
 30
0.0
  0
VERTEX
  5
508
330
4C1
100
AcDbEntity
  8
1
  6
Continuous
 62
     7
370
     9
100
AcDbVertex
100
AcDb2dVertex
 10
116.5006130895192
 20
114.9799654189413
 30
0.0
  0
VERTEX
  5
509
330
4C1
100
AcDbEntity
  8
1
  6
Continuous
 62
     7
370
     9
100
AcDbVertex
100
AcDb2dVertex
 10
116.4752130895192
 20
114.9752654189413
 30
0.0
  0
VERTEX
  5
50A
330
4C1
100
AcDbEntity
  8
1
  6
Continuous
 62
     7
370
     9
100
AcDbVertex
100
AcDb2dVertex
 10
116.4498130895192
 20
114.9705654189413
 30
0.0
  0
VERTEX
  5
50B
330
4C1
100
AcDbEntity
  8
1
  6
Continuous
 62
     7
370
     9
100
AcDbVertex
100
AcDb2dVertex
 10
116.4244130895192
 20
114.9658654189413
 30
0.0
  0
VERTEX
  5
50C
330
4C1
100
AcDbEntity
  8
1
  6
Continuous
 62
     7
370
     9
100
AcDbVertex
100
AcDb2dVertex
 10
116.3990130895192
 20
114.9611654189413
 30
0.0
  0
VERTEX
  5
50D
330
4C1
100
AcDbEntity
  8
1
  6
Continuous
 62
     7
370
     9
100
AcDbVertex
100
AcDb2dVertex
 10
116.3735130895192
 20
114.9565654189413
 30
0.0
  0
VERTEX
  5
50E
330
4C1
100
AcDbEntity
  8
1
  6
Continuous
 62
     7
370
     9
100
AcDbVertex
100
AcDb2dVertex
 10
116.3481130895192
 20
114.9520654189413
 30
0.0
  0
VERTEX
  5
50F
330
4C1
100
AcDbEntity
  8
1
  6
Continuous
 62
     7
370
     9
100
AcDbVertex
100
AcDb2dVertex
 10
116.3227130895192
 20
114.9474654189413
 30
0.0
  0
VERTEX
  5
510
330
4C1
100
AcDbEntity
  8
1
  6
Continuous
 62
     7
370
     9
100
AcDbVertex
100
AcDb2dVertex
 10
116.2973130895192
 20
114.9429654189413
 30
0.0
  0
VERTEX
  5
511
330
4C1
100
AcDbEntity
  8
1
  6
Continuous
 62
     7
370
     9
100
AcDbVertex
100
AcDb2dVertex
 10
116.2719130895192
 20
114.9385654189413
 30
0.0
  0
VERTEX
  5
512
330
4C1
100
AcDbEntity
  8
1
  6
Continuous
 62
     7
370
     9
100
AcDbVertex
100
AcDb2dVertex
 10
116.2465130895192
 20
114.9341654189413
 30
0.0
  0
VERTEX
  5
513
330
4C1
100
AcDbEntity
  8
1
  6
Continuous
 62
     7
370
     9
100
AcDbVertex
100
AcDb2dVertex
 10
116.2210130895192
 20
114.9297654189413
 30
0.0
  0
VERTEX
  5
514
330
4C1
100
AcDbEntity
  8
1
  6
Continuous
 62
     7
370
     9
100
AcDbVertex
100
AcDb2dVertex
 10
116.1956130895192
 20
114.9253654189413
 30
0.0
  0
VERTEX
  5
515
330
4C1
100
AcDbEntity
  8
1
  6
Continuous
 62
     7
370
     9
100
AcDbVertex
100
AcDb2dVertex
 10
116.1702130895192
 20
114.9210654189413
 30
0.0
  0
VERTEX
  5
516
330
4C1
100
AcDbEntity
  8
1
  6
Continuous
 62
     7
370
     9
100
AcDbVertex
100
AcDb2dVertex
 10
116.1448130895192
 20
114.9167654189413
 30
0.0
  0
VERTEX
  5
517
330
4C1
100
AcDbEntity
  8
1
  6
Continuous
 62
     7
370
     9
100
AcDbVertex
100
AcDb2dVertex
 10
116.1194130895192
 20
114.9125654189413
 30
0.0
  0
VERTEX
  5
518
330
4C1
100
AcDbEntity
  8
1
  6
Continuous
 62
     7
370
     9
100
AcDbVertex
100
AcDb2dVertex
 10
116.0939130895192
 20
114.9083654189413
 30
0.0
  0
VERTEX
  5
519
330
4C1
100
AcDbEntity
  8
1
  6
Continuous
 62
     7
370
     9
100
AcDbVertex
100
AcDb2dVertex
 10
116.0685130895192
 20
114.9042654189413
 30
0.0
  0
VERTEX
  5
51A
330
4C1
100
AcDbEntity
  8
1
  6
Continuous
 62
     7
370
     9
100
AcDbVertex
100
AcDb2dVertex
 10
116.0431130895192
 20
114.9001654189413
 30
0.0
  0
VERTEX
  5
51B
330
4C1
100
AcDbEntity
  8
1
  6
Continuous
 62
     7
370
     9
100
AcDbVertex
100
AcDb2dVertex
 10
116.0177130895192
 20
114.8960654189413
 30
0.0
  0
VERTEX
  5
51C
330
4C1
100
AcDbEntity
  8
1
  6
Continuous
 62
     7
370
     9
100
AcDbVertex
100
AcDb2dVertex
 10
115.9923130895192
 20
114.8919654189413
 30
0.0
  0
VERTEX
  5
51D
330
4C1
100
AcDbEntity
  8
1
  6
Continuous
 62
     7
370
     9
100
AcDbVertex
100
AcDb2dVertex
 10
115.9669130895192
 20
114.8880654189413
 30
0.0
  0
VERTEX
  5
51E
330
4C1
100
AcDbEntity
  8
1
  6
Continuous
 62
     7
370
     9
100
AcDbVertex
100
AcDb2dVertex
 10
115.9414130895192
 20
114.8840654189413
 30
0.0
  0
VERTEX
  5
51F
330
4C1
100
AcDbEntity
  8
1
  6
Continuous
 62
     7
370
     9
100
AcDbVertex
100
AcDb2dVertex
 10
115.9160130895192
 20
114.8801654189413
 30
0.0
  0
VERTEX
  5
520
330
4C1
100
AcDbEntity
  8
1
  6
Continuous
 62
     7
370
     9
100
AcDbVertex
100
AcDb2dVertex
 10
115.8906130895192
 20
114.8763654189413
 30
0.0
  0
VERTEX
  5
521
330
4C1
100
AcDbEntity
  8
1
  6
Continuous
 62
     7
370
     9
100
AcDbVertex
100
AcDb2dVertex
 10
115.8652130895192
 20
114.8724654189413
 30
0.0
  0
VERTEX
  5
522
330
4C1
100
AcDbEntity
  8
1
  6
Continuous
 62
     7
370
     9
100
AcDbVertex
100
AcDb2dVertex
 10
115.8398130895192
 20
114.8687654189413
 30
0.0
  0
VERTEX
  5
523
330
4C1
100
AcDbEntity
  8
1
  6
Continuous
 62
     7
370
     9
100
AcDbVertex
100
AcDb2dVertex
 10
115.8143130895192
 20
114.8649654189413
 30
0.0
  0
VERTEX
  5
524
330
4C1
100
AcDbEntity
  8
1
  6
Continuous
 62
     7
370
     9
100
AcDbVertex
100
AcDb2dVertex
 10
115.7889130895192
 20
114.8613654189413
 30
0.0
  0
VERTEX
  5
525
330
4C1
100
AcDbEntity
  8
1
  6
Continuous
 62
     7
370
     9
100
AcDbVertex
100
AcDb2dVertex
 10
115.7635130895192
 20
114.8576654189413
 30
0.0
  0
VERTEX
  5
526
330
4C1
100
AcDbEntity
  8
1
  6
Continuous
 62
     7
370
     9
100
AcDbVertex
100
AcDb2dVertex
 10
115.7381130895192
 20
114.8540654189413
 30
0.0
  0
VERTEX
  5
527
330
4C1
100
AcDbEntity
  8
1
  6
Continuous
 62
     7
370
     9
100
AcDbVertex
100
AcDb2dVertex
 10
115.7127130895192
 20
114.8505654189413
 30
0.0
  0
VERTEX
  5
528
330
4C1
100
AcDbEntity
  8
1
  6
Continuous
 62
     7
370
     9
100
AcDbVertex
100
AcDb2dVertex
 10
115.6873130895192
 20
114.8470654189413
 30
0.0
  0
VERTEX
  5
529
330
4C1
100
AcDbEntity
  8
1
  6
Continuous
 62
     7
370
     9
100
AcDbVertex
100
AcDb2dVertex
 10
115.6618130895192
 20
114.8436654189413
 30
0.0
  0
VERTEX
  5
52A
330
4C1
100
AcDbEntity
  8
1
  6
Continuous
 62
     7
370
     9
100
AcDbVertex
100
AcDb2dVertex
 10
115.6364130895192
 20
114.8402654189413
 30
0.0
  0
VERTEX
  5
52B
330
4C1
100
AcDbEntity
  8
1
  6
Continuous
 62
     7
370
     9
100
AcDbVertex
100
AcDb2dVertex
 10
115.6110130895192
 20
114.8368654189413
 30
0.0
  0
VERTEX
  5
52C
330
4C1
100
AcDbEntity
  8
1
  6
Continuous
 62
     7
370
     9
100
AcDbVertex
100
AcDb2dVertex
 10
115.5856130895192
 20
114.8335654189413
 30
0.0
  0
VERTEX
  5
52D
330
4C1
100
AcDbEntity
  8
1
  6
Continuous
 62
     7
370
     9
100
AcDbVertex
100
AcDb2dVertex
 10
115.5602130895192
 20
114.8303654189413
 30
0.0
  0
VERTEX
  5
52E
330
4C1
100
AcDbEntity
  8
1
  6
Continuous
 62
     7
370
     9
100
AcDbVertex
100
AcDb2dVertex
 10
115.5348130895192
 20
114.8271654189413
 30
0.0
  0
VERTEX
  5
52F
330
4C1
100
AcDbEntity
  8
1
  6
Continuous
 62
     7
370
     9
100
AcDbVertex
100
AcDb2dVertex
 10
115.5093130895192
 20
114.8239654189413
 30
0.0
  0
VERTEX
  5
530
330
4C1
100
AcDbEntity
  8
1
  6
Continuous
 62
     7
370
     9
100
AcDbVertex
100
AcDb2dVertex
 10
115.4839130895192
 20
114.8208654189413
 30
0.0
  0
VERTEX
  5
531
330
4C1
100
AcDbEntity
  8
1
  6
Continuous
 62
     7
370
     9
100
AcDbVertex
100
AcDb2dVertex
 10
115.4585130895192
 20
114.8178654189413
 30
0.0
  0
VERTEX
  5
532
330
4C1
100
AcDbEntity
  8
1
  6
Continuous
 62
     7
370
     9
100
AcDbVertex
100
AcDb2dVertex
 10
115.4331130895192
 20
114.8148654189413
 30
0.0
  0
VERTEX
  5
533
330
4C1
100
AcDbEntity
  8
1
  6
Continuous
 62
     7
370
     9
100
AcDbVertex
100
AcDb2dVertex
 10
115.4077130895192
 20
114.8118654189413
 30
0.0
  0
VERTEX
  5
534
330
4C1
100
AcDbEntity
  8
1
  6
Continuous
 62
     7
370
     9
100
AcDbVertex
100
AcDb2dVertex
 10
115.3822130895192
 20
114.8089654189413
 30
0.0
  0
VERTEX
  5
535
330
4C1
100
AcDbEntity
  8
1
  6
Continuous
 62
     7
370
     9
100
AcDbVertex
100
AcDb2dVertex
 10
115.3568130895192
 20
114.8061654189413
 30
0.0
  0
VERTEX
  5
536
330
4C1
100
AcDbEntity
  8
1
  6
Continuous
 62
     7
370
     9
100
AcDbVertex
100
AcDb2dVertex
 10
115.3314130895192
 20
114.8033654189413
 30
0.0
  0
VERTEX
  5
537
330
4C1
100
AcDbEntity
  8
1
  6
Continuous
 62
     7
370
     9
100
AcDbVertex
100
AcDb2dVertex
 10
115.3060130895192
 20
114.8006654189413
 30
0.0
  0
VERTEX
  5
538
330
4C1
100
AcDbEntity
  8
1
  6
Continuous
 62
     7
370
     9
100
AcDbVertex
100
AcDb2dVertex
 10
115.2806130895192
 20
114.7979654189413
 30
0.0
  0
VERTEX
  5
539
330
4C1
100
AcDbEntity
  8
1
  6
Continuous
 62
     7
370
     9
100
AcDbVertex
100
AcDb2dVertex
 10
115.2552130895192
 20
114.7953654189413
 30
0.0
  0
VERTEX
  5
53A
330
4C1
100
AcDbEntity
  8
1
  6
Continuous
 62
     7
370
     9
100
AcDbVertex
100
AcDb2dVertex
 10
115.2297130895192
 20
114.7927654189413
 30
0.0
  0
VERTEX
  5
53B
330
4C1
100
AcDbEntity
  8
1
  6
Continuous
 62
     7
370
     9
100
AcDbVertex
100
AcDb2dVertex
 10
115.2043130895192
 20
114.7902654189413
 30
0.0
  0
VERTEX
  5
53C
330
4C1
100
AcDbEntity
  8
1
  6
Continuous
 62
     7
370
     9
100
AcDbVertex
100
AcDb2dVertex
 10
115.1789130895192
 20
114.7877654189413
 30
0.0
  0
VERTEX
  5
53D
330
4C1
100
AcDbEntity
  8
1
  6
Continuous
 62
     7
370
     9
100
AcDbVertex
100
AcDb2dVertex
 10
115.1535130895192
 20
114.7853654189413
 30
0.0
  0
VERTEX
  5
53E
330
4C1
100
AcDbEntity
  8
1
  6
Continuous
 62
     7
370
     9
100
AcDbVertex
100
AcDb2dVertex
 10
115.1281130895192
 20
114.7830654189413
 30
0.0
  0
VERTEX
  5
53F
330
4C1
100
AcDbEntity
  8
1
  6
Continuous
 62
     7
370
     9
100
AcDbVertex
100
AcDb2dVertex
 10
115.1026130895192
 20
114.7807654189413
 30
0.0
  0
VERTEX
  5
540
330
4C1
100
AcDbEntity
  8
1
  6
Continuous
 62
     7
370
     9
100
AcDbVertex
100
AcDb2dVertex
 10
115.0772130895192
 20
114.7785654189413
 30
0.0
  0
VERTEX
  5
541
330
4C1
100
AcDbEntity
  8
1
  6
Continuous
 62
     7
370
     9
100
AcDbVertex
100
AcDb2dVertex
 10
115.0518130895192
 20
114.7763654189413
 30
0.0
  0
VERTEX
  5
542
330
4C1
100
AcDbEntity
  8
1
  6
Continuous
 62
     7
370
     9
100
AcDbVertex
100
AcDb2dVertex
 10
115.0264130895192
 20
114.7742654189413
 30
0.0
  0
VERTEX
  5
543
330
4C1
100
AcDbEntity
  8
1
  6
Continuous
 62
     7
370
     9
100
AcDbVertex
100
AcDb2dVertex
 10
115.0010130895192
 20
114.7722654189413
 30
0.0
  0
VERTEX
  5
544
330
4C1
100
AcDbEntity
  8
1
  6
Continuous
 62
     7
370
     9
100
AcDbVertex
100
AcDb2dVertex
 10
114.9756130895192
 20
114.7702654189413
 30
0.0
  0
VERTEX
  5
545
330
4C1
100
AcDbEntity
  8
1
  6
Continuous
 62
     7
370
     9
100
AcDbVertex
100
AcDb2dVertex
 10
114.9501130895192
 20
114.7683654189413
 30
0.0
  0
VERTEX
  5
546
330
4C1
100
AcDbEntity
  8
1
  6
Continuous
 62
     7
370
     9
100
AcDbVertex
100
AcDb2dVertex
 10
114.9247130895192
 20
114.7664654189413
 30
0.0
  0
VERTEX
  5
547
330
4C1
100
AcDbEntity
  8
1
  6
Continuous
 62
     7
370
     9
100
AcDbVertex
100
AcDb2dVertex
 10
114.8993130895192
 20
114.7646654189413
 30
0.0
  0
VERTEX
  5
548
330
4C1
100
AcDbEntity
  8
1
  6
Continuous
 62
     7
370
     9
100
AcDbVertex
100
AcDb2dVertex
 10
114.8739130895192
 20
114.7629654189413
 30
0.0
  0
VERTEX
  5
549
330
4C1
100
AcDbEntity
  8
1
  6
Continuous
 62
     7
370
     9
100
AcDbVertex
100
AcDb2dVertex
 10
114.8485130895192
 20
114.7612654189413
 30
0.0
  0
VERTEX
  5
54A
330
4C1
100
AcDbEntity
  8
1
  6
Continuous
 62
     7
370
     9
100
AcDbVertex
100
AcDb2dVertex
 10
114.8231130895192
 20
114.7596654189413
 30
0.0
  0
VERTEX
  5
54B
330
4C1
100
AcDbEntity
  8
1
  6
Continuous
 62
     7
370
     9
100
AcDbVertex
100
AcDb2dVertex
 10
114.7976130895192
 20
114.7580654189413
 30
0.0
  0
VERTEX
  5
54C
330
4C1
100
AcDbEntity
  8
1
  6
Continuous
 62
     7
370
     9
100
AcDbVertex
100
AcDb2dVertex
 10
114.7722130895192
 20
114.7565654189413
 30
0.0
  0
VERTEX
  5
54D
330
4C1
100
AcDbEntity
  8
1
  6
Continuous
 62
     7
370
     9
100
AcDbVertex
100
AcDb2dVertex
 10
114.7468130895192
 20
114.7551654189413
 30
0.0
  0
VERTEX
  5
54E
330
4C1
100
AcDbEntity
  8
1
  6
Continuous
 62
     7
370
     9
100
AcDbVertex
100
AcDb2dVertex
 10
114.7214130895192
 20
114.7537654189413
 30
0.0
  0
VERTEX
  5
54F
330
4C1
100
AcDbEntity
  8
1
  6
Continuous
 62
     7
370
     9
100
AcDbVertex
100
AcDb2dVertex
 10
114.6960130895192
 20
114.7524654189413
 30
0.0
  0
VERTEX
  5
550
330
4C1
100
AcDbEntity
  8
1
  6
Continuous
 62
     7
370
     9
100
AcDbVertex
100
AcDb2dVertex
 10
114.6705130895192
 20
114.7512654189413
 30
0.0
  0
VERTEX
  5
551
330
4C1
100
AcDbEntity
  8
1
  6
Continuous
 62
     7
370
     9
100
AcDbVertex
100
AcDb2dVertex
 10
114.6451130895192
 20
114.7501654189413
 30
0.0
  0
VERTEX
  5
552
330
4C1
100
AcDbEntity
  8
1
  6
Continuous
 62
     7
370
     9
100
AcDbVertex
100
AcDb2dVertex
 10
114.6197130895192
 20
114.7490654189413
 30
0.0
  0
VERTEX
  5
553
330
4C1
100
AcDbEntity
  8
1
  6
Continuous
 62
     7
370
     9
100
AcDbVertex
100
AcDb2dVertex
 10
114.5943130895192
 20
114.7479654189413
 30
0.0
  0
VERTEX
  5
554
330
4C1
100
AcDbEntity
  8
1
  6
Continuous
 62
     7
370
     9
100
AcDbVertex
100
AcDb2dVertex
 10
114.5689130895192
 20
114.7470654189413
 30
0.0
  0
VERTEX
  5
555
330
4C1
100
AcDbEntity
  8
1
  6
Continuous
 62
     7
370
     9
100
AcDbVertex
100
AcDb2dVertex
 10
114.5435130895192
 20
114.7461654189413
 30
0.0
  0
VERTEX
  5
556
330
4C1
100
AcDbEntity
  8
1
  6
Continuous
 62
     7
370
     9
100
AcDbVertex
100
AcDb2dVertex
 10
114.5180130895192
 20
114.7453654189413
 30
0.0
  0
VERTEX
  5
557
330
4C1
100
AcDbEntity
  8
1
  6
Continuous
 62
     7
370
     9
100
AcDbVertex
100
AcDb2dVertex
 10
114.4926130895192
 20
114.7445654189413
 30
0.0
  0
VERTEX
  5
558
330
4C1
100
AcDbEntity
  8
1
  6
Continuous
 62
     7
370
     9
100
AcDbVertex
100
AcDb2dVertex
 10
114.4672130895192
 20
114.7438654189413
 30
0.0
  0
VERTEX
  5
559
330
4C1
100
AcDbEntity
  8
1
  6
Continuous
 62
     7
370
     9
100
AcDbVertex
100
AcDb2dVertex
 10
114.4418130895192
 20
114.7432654189413
 30
0.0
  0
VERTEX
  5
55A
330
4C1
100
AcDbEntity
  8
1
  6
Continuous
 62
     7
370
     9
100
AcDbVertex
100
AcDb2dVertex
 10
114.4164130895192
 20
114.7427654189413
 30
0.0
  0
VERTEX
  5
55B
330
4C1
100
AcDbEntity
  8
1
  6
Continuous
 62
     7
370
     9
100
AcDbVertex
100
AcDb2dVertex
 10
114.3909130895192
 20
114.7422654189413
 30
0.0
  0
VERTEX
  5
55C
330
4C1
100
AcDbEntity
  8
1
  6
Continuous
 62
     7
370
     9
100
AcDbVertex
100
AcDb2dVertex
 10
114.3655130895192
 20
114.7418654189413
 30
0.0
  0
VERTEX
  5
55D
330
4C1
100
AcDbEntity
  8
1
  6
Continuous
 62
     7
370
     9
100
AcDbVertex
100
AcDb2dVertex
 10
114.3401130895192
 20
114.7415654189413
 30
0.0
  0
VERTEX
  5
55E
330
4C1
100
AcDbEntity
  8
1
  6
Continuous
 62
     7
370
     9
100
AcDbVertex
100
AcDb2dVertex
 10
114.3147130895192
 20
114.7412654189413
 30
0.0
  0
VERTEX
  5
55F
330
4C1
100
AcDbEntity
  8
1
  6
Continuous
 62
     7
370
     9
100
AcDbVertex
100
AcDb2dVertex
 10
114.2893130895192
 20
114.7410654189413
 30
0.0
  0
VERTEX
  5
560
330
4C1
100
AcDbEntity
  8
1
  6
Continuous
 62
     7
370
     9
100
AcDbVertex
100
AcDb2dVertex
 10
114.2639130895192
 20
114.7409654189413
 30
0.0
  0
VERTEX
  5
561
330
4C1
100
AcDbEntity
  8
1
  6
Continuous
 62
     7
370
     9
100
AcDbVertex
100
AcDb2dVertex
 10
114.2384130895192
 20
114.7409654189413
 30
0.0
  0
SEQEND
  5
562
330
4C1
100
AcDbEntity
  8
1
  6
Continuous
 62
     7
370
     9
  0
POLYLINE
  5
563
330
1F
100
AcDbEntity
  8
1
  6
Continuous
 62
     7
370
     9
100
AcDb2dPolyline
 66
     1
 10
0.0
 20
0.0
 30
0.0
  0
VERTEX
  5
564
330
563
100
AcDbEntity
  8
1
  6
Continuous
 62
     7
370
     9
100
AcDbVertex
100
AcDb2dVertex
 10
108.1763130895192
 20
114.7409654189413
 30
0.0
  0
VERTEX
  5
565
330
563
100
AcDbEntity
  8
1
  6
Continuous
 62
     7
370
     9
100
AcDbVertex
100
AcDb2dVertex
 10
108.1922130895192
 20
114.7409654189413
 30
0.0
  0
VERTEX
  5
566
330
563
100
AcDbEntity
  8
1
  6
Continuous
 62
     7
370
     9
100
AcDbVertex
100
AcDb2dVertex
 10
108.2081130895192
 20
114.7411654189413
 30
0.0
  0
VERTEX
  5
567
330
563
100
AcDbEntity
  8
1
  6
Continuous
 62
     7
370
     9
100
AcDbVertex
100
AcDb2dVertex
 10
108.2240130895192
 20
114.7414654189413
 30
0.0
  0
VERTEX
  5
568
330
563
100
AcDbEntity
  8
1
  6
Continuous
 62
     7
370
     9
100
AcDbVertex
100
AcDb2dVertex
 10
108.2399130895192
 20
114.7418654189413
 30
0.0
  0
VERTEX
  5
569
330
563
100
AcDbEntity
  8
1
  6
Continuous
 62
     7
370
     9
100
AcDbVertex
100
AcDb2dVertex
 10
108.2558130895192
 20
114.7423654189413
 30
0.0
  0
VERTEX
  5
56A
330
563
100
AcDbEntity
  8
1
  6
Continuous
 62
     7
370
     9
100
AcDbVertex
100
AcDb2dVertex
 10
108.2717130895192
 20
114.7429654189413
 30
0.0
  0
VERTEX
  5
56B
330
563
100
AcDbEntity
  8
1
  6
Continuous
 62
     7
370
     9
100
AcDbVertex
100
AcDb2dVertex
 10
108.2876130895192
 20
114.7437654189413
 30
0.0
  0
VERTEX
  5
56C
330
563
100
AcDbEntity
  8
1
  6
Continuous
 62
     7
370
     9
100
AcDbVertex
100
AcDb2dVertex
 10
108.3036130895192
 20
114.7445654189413
 30
0.0
  0
VERTEX
  5
56D
330
563
100
AcDbEntity
  8
1
  6
Continuous
 62
     7
370
     9
100
AcDbVertex
100
AcDb2dVertex
 10
108.3195130895192
 20
114.7455654189413
 30
0.0
  0
VERTEX
  5
56E
330
563
100
AcDbEntity
  8
1
  6
Continuous
 62
     7
370
     9
100
AcDbVertex
100
AcDb2dVertex
 10
108.3354130895192
 20
114.7465654189413
 30
0.0
  0
VERTEX
  5
56F
330
563
100
AcDbEntity
  8
1
  6
Continuous
 62
     7
370
     9
100
AcDbVertex
100
AcDb2dVertex
 10
108.3513130895192
 20
114.7477654189413
 30
0.0
  0
VERTEX
  5
570
330
563
100
AcDbEntity
  8
1
  6
Continuous
 62
     7
370
     9
100
AcDbVertex
100
AcDb2dVertex
 10
108.3672130895192
 20
114.7490654189413
 30
0.0
  0
VERTEX
  5
571
330
563
100
AcDbEntity
  8
1
  6
Continuous
 62
     7
370
     9
100
AcDbVertex
100
AcDb2dVertex
 10
108.3831130895192
 20
114.7504654189413
 30
0.0
  0
VERTEX
  5
572
330
563
100
AcDbEntity
  8
1
  6
Continuous
 62
     7
370
     9
100
AcDbVertex
100
AcDb2dVertex
 10
108.3990130895192
 20
114.7519654189413
 30
0.0
  0
VERTEX
  5
573
330
563
100
AcDbEntity
  8
1
  6
Continuous
 62
     7
370
     9
100
AcDbVertex
100
AcDb2dVertex
 10
108.4149130895192
 20
114.7535654189413
 30
0.0
  0
VERTEX
  5
574
330
563
100
AcDbEntity
  8
1
  6
Continuous
 62
     7
370
     9
100
AcDbVertex
100
AcDb2dVertex
 10
108.4308130895192
 20
114.7551654189413
 30
0.0
  0
VERTEX
  5
575
330
563
100
AcDbEntity
  8
1
  6
Continuous
 62
     7
370
     9
100
AcDbVertex
100
AcDb2dVertex
 10
108.4468130895192
 20
114.7569654189413
 30
0.0
  0
VERTEX
  5
576
330
563
100
AcDbEntity
  8
1
  6
Continuous
 62
     7
370
     9
100
AcDbVertex
100
AcDb2dVertex
 10
108.4627130895192
 20
114.7588654189413
 30
0.0
  0
VERTEX
  5
577
330
563
100
AcDbEntity
  8
1
  6
Continuous
 62
     7
370
     9
100
AcDbVertex
100
AcDb2dVertex
 10
108.4786130895192
 20
114.7608654189413
 30
0.0
  0
VERTEX
  5
578
330
563
100
AcDbEntity
  8
1
  6
Continuous
 62
     7
370
     9
100
AcDbVertex
100
AcDb2dVertex
 10
108.4945130895192
 20
114.7629654189413
 30
0.0
  0
VERTEX
  5
579
330
563
100
AcDbEntity
  8
1
  6
Continuous
 62
     7
370
     9
100
AcDbVertex
100
AcDb2dVertex
 10
108.5104130895192
 20
114.7651654189413
 30
0.0
  0
VERTEX
  5
57A
330
563
100
AcDbEntity
  8
1
  6
Continuous
 62
     7
370
     9
100
AcDbVertex
100
AcDb2dVertex
 10
108.5263130895192
 20
114.7674654189413
 30
0.0
  0
VERTEX
  5
57B
330
563
100
AcDbEntity
  8
1
  6
Continuous
 62
     7
370
     9
100
AcDbVertex
100
AcDb2dVertex
 10
108.5422130895192
 20
114.7698654189413
 30
0.0
  0
VERTEX
  5
57C
330
563
100
AcDbEntity
  8
1
  6
Continuous
 62
     7
370
     9
100
AcDbVertex
100
AcDb2dVertex
 10
108.5581130895192
 20
114.7723654189413
 30
0.0
  0
VERTEX
  5
57D
330
563
100
AcDbEntity
  8
1
  6
Continuous
 62
     7
370
     9
100
AcDbVertex
100
AcDb2dVertex
 10
108.5740130895192
 20
114.7748654189413
 30
0.0
  0
VERTEX
  5
57E
330
563
100
AcDbEntity
  8
1
  6
Continuous
 62
     7
370
     9
100
AcDbVertex
100
AcDb2dVertex
 10
108.5900130895192
 20
114.7775654189413
 30
0.0
  0
VERTEX
  5
57F
330
563
100
AcDbEntity
  8
1
  6
Continuous
 62
     7
370
     9
100
AcDbVertex
100
AcDb2dVertex
 10
108.6059130895192
 20
114.7803654189413
 30
0.0
  0
VERTEX
  5
580
330
563
100
AcDbEntity
  8
1
  6
Continuous
 62
     7
370
     9
100
AcDbVertex
100
AcDb2dVertex
 10
108.6218130895192
 20
114.7831654189413
 30
0.0
  0
VERTEX
  5
581
330
563
100
AcDbEntity
  8
1
  6
Continuous
 62
     7
370
     9
100
AcDbVertex
100
AcDb2dVertex
 10
108.6377130895192
 20
114.7861654189413
 30
0.0
  0
VERTEX
  5
582
330
563
100
AcDbEntity
  8
1
  6
Continuous
 62
     7
370
     9
100
AcDbVertex
100
AcDb2dVertex
 10
108.6536130895192
 20
114.7891654189413
 30
0.0
  0
VERTEX
  5
583
330
563
100
AcDbEntity
  8
1
  6
Continuous
 62
     7
370
     9
100
AcDbVertex
100
AcDb2dVertex
 10
108.6695130895192
 20
114.7922654189413
 30
0.0
  0
VERTEX
  5
584
330
563
100
AcDbEntity
  8
1
  6
Continuous
 62
     7
370
     9
100
AcDbVertex
100
AcDb2dVertex
 10
108.6854130895192
 20
114.7954654189413
 30
0.0
  0
VERTEX
  5
585
330
563
100
AcDbEntity
  8
1
  6
Continuous
 62
     7
370
     9
100
AcDbVertex
100
AcDb2dVertex
 10
108.7013130895192
 20
114.7987654189413
 30
0.0
  0
VERTEX
  5
586
330
563
100
AcDbEntity
  8
1
  6
Continuous
 62
     7
370
     9
100
AcDbVertex
100
AcDb2dVertex
 10
108.7172130895192
 20
114.8021654189413
 30
0.0
  0
VERTEX
  5
587
330
563
100
AcDbEntity
  8
1
  6
Continuous
 62
     7
370
     9
100
AcDbVertex
100
AcDb2dVertex
 10
108.7332130895192
 20
114.8056654189413
 30
0.0
  0
VERTEX
  5
588
330
563
100
AcDbEntity
  8
1
  6
Continuous
 62
     7
370
     9
100
AcDbVertex
100
AcDb2dVertex
 10
108.7491130895192
 20
114.8091654189413
 30
0.0
  0
VERTEX
  5
589
330
563
100
AcDbEntity
  8
1
  6
Continuous
 62
     7
370
     9
100
AcDbVertex
100
AcDb2dVertex
 10
108.7650130895192
 20
114.8128654189413
 30
0.0
  0
VERTEX
  5
58A
330
563
100
AcDbEntity
  8
1
  6
Continuous
 62
     7
370
     9
100
AcDbVertex
100
AcDb2dVertex
 10
108.7809130895192
 20
114.8165654189413
 30
0.0
  0
VERTEX
  5
58B
330
563
100
AcDbEntity
  8
1
  6
Continuous
 62
     7
370
     9
100
AcDbVertex
100
AcDb2dVertex
 10
108.7968130895192
 20
114.8203654189413
 30
0.0
  0
VERTEX
  5
58C
330
563
100
AcDbEntity
  8
1
  6
Continuous
 62
     7
370
     9
100
AcDbVertex
100
AcDb2dVertex
 10
108.8127130895192
 20
114.8241654189413
 30
0.0
  0
VERTEX
  5
58D
330
563
100
AcDbEntity
  8
1
  6
Continuous
 62
     7
370
     9
100
AcDbVertex
100
AcDb2dVertex
 10
108.8286130895192
 20
114.8281654189413
 30
0.0
  0
VERTEX
  5
58E
330
563
100
AcDbEntity
  8
1
  6
Continuous
 62
     7
370
     9
100
AcDbVertex
100
AcDb2dVertex
 10
108.8445130895192
 20
114.8321654189413
 30
0.0
  0
VERTEX
  5
58F
330
563
100
AcDbEntity
  8
1
  6
Continuous
 62
     7
370
     9
100
AcDbVertex
100
AcDb2dVertex
 10
108.8604130895192
 20
114.8363654189413
 30
0.0
  0
VERTEX
  5
590
330
563
100
AcDbEntity
  8
1
  6
Continuous
 62
     7
370
     9
100
AcDbVertex
100
AcDb2dVertex
 10
108.8764130895192
 20
114.8405654189413
 30
0.0
  0
VERTEX
  5
591
330
563
100
AcDbEntity
  8
1
  6
Continuous
 62
     7
370
     9
100
AcDbVertex
100
AcDb2dVertex
 10
108.8923130895192
 20
114.8447654189413
 30
0.0
  0
VERTEX
  5
592
330
563
100
AcDbEntity
  8
1
  6
Continuous
 62
     7
370
     9
100
AcDbVertex
100
AcDb2dVertex
 10
108.9082130895192
 20
114.8491654189413
 30
0.0
  0
VERTEX
  5
593
330
563
100
AcDbEntity
  8
1
  6
Continuous
 62
     7
370
     9
100
AcDbVertex
100
AcDb2dVertex
 10
108.9241130895192
 20
114.8535654189413
 30
0.0
  0
VERTEX
  5
594
330
563
100
AcDbEntity
  8
1
  6
Continuous
 62
     7
370
     9
100
AcDbVertex
100
AcDb2dVertex
 10
108.9400130895192
 20
114.8580654189413
 30
0.0
  0
VERTEX
  5
595
330
563
100
AcDbEntity
  8
1
  6
Continuous
 62
     7
370
     9
100
AcDbVertex
100
AcDb2dVertex
 10
108.9559130895192
 20
114.8625654189413
 30
0.0
  0
VERTEX
  5
596
330
563
100
AcDbEntity
  8
1
  6
Continuous
 62
     7
370
     9
100
AcDbVertex
100
AcDb2dVertex
 10
108.9718130895192
 20
114.8672654189413
 30
0.0
  0
VERTEX
  5
597
330
563
100
AcDbEntity
  8
1
  6
Continuous
 62
     7
370
     9
100
AcDbVertex
100
AcDb2dVertex
 10
108.9877130895192
 20
114.8719654189413
 30
0.0
  0
VERTEX
  5
598
330
563
100
AcDbEntity
  8
1
  6
Continuous
 62
     7
370
     9
100
AcDbVertex
100
AcDb2dVertex
 10
109.0036130895192
 20
114.8767654189413
 30
0.0
  0
VERTEX
  5
599
330
563
100
AcDbEntity
  8
1
  6
Continuous
 62
     7
370
     9
100
AcDbVertex
100
AcDb2dVertex
 10
109.0196130895192
 20
114.8815654189413
 30
0.0
  0
VERTEX
  5
59A
330
563
100
AcDbEntity
  8
1
  6
Continuous
 62
     7
370
     9
100
AcDbVertex
100
AcDb2dVertex
 10
109.0355130895192
 20
114.8864654189413
 30
0.0
  0
VERTEX
  5
59B
330
563
100
AcDbEntity
  8
1
  6
Continuous
 62
     7
370
     9
100
AcDbVertex
100
AcDb2dVertex
 10
109.0514130895192
 20
114.8914654189413
 30
0.0
  0
VERTEX
  5
59C
330
563
100
AcDbEntity
  8
1
  6
Continuous
 62
     7
370
     9
100
AcDbVertex
100
AcDb2dVertex
 10
109.0673130895192
 20
114.8964654189413
 30
0.0
  0
VERTEX
  5
59D
330
563
100
AcDbEntity
  8
1
  6
Continuous
 62
     7
370
     9
100
AcDbVertex
100
AcDb2dVertex
 10
109.0832130895192
 20
114.9015654189413
 30
0.0
  0
VERTEX
  5
59E
330
563
100
AcDbEntity
  8
1
  6
Continuous
 62
     7
370
     9
100
AcDbVertex
100
AcDb2dVertex
 10
109.0991130895192
 20
114.9067654189413
 30
0.0
  0
VERTEX
  5
59F
330
563
100
AcDbEntity
  8
1
  6
Continuous
 62
     7
370
     9
100
AcDbVertex
100
AcDb2dVertex
 10
109.1150130895192
 20
114.9119654189413
 30
0.0
  0
VERTEX
  5
5A0
330
563
100
AcDbEntity
  8
1
  6
Continuous
 62
     7
370
     9
100
AcDbVertex
100
AcDb2dVertex
 10
109.1309130895192
 20
114.9172654189413
 30
0.0
  0
VERTEX
  5
5A1
330
563
100
AcDbEntity
  8
1
  6
Continuous
 62
     7
370
     9
100
AcDbVertex
100
AcDb2dVertex
 10
109.1468130895192
 20
114.9226654189413
 30
0.0
  0
VERTEX
  5
5A2
330
563
100
AcDbEntity
  8
1
  6
Continuous
 62
     7
370
     9
100
AcDbVertex
100
AcDb2dVertex
 10
109.1628130895192
 20
114.9280654189413
 30
0.0
  0
VERTEX
  5
5A3
330
563
100
AcDbEntity
  8
1
  6
Continuous
 62
     7
370
     9
100
AcDbVertex
100
AcDb2dVertex
 10
109.1787130895192
 20
114.9335654189413
 30
0.0
  0
VERTEX
  5
5A4
330
563
100
AcDbEntity
  8
1
  6
Continuous
 62
     7
370
     9
100
AcDbVertex
100
AcDb2dVertex
 10
109.1946130895192
 20
114.9390654189413
 30
0.0
  0
VERTEX
  5
5A5
330
563
100
AcDbEntity
  8
1
  6
Continuous
 62
     7
370
     9
100
AcDbVertex
100
AcDb2dVertex
 10
109.2105130895192
 20
114.9446654189413
 30
0.0
  0
VERTEX
  5
5A6
330
563
100
AcDbEntity
  8
1
  6
Continuous
 62
     7
370
     9
100
AcDbVertex
100
AcDb2dVertex
 10
109.2264130895192
 20
114.9503654189413
 30
0.0
  0
VERTEX
  5
5A7
330
563
100
AcDbEntity
  8
1
  6
Continuous
 62
     7
370
     9
100
AcDbVertex
100
AcDb2dVertex
 10
109.2423130895192
 20
114.9560654189413
 30
0.0
  0
VERTEX
  5
5A8
330
563
100
AcDbEntity
  8
1
  6
Continuous
 62
     7
370
     9
100
AcDbVertex
100
AcDb2dVertex
 10
109.2582130895192
 20
114.9618654189413
 30
0.0
  0
VERTEX
  5
5A9
330
563
100
AcDbEntity
  8
1
  6
Continuous
 62
     7
370
     9
100
AcDbVertex
100
AcDb2dVertex
 10
109.2741130895192
 20
114.9676654189413
 30
0.0
  0
VERTEX
  5
5AA
330
563
100
AcDbEntity
  8
1
  6
Continuous
 62
     7
370
     9
100
AcDbVertex
100
AcDb2dVertex
 10
109.2900130895192
 20
114.9734654189413
 30
0.0
  0
VERTEX
  5
5AB
330
563
100
AcDbEntity
  8
1
  6
Continuous
 62
     7
370
     9
100
AcDbVertex
100
AcDb2dVertex
 10
109.3060130895192
 20
114.9794654189413
 30
0.0
  0
VERTEX
  5
5AC
330
563
100
AcDbEntity
  8
1
  6
Continuous
 62
     7
370
     9
100
AcDbVertex
100
AcDb2dVertex
 10
109.3219130895192
 20
114.9853654189413
 30
0.0
  0
VERTEX
  5
5AD
330
563
100
AcDbEntity
  8
1
  6
Continuous
 62
     7
370
     9
100
AcDbVertex
100
AcDb2dVertex
 10
109.3378130895192
 20
114.9914654189413
 30
0.0
  0
VERTEX
  5
5AE
330
563
100
AcDbEntity
  8
1
  6
Continuous
 62
     7
370
     9
100
AcDbVertex
100
AcDb2dVertex
 10
109.3537130895192
 20
114.9974654189413
 30
0.0
  0
VERTEX
  5
5AF
330
563
100
AcDbEntity
  8
1
  6
Continuous
 62
     7
370
     9
100
AcDbVertex
100
AcDb2dVertex
 10
109.3696130895192
 20
115.0036654189413
 30
0.0
  0
VERTEX
  5
5B0
330
563
100
AcDbEntity
  8
1
  6
Continuous
 62
     7
370
     9
100
AcDbVertex
100
AcDb2dVertex
 10
109.3855130895192
 20
115.0097654189413
 30
0.0
  0
VERTEX
  5
5B1
330
563
100
AcDbEntity
  8
1
  6
Continuous
 62
     7
370
     9
100
AcDbVertex
100
AcDb2dVertex
 10
109.4014130895192
 20
115.0160654189413
 30
0.0
  0
VERTEX
  5
5B2
330
563
100
AcDbEntity
  8
1
  6
Continuous
 62
     7
370
     9
100
AcDbVertex
100
AcDb2dVertex
 10
109.4173130895192
 20
115.0222654189413
 30
0.0
  0
VERTEX
  5
5B3
330
563
100
AcDbEntity
  8
1
  6
Continuous
 62
     7
370
     9
100
AcDbVertex
100
AcDb2dVertex
 10
109.4332130895192
 20
115.0285654189413
 30
0.0
  0
VERTEX
  5
5B4
330
563
100
AcDbEntity
  8
1
  6
Continuous
 62
     7
370
     9
100
AcDbVertex
100
AcDb2dVertex
 10
109.4492130895192
 20
115.0349654189413
 30
0.0
  0
VERTEX
  5
5B5
330
563
100
AcDbEntity
  8
1
  6
Continuous
 62
     7
370
     9
100
AcDbVertex
100
AcDb2dVertex
 10
109.4651130895192
 20
115.0413654189413
 30
0.0
  0
VERTEX
  5
5B6
330
563
100
AcDbEntity
  8
1
  6
Continuous
 62
     7
370
     9
100
AcDbVertex
100
AcDb2dVertex
 10
109.4810130895192
 20
115.0477654189413
 30
0.0
  0
VERTEX
  5
5B7
330
563
100
AcDbEntity
  8
1
  6
Continuous
 62
     7
370
     9
100
AcDbVertex
100
AcDb2dVertex
 10
109.4969130895192
 20
115.0542654189413
 30
0.0
  0
VERTEX
  5
5B8
330
563
100
AcDbEntity
  8
1
  6
Continuous
 62
     7
370
     9
100
AcDbVertex
100
AcDb2dVertex
 10
109.5128130895192
 20
115.0607654189413
 30
0.0
  0
VERTEX
  5
5B9
330
563
100
AcDbEntity
  8
1
  6
Continuous
 62
     7
370
     9
100
AcDbVertex
100
AcDb2dVertex
 10
109.5287130895192
 20
115.0673654189413
 30
0.0
  0
VERTEX
  5
5BA
330
563
100
AcDbEntity
  8
1
  6
Continuous
 62
     7
370
     9
100
AcDbVertex
100
AcDb2dVertex
 10
109.5446130895192
 20
115.0739654189413
 30
0.0
  0
VERTEX
  5
5BB
330
563
100
AcDbEntity
  8
1
  6
Continuous
 62
     7
370
     9
100
AcDbVertex
100
AcDb2dVertex
 10
109.5605130895192
 20
115.0805654189413
 30
0.0
  0
VERTEX
  5
5BC
330
563
100
AcDbEntity
  8
1
  6
Continuous
 62
     7
370
     9
100
AcDbVertex
100
AcDb2dVertex
 10
109.5764130895192
 20
115.0872654189413
 30
0.0
  0
VERTEX
  5
5BD
330
563
100
AcDbEntity
  8
1
  6
Continuous
 62
     7
370
     9
100
AcDbVertex
100
AcDb2dVertex
 10
109.5924130895192
 20
115.0939654189413
 30
0.0
  0
VERTEX
  5
5BE
330
563
100
AcDbEntity
  8
1
  6
Continuous
 62
     7
370
     9
100
AcDbVertex
100
AcDb2dVertex
 10
109.6083130895192
 20
115.1006654189413
 30
0.0
  0
VERTEX
  5
5BF
330
563
100
AcDbEntity
  8
1
  6
Continuous
 62
     7
370
     9
100
AcDbVertex
100
AcDb2dVertex
 10
109.6242130895192
 20
115.1074654189413
 30
0.0
  0
VERTEX
  5
5C0
330
563
100
AcDbEntity
  8
1
  6
Continuous
 62
     7
370
     9
100
AcDbVertex
100
AcDb2dVertex
 10
109.6401130895192
 20
115.1142654189413
 30
0.0
  0
VERTEX
  5
5C1
330
563
100
AcDbEntity
  8
1
  6
Continuous
 62
     7
370
     9
100
AcDbVertex
100
AcDb2dVertex
 10
109.6560130895192
 20
115.1210654189413
 30
0.0
  0
VERTEX
  5
5C2
330
563
100
AcDbEntity
  8
1
  6
Continuous
 62
     7
370
     9
100
AcDbVertex
100
AcDb2dVertex
 10
109.6719130895192
 20
115.1279654189413
 30
0.0
  0
VERTEX
  5
5C3
330
563
100
AcDbEntity
  8
1
  6
Continuous
 62
     7
370
     9
100
AcDbVertex
100
AcDb2dVertex
 10
109.6878130895192
 20
115.1348654189413
 30
0.0
  0
VERTEX
  5
5C4
330
563
100
AcDbEntity
  8
1
  6
Continuous
 62
     7
370
     9
100
AcDbVertex
100
AcDb2dVertex
 10
109.7037130895192
 20
115.1417654189413
 30
0.0
  0
VERTEX
  5
5C5
330
563
100
AcDbEntity
  8
1
  6
Continuous
 62
     7
370
     9
100
AcDbVertex
100
AcDb2dVertex
 10
109.7196130895192
 20
115.1487654189413
 30
0.0
  0
VERTEX
  5
5C6
330
563
100
AcDbEntity
  8
1
  6
Continuous
 62
     7
370
     9
100
AcDbVertex
100
AcDb2dVertex
 10
109.7356130895192
 20
115.1557654189413
 30
0.0
  0
VERTEX
  5
5C7
330
563
100
AcDbEntity
  8
1
  6
Continuous
 62
     7
370
     9
100
AcDbVertex
100
AcDb2dVertex
 10
109.7515130895192
 20
115.1627654189413
 30
0.0
  0
VERTEX
  5
5C8
330
563
100
AcDbEntity
  8
1
  6
Continuous
 62
     7
370
     9
100
AcDbVertex
100
AcDb2dVertex
 10
109.7674130895192
 20
115.1697654189413
 30
0.0
  0
VERTEX
  5
5C9
330
563
100
AcDbEntity
  8
1
  6
Continuous
 62
     7
370
     9
100
AcDbVertex
100
AcDb2dVertex
 10
109.7833130895192
 20
115.1768654189413
 30
0.0
  0
VERTEX
  5
5CA
330
563
100
AcDbEntity
  8
1
  6
Continuous
 62
     7
370
     9
100
AcDbVertex
100
AcDb2dVertex
 10
109.7992130895192
 20
115.1839654189413
 30
0.0
  0
VERTEX
  5
5CB
330
563
100
AcDbEntity
  8
1
  6
Continuous
 62
     7
370
     9
100
AcDbVertex
100
AcDb2dVertex
 10
109.8151130895192
 20
115.1910654189413
 30
0.0
  0
VERTEX
  5
5CC
330
563
100
AcDbEntity
  8
1
  6
Continuous
 62
     7
370
     9
100
AcDbVertex
100
AcDb2dVertex
 10
109.8310130895192
 20
115.1981654189413
 30
0.0
  0
VERTEX
  5
5CD
330
563
100
AcDbEntity
  8
1
  6
Continuous
 62
     7
370
     9
100
AcDbVertex
100
AcDb2dVertex
 10
109.8469130895192
 20
115.2053654189413
 30
0.0
  0
VERTEX
  5
5CE
330
563
100
AcDbEntity
  8
1
  6
Continuous
 62
     7
370
     9
100
AcDbVertex
100
AcDb2dVertex
 10
109.8628130895192
 20
115.2124654189413
 30
0.0
  0
VERTEX
  5
5CF
330
563
100
AcDbEntity
  8
1
  6
Continuous
 62
     7
370
     9
100
AcDbVertex
100
AcDb2dVertex
 10
109.8788130895192
 20
115.2196654189413
 30
0.0
  0
VERTEX
  5
5D0
330
563
100
AcDbEntity
  8
1
  6
Continuous
 62
     7
370
     9
100
AcDbVertex
100
AcDb2dVertex
 10
109.8947130895192
 20
115.2268654189413
 30
0.0
  0
VERTEX
  5
5D1
330
563
100
AcDbEntity
  8
1
  6
Continuous
 62
     7
370
     9
100
AcDbVertex
100
AcDb2dVertex
 10
109.9106130895192
 20
115.2341654189413
 30
0.0
  0
VERTEX
  5
5D2
330
563
100
AcDbEntity
  8
1
  6
Continuous
 62
     7
370
     9
100
AcDbVertex
100
AcDb2dVertex
 10
109.9265130895192
 20
115.2413654189413
 30
0.0
  0
VERTEX
  5
5D3
330
563
100
AcDbEntity
  8
1
  6
Continuous
 62
     7
370
     9
100
AcDbVertex
100
AcDb2dVertex
 10
109.9424130895192
 20
115.2486654189413
 30
0.0
  0
VERTEX
  5
5D4
330
563
100
AcDbEntity
  8
1
  6
Continuous
 62
     7
370
     9
100
AcDbVertex
100
AcDb2dVertex
 10
109.9583130895192
 20
115.2558654189413
 30
0.0
  0
VERTEX
  5
5D5
330
563
100
AcDbEntity
  8
1
  6
Continuous
 62
     7
370
     9
100
AcDbVertex
100
AcDb2dVertex
 10
109.9742130895192
 20
115.2631654189413
 30
0.0
  0
VERTEX
  5
5D6
330
563
100
AcDbEntity
  8
1
  6
Continuous
 62
     7
370
     9
100
AcDbVertex
100
AcDb2dVertex
 10
109.9901130895192
 20
115.2704654189413
 30
0.0
  0
VERTEX
  5
5D7
330
563
100
AcDbEntity
  8
1
  6
Continuous
 62
     7
370
     9
100
AcDbVertex
100
AcDb2dVertex
 10
110.0061130895192
 20
115.2778654189413
 30
0.0
  0
VERTEX
  5
5D8
330
563
100
AcDbEntity
  8
1
  6
Continuous
 62
     7
370
     9
100
AcDbVertex
100
AcDb2dVertex
 10
110.0220130895192
 20
115.2851654189413
 30
0.0
  0
VERTEX
  5
5D9
330
563
100
AcDbEntity
  8
1
  6
Continuous
 62
     7
370
     9
100
AcDbVertex
100
AcDb2dVertex
 10
110.0379130895192
 20
115.2924654189413
 30
0.0
  0
VERTEX
  5
5DA
330
563
100
AcDbEntity
  8
1
  6
Continuous
 62
     7
370
     9
100
AcDbVertex
100
AcDb2dVertex
 10
110.0538130895192
 20
115.2998654189413
 30
0.0
  0
VERTEX
  5
5DB
330
563
100
AcDbEntity
  8
1
  6
Continuous
 62
     7
370
     9
100
AcDbVertex
100
AcDb2dVertex
 10
110.0697130895192
 20
115.3071654189413
 30
0.0
  0
VERTEX
  5
5DC
330
563
100
AcDbEntity
  8
1
  6
Continuous
 62
     7
370
     9
100
AcDbVertex
100
AcDb2dVertex
 10
110.0856130895192
 20
115.3145654189413
 30
0.0
  0
VERTEX
  5
5DD
330
563
100
AcDbEntity
  8
1
  6
Continuous
 62
     7
370
     9
100
AcDbVertex
100
AcDb2dVertex
 10
110.1015130895192
 20
115.3218654189413
 30
0.0
  0
VERTEX
  5
5DE
330
563
100
AcDbEntity
  8
1
  6
Continuous
 62
     7
370
     9
100
AcDbVertex
100
AcDb2dVertex
 10
110.1174130895192
 20
115.3292654189413
 30
0.0
  0
VERTEX
  5
5DF
330
563
100
AcDbEntity
  8
1
  6
Continuous
 62
     7
370
     9
100
AcDbVertex
100
AcDb2dVertex
 10
110.1333130895192
 20
115.3366654189413
 30
0.0
  0
VERTEX
  5
5E0
330
563
100
AcDbEntity
  8
1
  6
Continuous
 62
     7
370
     9
100
AcDbVertex
100
AcDb2dVertex
 10
110.1493130895192
 20
115.3440654189413
 30
0.0
  0
VERTEX
  5
5E1
330
563
100
AcDbEntity
  8
1
  6
Continuous
 62
     7
370
     9
100
AcDbVertex
100
AcDb2dVertex
 10
110.1652130895192
 20
115.3513654189413
 30
0.0
  0
VERTEX
  5
5E2
330
563
100
AcDbEntity
  8
1
  6
Continuous
 62
     7
370
     9
100
AcDbVertex
100
AcDb2dVertex
 10
110.1811130895192
 20
115.3587654189413
 30
0.0
  0
VERTEX
  5
5E3
330
563
100
AcDbEntity
  8
1
  6
Continuous
 62
     7
370
     9
100
AcDbVertex
100
AcDb2dVertex
 10
110.1970130895192
 20
115.3661654189413
 30
0.0
  0
SEQEND
  5
5E4
330
563
100
AcDbEntity
  8
1
  6
Continuous
 62
     7
370
     9
  0
INSERT
  5
5E9
330
1F
100
AcDbEntity
  8
0
100
AcDbBlockReference
  2
*G18
 10
0.0
 20
0.0
 30
0.0
  0
INSERT
  5
5EE
330
1F
100
AcDbEntity
  8
0
100
AcDbBlockReference
  2
*G19
 10
0.0
 20
0.0
 30
0.0
  0
INSERT
  5
5F3
330
1F
100
AcDbEntity
  8
0
100
AcDbBlockReference
  2
*G20
 10
0.0
 20
0.0
 30
0.0
  0
INSERT
  5
5F8
330
1F
100
AcDbEntity
  8
0
100
AcDbBlockReference
  2
*G21
 10
0.0
 20
0.0
 30
0.0
  0
INSERT
  5
5FD
330
1F
100
AcDbEntity
  8
0
100
AcDbBlockReference
  2
*G22
 10
0.0
 20
0.0
 30
0.0
  0
INSERT
  5
602
330
1F
100
AcDbEntity
  8
0
100
AcDbBlockReference
  2
*G23
 10
0.0
 20
0.0
 30
0.0
  0
INSERT
  5
607
330
1F
100
AcDbEntity
  8
0
100
AcDbBlockReference
  2
*G24
 10
0.0
 20
0.0
 30
0.0
  0
INSERT
  5
60C
330
1F
100
AcDbEntity
  8
0
100
AcDbBlockReference
  2
*G25
 10
0.0
 20
0.0
 30
0.0
  0
INSERT
  5
611
330
1F
100
AcDbEntity
  8
0
100
AcDbBlockReference
  2
*G26
 10
0.0
 20
0.0
 30
0.0
  0
HATCH
  5
612
330
1F
100
AcDbEntity
  8
1
  6
Continuous
 62
     7
370
     9
100
AcDbHatch
 10
0.0
 20
0.0
 30
0.0
210
0.0
220
0.0
230
1.0
  2
SOLID
 70
     1
 71
     0
 91
        1
 92
        0
 93
       77
 72
     1
 10
124.5230518987232
 20
140.4742348433803
 11
124.7295402468918
 21
140.6505083274519
 72
     1
 10
124.7295402468918
 20
140.6505083274519
 11
124.9330067570752
 21
140.8302566942279
 72
     1
 10
124.9330067570752
 20
140.8302566942279
 11
125.1333940666069
 21
141.0134315350315
 72
     1
 10
125.1333940666069
 20
141.0134315350315
 11
125.330644479522
 21
141.1999801097505
 72
     1
 10
125.330644479522
 20
141.1999801097505
 11
125.5247012030374
 21
141.3898487068993
 72
     1
 10
125.5247012030374
 20
141.3898487068993
 11
125.7155083639048
 21
141.5829826590841
 72
     1
 10
125.7155083639048
 20
141.5829826590841
 11
125.9030110244969
 21
141.7793263587429
 72
     1
 10
125.9030110244969
 20
141.7793263587429
 11
126.0871551986258
 21
141.9788232741556
 72
     1
 10
126.0871551986258
 20
141.9788232741556
 11
126.2678878670863
 21
142.1814159657216
 72
     1
 10
126.2678878670863
 20
142.1814159657216
 11
126.4451569929219
 21
142.387046102497
 72
     1
 10
126.4451569929219
 20
142.387046102497
 11
126.6189115364069
 21
142.5956544789902
 72
     1
 10
126.6189115364069
 20
142.5956544789902
 11
126.7891014697422
 21
142.8071810322079
 72
     1
 10
126.7891014697422
 20
142.8071810322079
 11
126.955677791459
 21
143.0215648589489
 72
     1
 10
126.955677791459
 20
143.0215648589489
 11
127.118592540528
 21
143.2387442333392
 72
     1
 10
127.118592540528
 20
143.2387442333392
 11
127.277798810168
 21
143.4586566246048
 72
     1
 10
127.277798810168
 20
143.4586566246048
 11
127.4332507613516
 21
143.6812387150749
 72
     1
 10
127.4332507613516
 20
143.6812387150749
 11
127.584903636003
 21
143.9064264184132
 72
     1
 10
127.584903636003
 20
143.9064264184132
 11
127.7327137698854
 21
144.1341548980693
 72
     1
 10
127.7327137698854
 20
144.1341548980693
 11
127.8766386051723
 21
144.3643585859469
 72
     1
 10
127.8766386051723
 20
144.3643585859469
 11
128.0166367027014
 21
144.596971201282
 72
     1
 10
128.0166367027014
 20
144.596971201282
 11
128.1526677539051
 21
144.8319257697271
 72
     1
 10
128.1526677539051
 20
144.8319257697271
 11
128.2846925924173
 21
145.0691546426339
 72
     1
 10
128.2846925924173
 20
145.0691546426339
 11
128.4126732053493
 21
145.3085895165315
 72
     1
 10
128.4126732053493
 20
145.3085895165315
 11
128.5365727442348
 21
145.5501614527923
 72
     1
 10
128.5365727442348
 20
145.5501614527923
 11
128.65635553564
 21
145.7938008974805
 72
     1
 10
128.65635553564
 20
145.7938008974805
 11
128.7719870914339
 21
146.0394377013791
 72
     1
 10
128.7719870914339
 20
146.0394377013791
 11
128.8834341187187
 21
146.2870011401865
 72
     1
 10
128.8834341187187
 20
146.2870011401865
 11
128.9906645294155
 21
146.5364199348805
 72
     1
 10
128.9906645294155
 20
146.5364199348805
 11
129.0936474495033
 21
146.7876222722403
 72
     1
 10
129.0936474495033
 20
146.7876222722403
 11
129.1923532279077
 21
147.0405358255236
 72
     1
 10
129.1923532279077
 20
147.0405358255236
 11
129.2867534450391
 21
147.2950877752909
 72
     1
 10
129.2867534450391
 20
147.2950877752909
 11
129.3768209209745
 21
147.5512048303721
 72
     1
 10
129.3768209209745
 20
147.5512048303721
 11
129.4625297232834
 21
147.8088132489682
 72
     1
 10
129.4625297232834
 20
147.8088132489682
 11
129.5438551744946
 21
148.0678388598836
 72
     1
 10
129.5438551744946
 20
148.0678388598836
 11
129.6207738592012
 21
148.3282070838815
 72
     1
 10
129.6207738592012
 20
148.3282070838815
 11
129.6932636308023
 21
148.5898429551566
 72
     1
 10
129.6932636308023
 20
148.5898429551566
 11
128.7273384740402
 21
148.8486702681853
 72
     1
 10
128.7273384740402
 20
148.8486702681853
 11
128.6593786609496
 21
148.6033784355494
 72
     1
 10
128.6593786609496
 20
148.6033784355494
 11
128.5872673940371
 21
148.3592832255514
 72
     1
 10
128.5872673940371
 20
148.3592832255514
 11
128.5110247835266
 21
148.1164467153182
 72
     1
 10
128.5110247835266
 20
148.1164467153182
 11
128.430672781362
 21
147.8749388228844
 72
     1
 10
128.430672781362
 20
147.8749388228844
 11
128.3462345226727
 21
147.6348290837458
 72
     1
 10
128.3462345226727
 20
147.6348290837458
 11
128.257734319112
 21
147.3961866308389
 72
     1
 10
128.257734319112
 20
147.3961866308389
 11
128.1651976518578
 21
147.1590801746358
 72
     1
 10
128.1651976518578
 20
147.1590801746358
 11
128.0686511642756
 21
146.923577983361
 72
     1
 10
128.0686511642756
 20
146.923577983361
 11
127.9681226542473
 21
146.6897478633354
 72
     1
 10
127.9681226542473
 20
146.6897478633354
 11
127.8636410661677
 21
146.4576571394534
 72
     1
 10
127.8636410661677
 20
146.4576571394534
 11
127.755236482611
 21
146.2273726357985
 72
     1
 10
127.755236482611
 20
146.2273726357985
 11
127.6429401156686
 21
145.9989606564033
 72
     1
 10
127.6429401156686
 20
145.9989606564033
 11
127.5267842979634
 21
145.7724869661589
 72
     1
 10
127.5267842979634
 20
145.7724869661589
 11
127.4068024733397
 21
145.5480167718798
 72
     1
 10
127.4068024733397
 20
145.5480167718798
 11
127.2830291872346
 21
145.3256147035297
 72
     1
 10
127.2830291872346
 20
145.3256147035297
 11
127.155500076731
 21
145.1053447956124
 72
     1
 10
127.155500076731
 20
145.1053447956124
 11
127.0242518602976
 21
144.8872704687357
 72
     1
 10
127.0242518602976
 20
144.8872704687357
 11
126.889322327216
 21
144.6714545113505
 72
     1
 10
126.889322327216
 20
144.6714545113505
 11
126.7507503267013
 21
144.4579590616729
 72
     1
 10
126.7507503267013
 20
144.4579590616729
 11
126.6085757567156
 21
144.2468455897933
 72
     1
 10
126.6085757567156
 20
144.2468455897933
 11
126.462839552481
 21
144.0381748799775
 72
     1
 10
126.462839552481
 20
144.0381748799775
 11
126.3135836746935
 21
143.8320070131661
 72
     1
 10
126.3135836746935
 20
143.8320070131661
 11
126.1608510974413
 21
143.6284013496751
 72
     1
 10
126.1608510974413
 20
143.6284013496751
 11
126.0046857958318
 21
143.4274165121055
 72
     1
 10
126.0046857958318
 20
143.4274165121055
 11
125.84513273333
 21
143.2291103684639
 72
     1
 10
125.84513273333
 20
143.2291103684639
 11
125.6822378488128
 21
143.0335400155015
 72
     1
 10
125.6822378488128
 20
143.0335400155015
 11
125.5160480433419
 21
142.8407617622746
 72
     1
 10
125.5160480433419
 20
142.8407617622746
 11
125.3466111666602
 21
142.6508311139314
 72
     1
 10
125.3466111666602
 20
142.6508311139314
 11
125.1739760034144
 21
142.463802755732
 72
     1
 10
125.1739760034144
 20
142.463802755732
 11
124.9981922591093
 21
142.2797305373019
 72
     1
 10
124.9981922591093
 20
142.2797305373019
 11
124.8193105457961
 21
142.0986674571286
 72
     1
 10
124.8193105457961
 20
142.0986674571286
 11
124.6373823675004
 21
141.9206656473016
 72
     1
 10
124.6373823675004
 20
141.9206656473016
 11
124.4524601053925
 21
141.7457763585026
 72
     1
 10
124.4524601053925
 20
141.7457763585026
 11
124.2645970027065
 21
141.5740499452492
 72
     1
 10
124.2645970027065
 20
141.5740499452492
 11
124.0738471494096
 21
141.4055358513967
 72
     1
 10
124.0738471494096
 20
141.4055358513967
 11
123.8802654666289
 21
141.2402825959024
 72
     1
 10
123.8802654666289
 20
141.2402825959024
 11
123.5588699986982
 21
141.6233132125213
 72
     1
 10
123.5588699986982
 20
141.6233132125213
 11
121.9884506871752
 21
139.3075630904503
 72
     1
 10
121.9884506871752
 20
139.3075630904503
 11
124.8444458653972
 21
140.0912239791223
 72
     1
 10
124.8444458653972
 20
140.0912239791223
 11
124.5230518987232
 21
140.4742348433803
 97
        0
 75
     0
 76
     1
 98
        0
  0
HATCH
  5
613
330
1F
100
AcDbEntity
  8
1
  6
Continuous
 62
     7
370
     9
100
AcDbHatch
 10
0.0
 20
0.0
 30
0.0
210
0.0
220
0.0
230
1.0
  2
SOLID
 70
     1
 71
     0
 91
        1
 92
        0
 93
       78
 72
     1
 10
99.73752562308849
 20
145.9690621138883
 11
99.85434760656405
 21
145.7239822794822
 72
     1
 10
99.85434760656405
 20
145.7239822794822
 11
99.97531019048243
 21
145.4809264229048
 72
     1
 10
99.97531019048243
 20
145.4809264229048
 11
100.1003794499117
 21
145.2399580090605
 72
     1
 10
100.1003794499117
 20
145.2399580090605
 11
100.229519374629
 21
145.0011464181173
 72
     1
 10
100.229519374629
 20
145.0011464181173
 11
100.3626927823769
 21
144.7645604092461
 72
     1
 10
100.3626927823769
 20
144.7645604092461
 11
100.4998613295679
 21
144.5302681008228
 72
     1
 10
100.4998613295679
 20
144.5302681008228
 11
100.6409855223253
 21
144.2983369508162
 72
     1
 10
100.6409855223253
 20
144.2983369508162
 11
100.7860247278538
 21
144.0688337373649
 72
     1
 10
100.7860247278538
 20
144.0688337373649
 11
100.9349371861391
 21
143.8418245395507
 72
     1
 10
100.9349371861391
 20
143.8418245395507
 11
101.087680021971
 21
143.6173747183727
 72
     1
 10
101.087680021971
 20
143.6173747183727
 11
101.2442092572885
 21
143.3955488979285
 72
     1
 10
101.2442092572885
 20
143.3955488979285
 11
101.4044798238418
 21
143.1764109468076
 72
     1
 10
101.4044798238418
 20
143.1764109468076
 11
101.5684455761688
 21
142.960023959702
 72
     1
 10
101.5684455761688
 20
142.960023959702
 11
101.736059304881
 21
142.74645023924
 72
     1
 10
101.736059304881
 20
142.74645023924
 11
101.9072727502566
 21
142.5357512780478
 72
     1
 10
101.9072727502566
 20
142.5357512780478
 11
102.0820366161348
 21
142.3279877410446
 72
     1
 10
102.0820366161348
 20
142.3279877410446
 11
102.2603005841103
 21
142.1232194479755
 72
     1
 10
102.2603005841103
 20
142.1232194479755
 11
102.4420133280201
 21
141.9215053561882
 72
     1
 10
102.4420133280201
 20
141.9215053561882
 11
102.6271225287221
 21
141.722903543658
 72
     1
 10
102.6271225287221
 20
141.722903543658
 11
102.8155748891586
 21
141.5274711922658
 72
     1
 10
102.8155748891586
 20
141.5274711922658
 11
103.007316149702
 21
141.3352645713339
 72
     1
 10
103.007316149702
 20
141.3352645713339
 11
103.2022911037769
 21
141.1463390214252
 72
     1
 10
103.2022911037769
 20
141.1463390214252
 11
103.4004436137558
 21
140.9607489384092
 72
     1
 10
103.4004436137558
 20
140.9607489384092
 11
103.601716627122
 21
140.7785477578003
 72
     1
 10
103.601716627122
 20
140.7785477578003
 11
103.8060521928967
 21
140.5997879393725
 72
     1
 10
103.8060521928967
 20
140.5997879393725
 11
104.0133914783238
 21
140.4245209520549
 72
     1
 10
104.0133914783238
 20
140.4245209520549
 11
104.2236747858097
 21
140.252797259113
 72
     1
 10
104.2236747858097
 20
140.252797259113
 11
104.4368415701113
 21
140.084666303619
 72
     1
 10
104.4368415701113
 20
140.084666303619
 11
104.6528304557683
 21
139.9201764942159
 72
     1
 10
104.6528304557683
 20
139.9201764942159
 11
104.8715792547745
 21
139.7593751911797
 72
     1
 10
104.8715792547745
 20
139.7593751911797
 11
105.0930249844837
 21
139.6023086927837
 72
     1
 10
105.0930249844837
 20
139.6023086927837
 11
105.3171038857428
 21
139.4490222219674
 72
     1
 10
105.3171038857428
 20
139.4490222219674
 11
105.5437514412504
 21
139.2995599133165
 72
     1
 10
105.5437514412504
 20
139.2995599133165
 11
105.7729023941321
 21
139.1539648003553
 72
     1
 10
105.7729023941321
 20
139.1539648003553
 11
106.00449076673
 21
139.0122788031563
 72
     1
 10
106.00449076673
 20
139.0122788031563
 11
106.2384498795986
 21
138.8745427162708
 72
     1
 10
106.2384498795987
 20
138.8745427162708
 11
106.2384506871752
 21
138.8745644332243
 72
     1
 10
106.2384506871752
 20
138.8745644332243
 11
106.7384506871752
 21
139.7405770064663
 72
     1
 10
106.7384506871752
 20
139.7405770064663
 11
106.519113261758
 21
139.8696956723695
 72
     1
 10
106.519113261758
 20
139.8696956723695
 11
106.3019991624474
 21
140.0025262947435
 72
     1
 10
106.3019991624474
 20
140.0025262947435
 11
106.0871701441208
 21
140.1390217131446
 72
     1
 10
106.0871701441208
 20
140.1390217131446
 11
105.8746880608324
 21
140.2791426275048
 72
     1
 10
105.8746880608324
 20
140.2791426275048
 11
105.664614090902
 21
140.4228486938951
 72
     1
 10
105.664614090902
 20
140.4228486938951
 11
105.4570087192997
 21
140.5700985361414
 72
     1
 10
105.4570087192997
 20
140.5700985361414
 11
105.2519317202313
 21
140.7208497577378
 72
     1
 10
105.2519317202313
 20
140.7208497577378
 11
105.0494421399279
 21
140.8750589540532
 72
     1
 10
105.0494421399279
 20
140.8750589540532
 11
104.8495982796452
 21
141.0326817248289
 72
     1
 10
104.8495982796452
 20
141.0326817248289
 11
104.6524576788771
 21
141.1936726869619
 72
     1
 10
104.6524576788771
 20
141.1936726869619
 11
104.4580770987892
 21
141.3579854875721
 72
     1
 10
104.4580770987892
 20
141.3579854875721
 11
104.2665125058754
 21
141.5255728173482
 72
     1
 10
104.2665125058754
 20
141.5255728173482
 11
104.0778190558445
 21
141.696386424169
 72
     1
 10
104.0778190558445
 20
141.696386424169
 11
103.8920510777393
 21
141.8703771269965
 72
     1
 10
103.8920510777393
 20
141.8703771269965
 11
103.7092620582941
 21
142.0474948300359
 72
     1
 10
103.7092620582941
 20
142.0474948300359
 11
103.5295046265348
 21
142.2276885371595
 72
     1
 10
103.5295046265348
 20
142.2276885371595
 11
103.3528305386255
 21
142.4109063665898
 72
     1
 10
103.3528305386255
 20
142.4109063665898
 11
103.1792906629674
 21
142.5970955658368
 72
     1
 10
103.1792906629674
 20
142.5970955658368
 11
103.0089349655519
 21
142.7862025268874
 72
     1
 10
103.0089349655519
 20
142.7862025268874
 11
102.8418124955749
 21
142.9781728016397
 72
     1
 10
102.8418124955749
 20
142.9781728016397
 11
102.677971371314
 21
143.1729511175802
 72
     1
 10
102.677971371314
 20
143.1729511175802
 11
102.5174587662745
 21
143.3704813936979
 72
     1
 10
102.5174587662745
 20
143.3704813936979
 11
102.3603208956068
 21
143.570706756631
 72
     1
 10
102.3603208956068
 20
143.570706756631
 11
102.2066030028002
 21
143.7735695570425
 72
     1
 10
102.2066030028002
 20
143.7735695570425
 11
102.0563493466564
 21
143.9790113862184
 72
     1
 10
102.0563493466564
 20
143.9790113862184
 11
101.9096031885463
 21
144.1869730928848
 72
     1
 10
101.9096031885463
 20
144.1869730928848
 11
101.7664067799539
 21
144.3973948002392
 72
     1
 10
101.7664067799539
 20
144.3973948002392
 11
101.6268013503115
 21
144.61021592319
 72
     1
 10
101.6268013503115
 20
144.61021592319
 11
101.4908270951284
 21
144.8253751858005
 72
     1
 10
101.4908270951284
 20
144.8253751858005
 11
101.3585231644184
 21
145.0428106389317
 72
     1
 10
101.3585231644184
 20
145.0428106389317
 11
101.2299276514268
 21
145.2624596780786
 72
     1
 10
101.2299276514268
 20
145.2624596780786
 11
101.1050775816632
 21
145.4842590613954
 72
     1
 10
101.1050775816632
 20
145.4842590613954
 11
100.9840089022407
 21
145.7081449279046
 72
     1
 10
100.9840089022407
 20
145.7081449279046
 11
100.8667564715258
 21
145.9340528158836
 72
     1
 10
100.8667564715258
 20
145.9340528158836
 11
100.7533540491023
 21
146.1619176814249
 72
     1
 10
100.7533540491023
 20
146.1619176814249
 11
100.6438342860509
 21
146.3916739171637
 72
     1
 10
100.6438342860509
 20
146.3916739171637
 11
101.0969883611256
 21
146.6029885054893
 72
     1
 10
101.0969883611256
 20
146.6029885054893
 11
99.26660124564708
 21
148.7192604781463
 72
     1
 10
99.26660124564708
 20
148.7192604781463
 11
99.28437296653338
 21
145.7577431441613
 72
     1
 10
99.28437296653338
 20
145.7577431441613
 11
99.73752562308849
 21
145.9690621138883
 97
        0
 75
     0
 76
     1
 98
        0
  0
HATCH
  5
614
330
1F
100
AcDbEntity
  8
1
  6
Continuous
 62
     7
370
     9
100
AcDbHatch
 10
0.0
 20
0.0
 30
0.0
210
0.0
220
0.0
230
1.0
  2
SOLID
 70
     1
 71
     0
 91
        1
 92
        0
 93
       79
 72
     1
 10
129.6932636308024
 20
156.8720544659778
 11
129.6207738592012
 21
157.1336903372531
 72
     1
 10
129.6207738592012
 20
157.1336903372531
 11
129.5438551744946
 21
157.394058561251
 72
     1
 10
129.5438551744946
 20
157.394058561251
 11
129.4625297232834
 21
157.6530841721664
 72
     1
 10
129.4625297232834
 20
157.6530841721664
 11
129.3768209209745
 21
157.9106925907625
 72
     1
 10
129.3768209209745
 20
157.9106925907625
 11
129.2867534450392
 21
158.1668096458437
 72
     1
 10
129.2867534450392
 20
158.1668096458437
 11
129.1923532279077
 21
158.421361595611
 72
     1
 10
129.1923532279077
 20
158.421361595611
 11
129.0936474495033
 21
158.6742751488943
 72
     1
 10
129.0936474495033
 20
158.6742751488943
 11
128.9906645294155
 21
158.9254774862541
 72
     1
 10
128.9906645294155
 20
158.9254774862541
 11
128.8834341187187
 21
159.174896280948
 72
     1
 10
128.8834341187187
 20
159.174896280948
 11
128.7719870914339
 21
159.4224597197555
 72
     1
 10
128.7719870914339
 20
159.4224597197555
 11
128.65635553564
 21
159.6680965236541
 72
     1
 10
128.65635553564
 20
159.6680965236541
 11
128.5365727442348
 21
159.9117359683423
 72
     1
 10
128.5365727442348
 20
159.9117359683423
 11
128.4126732053493
 21
160.153307904603
 72
     1
 10
128.4126732053493
 20
160.153307904603
 11
128.2846925924173
 21
160.3927427785007
 72
     1
 10
128.2846925924173
 20
160.3927427785007
 11
128.1526677539052
 21
160.6299716514075
 72
     1
 10
128.1526677539052
 20
160.6299716514075
 11
128.0166367027014
 21
160.8649262198525
 72
     1
 10
128.0166367027014
 20
160.8649262198525
 11
127.8766386051724
 21
161.0975388351877
 72
     1
 10
127.8766386051724
 20
161.0975388351877
 11
127.7327137698854
 21
161.3277425230652
 72
     1
 10
127.7327137698854
 20
161.3277425230652
 11
127.584903636003
 21
161.5554710027213
 72
     1
 10
127.584903636003
 20
161.5554710027213
 11
127.4332507613516
 21
161.7806587060596
 72
     1
 10
127.4332507613516
 20
161.7806587060596
 11
127.2777988101681
 21
162.0032407965297
 72
     1
 10
127.2777988101681
 20
162.0032407965297
 11
127.1185925405281
 21
162.2231531877952
 72
     1
 10
127.1185925405281
 20
162.2231531877952
 11
126.9556777914591
 21
162.4403325621856
 72
     1
 10
126.9556777914591
 20
162.4403325621856
 11
126.7891014697423
 21
162.6547163889266
 72
     1
 10
126.7891014697423
 20
162.6547163889266
 11
126.618911536407
 21
162.8662429421443
 72
     1
 10
126.618911536407
 20
162.8662429421443
 11
126.445156992922
 21
163.0748513186374
 72
     1
 10
126.445156992922
 20
163.0748513186374
 11
126.2678878670864
 21
163.2804814554129
 72
     1
 10
126.2678878670864
 20
163.2804814554129
 11
126.0871551986259
 21
163.4830741469788
 72
     1
 10
126.0871551986259
 20
163.4830741469788
 11
125.903011024497
 21
163.6825710623916
 72
     1
 10
125.903011024497
 20
163.6825710623916
 11
125.7155083639049
 21
163.8789147620504
 72
     1
 10
125.7155083639049
 20
163.8789147620504
 11
125.5247012030376
 21
164.0720487142352
 72
     1
 10
125.5247012030376
 20
164.0720487142352
 11
125.3306444795221
 21
164.261917311384
 72
     1
 10
125.3306444795221
 20
164.261917311384
 11
125.1333940666071
 21
164.448465886103
 72
     1
 10
125.1333940666071
 20
164.448465886103
 11
124.9330067570753
 21
164.6316407269066
 72
     1
 10
124.9330067570753
 20
164.6316407269066
 11
124.729540246892
 21
164.8113890936825
 72
     1
 10
124.729540246892
 20
164.8113890936825
 11
124.5230531185926
 21
164.9876592328764
 72
     1
 10
124.5230531185926
 20
164.9876592328764
 11
124.8444458653972
 21
165.3706887008017
 72
     1
 10
124.8444458653972
 20
165.3706887008017
 11
121.9884506871752
 21
166.1543495894735
 72
     1
 10
121.9884506871752
 20
166.1543495894735
 11
123.5588699986982
 21
163.8385994674032
 72
     1
 10
123.5588699986982
 20
163.8385994674032
 11
123.8802658727222
 21
164.2216255904501
 72
     1
 10
123.8802658727222
 20
164.2216255904501
 11
123.880265466629
 21
164.2216148252321
 72
     1
 10
123.880265466629
 20
164.2216148252321
 11
124.0738471494098
 21
164.0563615697378
 72
     1
 10
124.0738471494098
 20
164.0563615697378
 11
124.2645970027067
 21
163.8878474758853
 72
     1
 10
124.2645970027067
 20
163.8878474758853
 11
124.4524601053927
 21
163.7161210626319
 72
     1
 10
124.4524601053927
 20
163.7161210626319
 11
124.6373823675005
 21
163.5412317738329
 72
     1
 10
124.6373823675005
 20
163.5412317738329
 11
124.8193105457962
 21
163.3632299640059
 72
     1
 10
124.8193105457962
 20
163.3632299640059
 11
124.9981922591094
 21
163.1821668838326
 72
     1
 10
124.9981922591094
 20
163.1821668838326
 11
125.1739760034145
 21
162.9980946654025
 72
     1
 10
125.1739760034145
 20
162.9980946654025
 11
125.3466111666603
 21
162.811066307203
 72
     1
 10
125.3466111666603
 20
162.811066307203
 11
125.516048043342
 21
162.62113565886
 72
     1
 10
125.516048043342
 20
162.62113565886
 11
125.6822378488129
 21
162.428357405633
 72
     1
 10
125.6822378488129
 20
162.428357405633
 11
125.8451327333301
 21
162.2327870526706
 72
     1
 10
125.8451327333301
 20
162.2327870526706
 11
126.0046857958319
 21
162.034480909029
 72
     1
 10
126.0046857958319
 20
162.034480909029
 11
126.1608510974414
 21
161.8334960714594
 72
     1
 10
126.1608510974414
 20
161.8334960714594
 11
126.3135836746936
 21
161.6298904079684
 72
     1
 10
126.3135836746936
 20
161.6298904079684
 11
126.4628395524811
 21
161.423722541157
 72
     1
 10
126.4628395524811
 20
161.423722541157
 11
126.6085757567156
 21
161.2150518313413
 72
     1
 10
126.6085757567156
 20
161.2150518313413
 11
126.7507503267014
 21
161.0039383594616
 72
     1
 10
126.7507503267014
 20
161.0039383594616
 11
126.8893223272161
 21
160.790442909784
 72
     1
 10
126.8893223272161
 20
160.790442909784
 11
127.0242518602976
 21
160.5746269523988
 72
     1
 10
127.0242518602976
 20
160.5746269523988
 11
127.155500076731
 21
160.3565526255221
 72
     1
 10
127.155500076731
 20
160.3565526255221
 11
127.2830291872346
 21
160.1362827176049
 72
     1
 10
127.2830291872346
 20
160.1362827176049
 11
127.4068024733398
 21
159.9138806492547
 72
     1
 10
127.4068024733398
 20
159.9138806492547
 11
127.5267842979634
 21
159.6894104549757
 72
     1
 10
127.5267842979634
 20
159.6894104549757
 11
127.6429401156687
 21
159.4629367647313
 72
     1
 10
127.6429401156687
 20
159.4629367647313
 11
127.755236482611
 21
159.234524785336
 72
     1
 10
127.755236482611
 20
159.234524785336
 11
127.8636410661677
 21
159.0042402816812
 72
     1
 10
127.8636410661677
 20
159.0042402816812
 11
127.9681226542473
 21
158.7721495577991
 72
     1
 10
127.9681226542473
 20
158.7721495577991
 11
128.0686511642756
 21
158.5383194377736
 72
     1
 10
128.0686511642756
 20
158.5383194377736
 11
128.1651976518578
 21
158.3028172464988
 72
     1
 10
128.1651976518578
 20
158.3028172464988
 11
128.257734319112
 21
158.0657107902957
 72
     1
 10
128.257734319112
 20
158.0657107902957
 11
128.3462345226727
 21
157.8270683373888
 72
     1
 10
128.3462345226727
 20
157.8270683373888
 11
128.430672781362
 21
157.5869585982502
 72
     1
 10
128.430672781362
 20
157.5869585982502
 11
128.5110247835266
 21
157.3454507058164
 72
     1
 10
128.5110247835266
 20
157.3454507058164
 11
128.5872673940371
 21
157.1026141955832
 72
     1
 10
128.5872673940371
 20
157.1026141955832
 11
128.6593786609496
 21
156.8585189855852
 72
     1
 10
128.6593786609496
 20
156.8585189855852
 11
128.7273378218257
 21
156.6132353562645
 72
     1
 10
128.7273378218257
 20
156.6132353562645
 11
129.6932617833662
 21
156.8720772506063
 72
     1
 10
129.6932617833662
 20
156.8720772506063
 11
129.6932636308024
 21
156.8720544659778
 97
        0
 75
     0
 76
     1
 98
        0
  0
HATCH
  5
615
330
1F
100
AcDbEntity
  8
1
  6
Continuous
 62
     7
370
     9
100
AcDbHatch
 10
0.0
 20
0.0
 30
0.0
210
0.0
220
0.0
230
1.0
  2
SOLID
 70
     1
 71
     0
 91
        1
 92
        0
 93
       77
 72
     1
 10
106.2384506871752
 20
166.5873637439077
 11
106.0044907667302
 21
166.4496186179784
 72
     1
 10
106.0044907667302
 20
166.4496186179784
 11
105.7729023941323
 21
166.3079326207794
 72
     1
 10
105.7729023941323
 20
166.3079326207794
 11
105.5437514412505
 21
166.1623375078182
 72
     1
 10
105.5437514412505
 20
166.1623375078182
 11
105.317103885743
 21
166.0128751991674
 72
     1
 10
105.317103885743
 20
166.0128751991674
 11
105.0930249844838
 21
165.859588728351
 72
     1
 10
105.0930249844838
 20
165.859588728351
 11
104.8715792547747
 21
165.702522229955
 72
     1
 10
104.8715792547747
 20
165.702522229955
 11
104.6528304557684
 21
165.5417209269189
 72
     1
 10
104.6528304557684
 20
165.5417209269189
 11
104.4368415701115
 21
165.3772311175157
 72
     1
 10
104.4368415701115
 20
165.3772311175157
 11
104.2236747858099
 21
165.2091001620217
 72
     1
 10
104.2236747858099
 20
165.2091001620217
 11
104.013391478324
 21
165.0373764690798
 72
     1
 10
104.013391478324
 20
165.0373764690798
 11
103.8060521928969
 21
164.8621094817623
 72
     1
 10
103.8060521928969
 20
164.8621094817623
 11
103.6017166271222
 21
164.6833496633345
 72
     1
 10
103.6017166271222
 20
164.6833496633345
 11
103.400443613756
 21
164.5011484827256
 72
     1
 10
103.400443613756
 20
164.5011484827256
 11
103.2022911037771
 21
164.3155583997096
 72
     1
 10
103.2022911037771
 20
164.3155583997096
 11
103.0073161497022
 21
164.1266328498009
 72
     1
 10
103.0073161497022
 20
164.1266328498009
 11
102.8155748891588
 21
163.934426228869
 72
     1
 10
102.8155748891588
 20
163.934426228869
 11
102.6271225287223
 21
163.7389938774768
 72
     1
 10
102.6271225287223
 20
163.7389938774768
 11
102.4420133280203
 21
163.5403920649466
 72
     1
 10
102.4420133280203
 20
163.5403920649466
 11
102.2603005841105
 21
163.3386779731593
 72
     1
 10
102.2603005841105
 20
163.3386779731593
 11
102.082036616135
 21
163.1339096800902
 72
     1
 10
102.082036616135
 20
163.1339096800902
 11
101.9072727502567
 21
162.926146143087
 72
     1
 10
101.9072727502567
 20
162.926146143087
 11
101.7360593048812
 21
162.7154471818948
 72
     1
 10
101.7360593048812
 20
162.7154471818948
 11
101.568445576169
 21
162.5018734614328
 72
     1
 10
101.568445576169
 20
162.5018734614328
 11
101.404479823842
 21
162.2854864743272
 72
     1
 10
101.404479823842
 20
162.2854864743272
 11
101.2442092572886
 21
162.0663485232063
 72
     1
 10
101.2442092572886
 20
162.0663485232063
 11
101.0876800219712
 21
161.8445227027621
 72
     1
 10
101.0876800219712
 20
161.8445227027621
 11
100.9349371861393
 21
161.6200728815841
 72
     1
 10
100.9349371861393
 20
161.6200728815841
 11
100.786024727854
 21
161.3930636837699
 72
     1
 10
100.786024727854
 20
161.3930636837699
 11
100.6409855223254
 21
161.1635604703187
 72
     1
 10
100.6409855223254
 20
161.1635604703187
 11
100.499861329568
 21
160.9316293203121
 72
     1
 10
100.499861329568
 20
160.9316293203121
 11
100.362692782377
 21
160.6973370118888
 72
     1
 10
100.362692782377
 20
160.6973370118888
 11
100.2295193746292
 21
160.4607510030175
 72
     1
 10
100.2295193746292
 20
160.4607510030175
 11
100.1003794499118
 21
160.2219394120744
 72
     1
 10
100.1003794499118
 20
160.2219394120744
 11
99.97531019048256
 21
159.9809709982301
 72
     1
 10
99.97531019048256
 20
159.9809709982301
 11
99.85434760656416
 21
159.7379151416526
 72
     1
 10
99.85434760656416
 20
159.7379151416526
 11
99.73752652597598
 21
159.4928418235313
 72
     1
 10
99.73752652597598
 20
159.4928418235313
 11
99.28437296653338
 21
159.7041542769743
 72
     1
 10
99.28437296653338
 20
159.7041542769743
 11
99.26660124564708
 21
156.7426522017783
 72
     1
 10
99.26660124564708
 20
156.7426522017783
 11
101.0969883611256
 21
158.8589241744353
 72
     1
 10
101.0969883611256
 20
158.8589241744353
 11
100.6438357045705
 21
159.0702278853723
 72
     1
 10
100.6438357045705
 20
159.0702278853723
 11
100.7533540491024
 21
159.2999797397099
 72
     1
 10
100.7533540491024
 20
159.2999797397099
 11
100.8667564715259
 21
159.5278446052513
 72
     1
 10
100.8667564715259
 20
159.5278446052513
 11
100.9840089022408
 21
159.7537524932303
 72
     1
 10
100.9840089022408
 20
159.7537524932303
 11
101.1050775816634
 21
159.9776383597394
 72
     1
 10
101.1050775816634
 20
159.9776383597394
 11
101.2299276514269
 21
160.1994377430563
 72
     1
 10
101.2299276514269
 20
160.1994377430563
 11
101.3585231644185
 21
160.4190867822031
 72
     1
 10
101.3585231644185
 20
160.4190867822031
 11
101.4908270951286
 21
160.6365222353343
 72
     1
 10
101.4908270951286
 20
160.6365222353343
 11
101.6268013503116
 21
160.8516814979448
 72
     1
 10
101.6268013503116
 20
160.8516814979448
 11
101.7664067799541
 21
161.0645026208956
 72
     1
 10
101.7664067799541
 20
161.0645026208956
 11
101.9096031885465
 21
161.27492432825
 72
     1
 10
101.9096031885465
 20
161.27492432825
 11
102.0563493466566
 21
161.4828860349164
 72
     1
 10
102.0563493466566
 20
161.4828860349164
 11
102.2066030028003
 21
161.6883278640923
 72
     1
 10
102.2066030028003
 20
161.6883278640923
 11
102.3603208956069
 21
161.8911906645038
 72
     1
 10
102.3603208956069
 20
161.8911906645038
 11
102.5174587662746
 21
162.0914160274369
 72
     1
 10
102.5174587662746
 20
162.0914160274369
 11
102.6779713713142
 21
162.2889463035546
 72
     1
 10
102.6779713713142
 20
162.2889463035546
 11
102.8418124955751
 21
162.4837246194951
 72
     1
 10
102.8418124955751
 20
162.4837246194951
 11
103.0089349655521
 21
162.6756948942474
 72
     1
 10
103.0089349655521
 20
162.6756948942474
 11
103.1792906629675
 21
162.864801855298
 72
     1
 10
103.1792906629675
 20
162.864801855298
 11
103.3528305386257
 21
163.050991054545
 72
     1
 10
103.3528305386257
 20
163.050991054545
 11
103.5295046265349
 21
163.2342088839752
 72
     1
 10
103.5295046265349
 20
163.2342088839752
 11
103.7092620582943
 21
163.4144025910989
 72
     1
 10
103.7092620582943
 20
163.4144025910989
 11
103.8920510777395
 21
163.5915202941383
 72
     1
 10
103.8920510777395
 20
163.5915202941383
 11
104.0778190558447
 21
163.7655109969658
 72
     1
 10
104.0778190558447
 20
163.7655109969658
 11
104.2665125058756
 21
163.9363246037866
 72
     1
 10
104.2665125058756
 20
163.9363246037866
 11
104.4580770987894
 21
164.1039119335627
 72
     1
 10
104.4580770987894
 20
164.1039119335627
 11
104.6524576788773
 21
164.2682247341729
 72
     1
 10
104.6524576788773
 20
164.2682247341729
 11
104.8495982796453
 21
164.4292156963059
 72
     1
 10
104.8495982796453
 20
164.4292156963059
 11
105.049442139928
 21
164.5868384670815
 72
     1
 10
105.049442139928
 20
164.5868384670815
 11
105.2519317202314
 21
164.741047663397
 72
     1
 10
105.2519317202314
 20
164.741047663397
 11
105.4570087192998
 21
164.8917988849933
 72
     1
 10
105.4570087192998
 20
164.8917988849933
 11
105.6646140909021
 21
165.0390487272396
 72
     1
 10
105.6646140909021
 20
165.0390487272396
 11
105.8746880608326
 21
165.1827547936299
 72
     1
 10
105.8746880608326
 20
165.1827547936299
 11
106.0871701441209
 21
165.3228757079901
 72
     1
 10
106.0871701441209
 20
165.3228757079901
 11
106.3019991624476
 21
165.4593711263912
 72
     1
 10
106.3019991624476
 20
165.4593711263912
 11
106.5191132617581
 21
165.5922017487652
 72
     1
 10
106.5191132617581
 20
165.5922017487652
 11
106.7384499300724
 21
165.7213293302204
 72
     1
 10
106.7384499300724
 20
165.7213293302204
 11
106.2384506871752
 21
166.5873637439077
 97
        0
 75
     0
 76
     1
 98
        0
  0
INSERT
  5
62E
330
1F
100
AcDbEntity
  8
0
100
AcDbBlockReference
  2
*G27
 10
0.0
 20
0.0
 30
0.0
  0
INSERT
  5
647
330
1F
100
AcDbEntity
  8
0
100
AcDbBlockReference
  2
*G31
 10
0.0
 20
0.0
 30
0.0
  0
VIEWPORT
  5
3F
330
1B
100
AcDbEntity
 67
     1
  8
0
100
AcDbViewport
 10
105.0
 20
148.5
 30
0.0
 40
210.0
 41
297.0
 68
     1
 69
     1
 12
105.0
 22
148.5
 13
0.0
 23
0.0
 14
0.5
 24
0.5
 15
0.5
 25
0.5
 16
0.0
 26
0.0
 36
1.0
 17
0.0
 27
0.0
 37
0.0
 42
50.0
 43
0.0
 44
0.0
 45
9.0
 50
0.0
 51
0.0
 72
   100
 90
   557152
  1

281
     0
 71
     1
 74
     0
110
0.0
120
0.0
130
0.0
111
1.0
121
0.0
131
0.0
112
0.0
122
1.0
132
0.0
 79
     0
146
0.0
170
     0
  0
ENDSEC
  0
SECTION
  2
OBJECTS
  0
DICTIONARY
  5
C
330
0
100
AcDbDictionary
281
     1
  3
ACAD_GROUP
350
D
  3
ACAD_LAYOUT
350
1A
  3
ACAD_MATERIAL
350
3B
  3
ACAD_MLEADERSTYLE
350
66F
  3
ACAD_MLINESTYLE
350
17
  3
ACAD_PLOTSETTINGS
350
19
  3
ACAD_PLOTSTYLENAME
350
E
  3
ACAD_TABLESTYLE
350
66E
  3
ACAD_VISUALSTYLE
350
2A
  0
DICTIONARY
  5
D
102
{ACAD_REACTORS
330
C
102
}
330
C
100
AcDbDictionary
281
     1
  0
DICTIONARY
  5
1A
102
{ACAD_REACTORS
330
C
102
}
330
C
100
AcDbDictionary
281
     1
  3
Layout1
350
1E
  3
Layout2
350
26
  3
Model
350
22
  0
DICTIONARY
  5
3B
102
{ACAD_REACTORS
330
C
102
}
330
C
100
AcDbDictionary
281
     1
  3
ByBlock
350
3D
  3
ByLayer
350
3C
  3
Global
350
3E
  0
DICTIONARY
  5
66F
102
{ACAD_REACTORS
330
C
102
}
330
C
100
AcDbDictionary
281
     1
  0
DICTIONARY
  5
17
102
{ACAD_REACTORS
330
C
102
}
330
C
100
AcDbDictionary
281
     1
  3
Standard
350
18
  0
DICTIONARY
  5
19
102
{ACAD_REACTORS
330
C
102
}
330
C
100
AcDbDictionary
281
     1
  0
ACDBDICTIONARYWDFLT
  5
E
102
{ACAD_REACTORS
330
C
102
}
330
C
100
AcDbDictionary
281
     1
  3
Normal
350
F
100
AcDbDictionaryWithDefault
340
F
  0
DICTIONARY
  5
66E
102
{ACAD_REACTORS
330
C
102
}
330
C
100
AcDbDictionary
281
     1
  0
DICTIONARY
  5
2A
102
{ACAD_REACTORS
330
C
102
}
330
C
100
AcDbDictionary
281
     1
  3
2dWireframe
350
2F
  3
3D Hidden
350
31
  3
3dWireframe
350
30
  3
Basic
350
32
  3
Brighten
350
36
  3
ColorChange
350
3A
  3
Conceptual
350
34
  3
Dim
350
35
  3
Facepattern
350
39
  3
Flat
350
2B
  3
FlatWithEdges
350
2C
  3
Gouraud
350
2D
  3
GouraudWithEdges
350
2E
  3
Linepattern
350
38
  3
Realistic
350
33
  3
Thicken
350
37
  0
LAYOUT
  5
1E
102
{ACAD_REACTORS
330
1A
102
}
330
1A
100
AcDbPlotSettings
  1

  2
none_device
  4

  6

 40
0.0
 41
0.0
 42
0.0
 43
0.0
 44
0.0
 45
0.0
 46
0.0
 47
0.0
 48
0.0
 49
0.0
140
0.0
141
0.0
142
1.0
143
1.0
 70
   688
 72
     0
 73
     0
 74
     5
  7

 75
    16
 76
     0
 77
     2
 78
   300
147
1.0
148
0.0
149
0.0
100
AcDbLayout
  1
Layout1
 70
     1
 71
     1
 10
0.0
 20
0.0
 11
210.0
 21
297.0
 12
0.0
 22
0.0
 32
0.0
 14
0.0
 24
0.0
 34
0.0
 15
210.0
 25
297.0
 35
0.0
146
0.0
 13
0.0
 23
0.0
 33
0.0
 16
1.0
 26
0.0
 36
0.0
 17
0.0
 27
1.0
 37
0.0
 76
     0
330
1B
331
3F
  0
LAYOUT
  5
26
102
{ACAD_REACTORS
330
1A
102
}
330
1A
100
AcDbPlotSettings
  1

  2
none_device
  4

  6

 40
0.0
 41
0.0
 42
0.0
 43
0.0
 44
0.0
 45
0.0
 46
0.0
 47
0.0
 48
0.0
 49
0.0
140
0.0
141
0.0
142
1.0
143
1.0
 70
   688
 72
     0
 73
     0
 74
     5
  7

 75
    16
 76
     0
 77
     2
 78
   300
147
1.0
148
0.0
149
0.0
100
AcDbLayout
  1
Layout2
 70
     1
 71
     2
 10
0.0
 20
0.0
 11
0.0
 21
0.0
 12
0.0
 22
0.0
 32
0.0
 14
0.0
 24
0.0
 34
0.0
 15
0.0
 25
0.0
 35
0.0
146
0.0
 13
0.0
 23
0.0
 33
0.0
 16
1.0
 26
0.0
 36
0.0
 17
0.0
 27
1.0
 37
0.0
 76
     0
330
23
  0
LAYOUT
  5
22
102
{ACAD_REACTORS
330
1A
102
}
330
1A
100
AcDbPlotSettings
  1

  2
none_device
  4

  6

 40
0.0
 41
0.0
 42
0.0
 43
0.0
 44
0.0
 45
0.0
 46
0.0
 47
0.0
 48
0.0
 49
0.0
140
0.0
141
0.0
142
1.0
143
1.0
 70
  1712
 72
     0
 73
     0
 74
     0
  7

 75
     0
 76
     0
 77
     2
 78
   300
147
1.0
148
0.0
149
0.0
100
AcDbLayout
  1
Model
 70
     1
 71
     0
 10
0.0
 20
0.0
 11
210.0
 21
297.0
 12
0.0
 22
0.0
 32
0.0
 14
55.48496634269318
 24
92.7309468032193
 34
0.0
 15
153.2093140294602
 25
226.7309507132828
 35
0.0
146
0.0
 13
0.0
 23
0.0
 33
0.0
 16
1.0
 26
0.0
 36
0.0
 17
0.0
 27
1.0
 37
0.0
 76
     0
330
1F
331
29
  0
MATERIAL
  5
3D
102
{ACAD_REACTORS
330
3B
102
}
102
{ACAD_XDICTIONARY
360
66A
102
}
330
3B
100
AcDbMaterial
  1
ByBlock
  0
MATERIAL
  5
3C
102
{ACAD_REACTORS
330
3B
102
}
102
{ACAD_XDICTIONARY
360
668
102
}
330
3B
100
AcDbMaterial
  1
ByLayer
  0
MATERIAL
  5
3E
102
{ACAD_REACTORS
330
3B
102
}
102
{ACAD_XDICTIONARY
360
66C
102
}
330
3B
100
AcDbMaterial
  1
Global
  0
MLINESTYLE
  5
18
102
{ACAD_REACTORS
330
17
102
}
330
17
100
AcDbMlineStyle
  2
Standard
 70
     0
  3

 62
   256
 51
90.0
 52
90.0
 71
     2
 49
0.5
 62
   256
  6
BYLAYER
 49
-0.5
 62
   256
  6
BYLAYER
  0
ACDBPLACEHOLDER
  5
F
102
{ACAD_REACTORS
330
E
102
}
330
E
  0
VISUALSTYLE
  5
2F
102
{ACAD_REACTORS
330
2A
102
}
102
{ACAD_XDICTIONARY
360
650
102
}
330
2A
100
AcDbVisualStyle
  2
2dWireframe
 70
     4
 71
     0
 72
     2
 73
     0
 90
        0
 40
-0.6
 41
-30.0
 62
     5
 63
     7
421
 16777215
 74
     1
 91
        4
 64
     7
 65
   257
 75
     1
175
     1
 42
1.0
 92
        0
 66
   257
 43
1.0
 76
     1
 77
     6
 78
     2
 67
     7
 79
     5
170
     0
171
     0
290
     0
174
     0
 93
        1
 44
0.0
173
     0
291
     0
 45
0.0
1001
ACAD
1000
AcDbSavedByObjectVersion
1070
     0
  0
VISUALSTYLE
  5
31
102
{ACAD_REACTORS
330
2A
102
}
102
{ACAD_XDICTIONARY
360
654
102
}
330
2A
100
AcDbVisualStyle
  2
3D Hidden
 70
     6
 71
     1
 72
     2
 73
     2
 90
        0
 40
-0.6
 41
-30.0
 62
     5
 63
     7
421
 16777215
 74
     2
 91
        2
 64
     7
 65
   257
 75
     2
175
     1
 42
40.0
 92
        0
 66
   257
 43
1.0
 76
     1
 77
     6
 78
     2
 67
     7
 79
     3
170
     0
171
     0
290
     0
174
     0
 93
        1
 44
0.0
173
     0
291
     0
 45
0.0
1001
ACAD
1000
AcDbSavedByObjectVersion
1070
     0
  0
VISUALSTYLE
  5
30
102
{ACAD_REACTORS
330
2A
102
}
102
{ACAD_XDICTIONARY
360
652
102
}
330
2A
100
AcDbVisualStyle
  2
3dWireframe
 70
     5
 71
     0
 72
     2
 73
     0
 90
        0
 40
-0.6
 41
-30.0
 62
     5
 63
     7
421
 16777215
 74
     1
 91
        4
 64
     7
 65
   257
 75
     1
175
     1
 42
1.0
 92
        0
 66
   257
 43
1.0
 76
     1
 77
     6
 78
     2
 67
     7
 79
     5
170
     0
171
     0
290
     0
174
     0
 93
        1
 44
0.0
173
     0
291
     0
 45
0.0
1001
ACAD
1000
AcDbSavedByObjectVersion
1070
     0
  0
VISUALSTYLE
  5
32
102
{ACAD_REACTORS
330
2A
102
}
102
{ACAD_XDICTIONARY
360
656
102
}
330
2A
100
AcDbVisualStyle
  2
Basic
 70
     7
 71
     1
 72
     0
 73
     1
 90
        0
 40
-0.6
 41
-30.0
 62
     5
 63
     7
421
 16777215
 74
     0
 91
        4
 64
     7
 65
   257
 75
     1
175
     1
 42
1.0
 92
        8
 66
     7
 43
1.0
 76
     1
 77
     6
 78
     2
 67
     7
 79
     5
170
     0
171
     0
290
     0
174
     0
 93
        1
 44
0.0
173
     0
291
     1
 45
0.0
1001
ACAD
1000
AcDbSavedByObjectVersion
1070
     0
  0
VISUALSTYLE
  5
36
102
{ACAD_REACTORS
330
2A
102
}
102
{ACAD_XDICTIONARY
360
65E
102
}
330
2A
100
AcDbVisualStyle
  2
Brighten
 70
    12
 71
     2
 72
     2
 73
     0
 90
        0
 40
-0.6
 41
-30.0
 62
     5
 63
     7
421
 16777215
 74
     1
 91
        4
 64
     7
 65
   257
 75
     1
175
     1
 42
1.0
 92
        8
 66
     7
 43
1.0
 76
     1
 77
     6
 78
     2
 67
     7
 79
     5
170
     0
171
     0
290
     0
174
     0
 93
        1
 44
50.0
173
     0
291
     1
 45
0.0
1001
ACAD
1000
AcDbSavedByObjectVersion
1070
     0
  0
VISUALSTYLE
  5
3A
102
{ACAD_REACTORS
330
2A
102
}
102
{ACAD_XDICTIONARY
360
666
102
}
330
2A
100
AcDbVisualStyle
  2
ColorChange
 70
    16
 71
     2
 72
     2
 73
     3
 90
        0
 40
-0.6
 41
-30.0
 62
     5
 63
     8
421
  8421504
 74
     1
 91
        4
 64
     7
 65
   257
 75
     1
175
     1
 42
1.0
 92
        8
 66
     8
424
  8421504
 43
1.0
 76
     1
 77
     6
 78
     2
 67
     7
 79
     5
170
     0
171
     0
290
     0
174
     0
 93
        1
 44
0.0
173
     0
291
     1
 45
0.0
1001
ACAD
1000
AcDbSavedByObjectVersion
1070
     0
  0
VISUALSTYLE
  5
34
102
{ACAD_REACTORS
330
2A
102
}
102
{ACAD_XDICTIONARY
360
65A
102
}
330
2A
100
AcDbVisualStyle
  2
Conceptual
 70
     9
 71
     3
 72
     2
 73
     0
 90
        0
 40
-0.6
 41
-30.0
 62
     5
 63
     7
421
 16777215
 74
     2
 91
        2
 64
     7
 65
   257
 75
     1
175
     1
 42
40.0
 92
        8
 66
     7
 43
1.0
 76
     1
 77
     6
 78
     2
 67
     7
 79
     3
170
     0
171
     0
290
     0
174
     0
 93
        1
 44
0.0
173
     0
291
     0
 45
0.0
1001
ACAD
1000
AcDbSavedByObjectVersion
1070
     0
  0
VISUALSTYLE
  5
35
102
{ACAD_REACTORS
330
2A
102
}
102
{ACAD_XDICTIONARY
360
65C
102
}
330
2A
100
AcDbVisualStyle
  2
Dim
 70
    11
 71
     2
 72
     2
 73
     0
 90
        0
 40
-0.6
 41
-30.0
 62
     5
 63
     7
421
 16777215
 74
     1
 91
        4
 64
     7
 65
   257
 75
     1
175
     1
 42
1.0
 92
        8
 66
     7
 43
1.0
 76
     1
 77
     6
 78
     2
 67
     7
 79
     5
170
     0
171
     0
290
     0
174
     0
 93
        1
 44
-50.0
173
     0
291
     1
 45
0.0
1001
ACAD
1000
AcDbSavedByObjectVersion
1070
     0
  0
VISUALSTYLE
  5
39
102
{ACAD_REACTORS
330
2A
102
}
102
{ACAD_XDICTIONARY
360
664
102
}
330
2A
100
AcDbVisualStyle
  2
Facepattern
 70
    15
 71
     2
 72
     2
 73
     0
 90
        0
 40
-0.6
 41
-30.0
 62
     5
 63
     7
421
 16777215
 74
     1
 91
        4
 64
     7
 65
   257
 75
     1
175
     1
 42
1.0
 92
        8
 66
     7
 43
1.0
 76
     1
 77
     6
 78
     2
 67
     7
 79
     5
170
     0
171
     0
290
     0
174
     0
 93
        1
 44
0.0
173
     0
291
     1
 45
0.0
1001
ACAD
1000
AcDbSavedByObjectVersion
1070
     0
  0
VISUALSTYLE
  5
2B
102
{ACAD_REACTORS
330
2A
102
}
102
{ACAD_XDICTIONARY
360
648
102
}
330
2A
100
AcDbVisualStyle
  2
Flat
 70
     0
 71
     2
 72
     1
 73
     1
 90
        2
 40
-0.6
 41
30.0
 62
     5
 63
     7
421
 16777215
 74
     0
 91
        4
 64
     7
 65
   257
 75
     1
175
     1
 42
1.0
 92
        8
 66
     7
 43
1.0
 76
     1
 77
     6
 78
     2
 67
     7
 79
     5
170
     0
171
     0
290
     0
174
     0
 93
       13
 44
0.0
173
     0
291
     1
 45
0.0
1001
ACAD
1000
AcDbSavedByObjectVersion
1070
     0
  0
VISUALSTYLE
  5
2C
102
{ACAD_REACTORS
330
2A
102
}
102
{ACAD_XDICTIONARY
360
64A
102
}
330
2A
100
AcDbVisualStyle
  2
FlatWithEdges
 70
     1
 71
     2
 72
     1
 73
     1
 90
        2
 40
-0.6
 41
30.0
 62
     5
 63
     7
421
 16777215
 74
     1
 91
        4
 64
     7
 65
   257
 75
     1
175
     1
 42
1.0
 92
        0
 66
   257
 43
1.0
 76
     1
 77
     6
 78
     2
 67
     7
 79
     5
170
     0
171
     0
290
     0
174
     0
 93
       13
 44
0.0
173
     0
291
     1
 45
0.0
1001
ACAD
1000
AcDbSavedByObjectVersion
1070
     0
  0
VISUALSTYLE
  5
2D
102
{ACAD_REACTORS
330
2A
102
}
102
{ACAD_XDICTIONARY
360
64C
102
}
330
2A
100
AcDbVisualStyle
  2
Gouraud
 70
     2
 71
     2
 72
     2
 73
     1
 90
        2
 40
-0.6
 41
30.0
 62
     5
 63
     7
421
 16777215
 74
     0
 91
        4
 64
     7
 65
   257
 75
     1
175
     1
 42
1.0
 92
        0
 66
     7
 43
1.0
 76
     1
 77
     6
 78
     2
 67
     7
 79
     5
170
     0
171
     0
290
     0
174
     0
 93
       13
 44
0.0
173
     0
291
     1
 45
0.0
1001
ACAD
1000
AcDbSavedByObjectVersion
1070
     0
  0
VISUALSTYLE
  5
2E
102
{ACAD_REACTORS
330
2A
102
}
102
{ACAD_XDICTIONARY
360
64E
102
}
330
2A
100
AcDbVisualStyle
  2
GouraudWithEdges
 70
     3
 71
     2
 72
     2
 73
     1
 90
        2
 40
-0.6
 41
30.0
 62
     5
 63
     7
421
 16777215
 74
     1
 91
        4
 64
     7
 65
   257
 75
     1
175
     1
 42
1.0
 92
        0
 66
   257
 43
1.0
 76
     1
 77
     6
 78
     2
 67
     7
 79
     5
170
     0
171
     0
290
     0
174
     0
 93
       13
 44
0.0
173
     0
291
     1
 45
0.0
1001
ACAD
1000
AcDbSavedByObjectVersion
1070
     0
  0
VISUALSTYLE
  5
38
102
{ACAD_REACTORS
330
2A
102
}
102
{ACAD_XDICTIONARY
360
662
102
}
330
2A
100
AcDbVisualStyle
  2
Linepattern
 70
    14
 71
     2
 72
     2
 73
     0
 90
        0
 40
-0.6
 41
-30.0
 62
     5
 63
     7
421
 16777215
 74
     1
 91
        4
 64
     7
 65
   257
 75
     7
175
     7
 42
1.0
 92
        8
 66
     7
 43
1.0
 76
     1
 77
     6
 78
     2
 67
     7
 79
     5
170
     0
171
     0
290
     0
174
     0
 93
        1
 44
0.0
173
     0
291
     1
 45
0.0
1001
ACAD
1000
AcDbSavedByObjectVersion
1070
     0
  0
VISUALSTYLE
  5
33
102
{ACAD_REACTORS
330
2A
102
}
102
{ACAD_XDICTIONARY
360
658
102
}
330
2A
100
AcDbVisualStyle
  2
Realistic
 70
     8
 71
     2
 72
     2
 73
     0
 90
        0
 40
-0.6
 41
-30.0
 62
     5
 63
     7
421
 16777215
 74
     1
 91
        0
 64
     7
 65
   257
 75
     1
175
     1
 42
1.0
 92
        8
 66
     8
424
  7895160
 43
1.0
 76
     1
 77
     6
 78
     2
 67
     7
 79
     5
170
     0
171
     0
290
     0
174
     0
 93
       13
 44
0.0
173
     0
291
     0
 45
0.0
1001
ACAD
1000
AcDbSavedByObjectVersion
1070
     0
  0
VISUALSTYLE
  5
37
102
{ACAD_REACTORS
330
2A
102
}
102
{ACAD_XDICTIONARY
360
660
102
}
330
2A
100
AcDbVisualStyle
  2
Thicken
 70
    13
 71
     2
 72
     2
 73
     0
 90
        0
 40
-0.6
 41
-30.0
 62
     5
 63
     7
421
 16777215
 74
     1
 91
        4
 64
     7
 65
   257
 75
     1
175
     1
 42
1.0
 92
       12
 66
     7
 43
1.0
 76
     1
 77
     6
 78
     2
 67
     7
 79
     5
170
     0
171
     0
290
     0
174
     0
 93
        1
 44
0.0
173
     0
291
     1
 45
0.0
1001
ACAD
1000
AcDbSavedByObjectVersion
1070
     0
  0
DICTIONARY
  5
66A
330
3D
100
AcDbDictionary
280
     1
281
     1
  3
ACAD_XREC_ROUNDTRIP
360
66B
  0
DICTIONARY
  5
668
330
3C
100
AcDbDictionary
280
     1
281
     1
  3
ACAD_XREC_ROUNDTRIP
360
669
  0
DICTIONARY
  5
66C
330
3E
100
AcDbDictionary
280
     1
281
     1
  3
ACAD_XREC_ROUNDTRIP
360
66D
  0
DICTIONARY
  5
650
330
2F
100
AcDbDictionary
280
     1
281
     1
  3
ACAD_XREC_ROUNDTRIP
360
651
  0
DICTIONARY
  5
654
330
31
100
AcDbDictionary
280
     1
281
     1
  3
ACAD_XREC_ROUNDTRIP
360
655
  0
DICTIONARY
  5
652
330
30
100
AcDbDictionary
280
     1
281
     1
  3
ACAD_XREC_ROUNDTRIP
360
653
  0
DICTIONARY
  5
656
330
32
100
AcDbDictionary
280
     1
281
     1
  3
ACAD_XREC_ROUNDTRIP
360
657
  0
DICTIONARY
  5
65E
330
36
100
AcDbDictionary
280
     1
281
     1
  3
ACAD_XREC_ROUNDTRIP
360
65F
  0
DICTIONARY
  5
666
330
3A
100
AcDbDictionary
280
     1
281
     1
  3
ACAD_XREC_ROUNDTRIP
360
667
  0
DICTIONARY
  5
65A
330
34
100
AcDbDictionary
280
     1
281
     1
  3
ACAD_XREC_ROUNDTRIP
360
65B
  0
DICTIONARY
  5
65C
330
35
100
AcDbDictionary
280
     1
281
     1
  3
ACAD_XREC_ROUNDTRIP
360
65D
  0
DICTIONARY
  5
664
330
39
100
AcDbDictionary
280
     1
281
     1
  3
ACAD_XREC_ROUNDTRIP
360
665
  0
DICTIONARY
  5
648
330
2B
100
AcDbDictionary
280
     1
281
     1
  3
ACAD_XREC_ROUNDTRIP
360
649
  0
DICTIONARY
  5
64A
330
2C
100
AcDbDictionary
280
     1
281
     1
  3
ACAD_XREC_ROUNDTRIP
360
64B
  0
DICTIONARY
  5
64C
330
2D
100
AcDbDictionary
280
     1
281
     1
  3
ACAD_XREC_ROUNDTRIP
360
64D
  0
DICTIONARY
  5
64E
330
2E
100
AcDbDictionary
280
     1
281
     1
  3
ACAD_XREC_ROUNDTRIP
360
64F
  0
DICTIONARY
  5
662
330
38
100
AcDbDictionary
280
     1
281
     1
  3
ACAD_XREC_ROUNDTRIP
360
663
  0
DICTIONARY
  5
658
330
33
100
AcDbDictionary
280
     1
281
     1
  3
ACAD_XREC_ROUNDTRIP
360
659
  0
DICTIONARY
  5
660
330
37
100
AcDbDictionary
280
     1
281
     1
  3
ACAD_XREC_ROUNDTRIP
360
661
  0
XRECORD
  5
66B
102
{ACAD_REACTORS
330
66A
102
}
330
66A
100
AcDbXrecord
280
     1
102
MATERIAL
148
0.0
149
0.0
149
0.0
 93
        0
 94
      127
282
     0
 72
     1
 77
     1
171
     1
175
     1
179
     1
273
     0
  0
XRECORD
  5
669
102
{ACAD_REACTORS
330
668
102
}
330
668
100
AcDbXrecord
280
     1
102
MATERIAL
148
0.0
149
0.0
149
0.0
 93
        0
 94
      127
282
     0
 72
     1
 77
     1
171
     1
175
     1
179
     1
273
     0
  0
XRECORD
  5
66D
102
{ACAD_REACTORS
330
66C
102
}
330
66C
100
AcDbXrecord
280
     1
102
MATERIAL
148
0.0
149
0.0
149
0.0
 93
        0
 94
      127
282
     0
 72
     1
 77
     1
171
     1
175
     1
179
     1
273
     0
  0
XRECORD
  5
651
102
{ACAD_REACTORS
330
650
102
}
330
650
100
AcDbXrecord
280
     1
102
RTVSPropertyOp0
 70
     1
102
RTVSPropertyOp1
 70
     1
102
RTVSPropertyOp2
 70
     1
102
RTVSPropertyOp3
 70
     1
102
RTVSPropertyOp4
 70
     1
102
RTVSPropertyOp5
 70
     1
102
RTVSPropertyOp6
 70
     1
102
RTVSPropertyOp7
 70
     1
102
RTVSPropertyOp8
 70
     1
102
RTVSPropertyOp9
 70
     1
102
RTVSPropertyOp10
 70
     1
102
RTVSPropertyOp11
 70
     1
102
RTVSPropertyOp12
 70
     1
102
RTVSPropertyOp13
 70
     1
102
RTVSPropertyOp14
 70
     1
102
RTVSPropertyOp15
 70
     1
102
RTVSPropertyOp16
 70
     1
102
RTVSPropertyOp17
 70
     1
102
RTVSPropertyOp18
 70
     1
102
RTVSPropertyOp19
 70
     1
102
RTVSPropertyOp20
 70
     1
102
RTVSPropertyOp21
 70
     1
102
RTVSPropertyOp22
 70
     1
102
RTVSPropertyOp23
 70
     1
102
RTVSPropertyOp24
 70
     1
102
RTVSPropertyOp25
 70
     1
102
RTVSPropertyOp26
 70
     1
102
RTVSPropertyOp27
 70
     1
102
RTVSPropertyOp28
 70
     1
102
RTVSPropertyOp29
 70
     1
102
RTVSPropertyOp30
 70
     1
102
RTVSPropertyOp31
 70
     1
102
RTVSPropertyOp32
 70
     1
  0
XRECORD
  5
655
102
{ACAD_REACTORS
330
654
102
}
330
654
100
AcDbXrecord
280
     1
102
RTVSPropertyOp0
 70
     1
102
RTVSPropertyOp1
 70
     1
102
RTVSPropertyOp2
 70
     1
102
RTVSPropertyOp3
 70
     1
102
RTVSPropertyOp4
 70
     1
102
RTVSPropertyOp5
 70
     1
102
RTVSPropertyOp6
 70
     1
102
RTVSPropertyOp7
 70
     1
102
RTVSPropertyOp8
 70
     1
102
RTVSPropertyOp9
 70
     1
102
RTVSPropertyOp10
 70
     1
102
RTVSPropertyOp11
 70
     1
102
RTVSPropertyOp12
 70
     1
102
RTVSPropertyOp13
 70
     1
102
RTVSPropertyOp14
 70
     1
102
RTVSPropertyOp15
 70
     1
102
RTVSPropertyOp16
 70
     1
102
RTVSPropertyOp17
 70
     1
102
RTVSPropertyOp18
 70
     1
102
RTVSPropertyOp19
 70
     1
102
RTVSPropertyOp20
 70
     1
102
RTVSPropertyOp21
 70
     1
102
RTVSPropertyOp22
 70
     1
102
RTVSPropertyOp23
 70
     1
102
RTVSPropertyOp24
 70
     1
102
RTVSPropertyOp25
 70
     1
102
RTVSPropertyOp26
 70
     1
102
RTVSPropertyOp27
 70
     1
102
RTVSPropertyOp28
 70
     1
102
RTVSPropertyOp29
 70
     1
102
RTVSPropertyOp30
 70
     1
102
RTVSPropertyOp31
 70
     1
102
RTVSPropertyOp32
 70
     1
  0
XRECORD
  5
653
102
{ACAD_REACTORS
330
652
102
}
330
652
100
AcDbXrecord
280
     1
102
RTVSPropertyOp0
 70
     1
102
RTVSPropertyOp1
 70
     1
102
RTVSPropertyOp2
 70
     1
102
RTVSPropertyOp3
 70
     1
102
RTVSPropertyOp4
 70
     1
102
RTVSPropertyOp5
 70
     1
102
RTVSPropertyOp6
 70
     1
102
RTVSPropertyOp7
 70
     1
102
RTVSPropertyOp8
 70
     1
102
RTVSPropertyOp9
 70
     1
102
RTVSPropertyOp10
 70
     1
102
RTVSPropertyOp11
 70
     1
102
RTVSPropertyOp12
 70
     1
102
RTVSPropertyOp13
 70
     1
102
RTVSPropertyOp14
 70
     1
102
RTVSPropertyOp15
 70
     1
102
RTVSPropertyOp16
 70
     1
102
RTVSPropertyOp17
 70
     1
102
RTVSPropertyOp18
 70
     1
102
RTVSPropertyOp19
 70
     1
102
RTVSPropertyOp20
 70
     1
102
RTVSPropertyOp21
 70
     1
102
RTVSPropertyOp22
 70
     1
102
RTVSPropertyOp23
 70
     1
102
RTVSPropertyOp24
 70
     1
102
RTVSPropertyOp25
 70
     1
102
RTVSPropertyOp26
 70
     1
102
RTVSPropertyOp27
 70
     1
102
RTVSPropertyOp28
 70
     1
102
RTVSPropertyOp29
 70
     1
102
RTVSPropertyOp30
 70
     1
102
RTVSPropertyOp31
 70
     1
102
RTVSPropertyOp32
 70
     1
  0
XRECORD
  5
657
102
{ACAD_REACTORS
330
656
102
}
330
656
100
AcDbXrecord
280
     1
102
RTVSPropertyOp0
 70
     1
102
RTVSPropertyOp1
 70
     1
102
RTVSPropertyOp2
 70
     1
102
RTVSPropertyOp3
 70
     1
102
RTVSPropertyOp4
 70
     1
102
RTVSPropertyOp5
 70
     1
102
RTVSPropertyOp6
 70
     1
102
RTVSPropertyOp7
 70
     1
102
RTVSPropertyOp8
 70
     1
102
RTVSPropertyOp9
 70
     1
102
RTVSPropertyOp10
 70
     1
102
RTVSPropertyOp11
 70
     1
102
RTVSPropertyOp12
 70
     1
102
RTVSPropertyOp13
 70
     1
102
RTVSPropertyOp14
 70
     1
102
RTVSPropertyOp15
 70
     1
102
RTVSPropertyOp16
 70
     1
102
RTVSPropertyOp17
 70
     1
102
RTVSPropertyOp18
 70
     1
102
RTVSPropertyOp19
 70
     1
102
RTVSPropertyOp20
 70
     1
102
RTVSPropertyOp21
 70
     1
102
RTVSPropertyOp22
 70
     1
102
RTVSPropertyOp23
 70
     1
102
RTVSPropertyOp24
 70
     1
102
RTVSPropertyOp25
 70
     1
102
RTVSPropertyOp26
 70
     1
102
RTVSPropertyOp27
 70
     1
102
RTVSPropertyOp28
 70
     1
102
RTVSPropertyOp29
 70
     1
102
RTVSPropertyOp30
 70
     1
102
RTVSPropertyOp31
 70
     1
102
RTVSPropertyOp32
 70
     1
  0
XRECORD
  5
65F
102
{ACAD_REACTORS
330
65E
102
}
330
65E
100
AcDbXrecord
280
     1
102
RTVSPropertyOp0
 70
     1
102
RTVSPropertyOp1
 70
     1
102
RTVSPropertyOp2
 70
     1
102
RTVSPropertyOp3
 70
     1
102
RTVSPropertyOp4
 70
     1
102
RTVSPropertyOp5
 70
     1
102
RTVSPropertyOp6
 70
     1
102
RTVSPropertyOp7
 70
     1
102
RTVSPropertyOp8
 70
     1
102
RTVSPropertyOp9
 70
     1
102
RTVSPropertyOp10
 70
     1
102
RTVSPropertyOp11
 70
     1
102
RTVSPropertyOp12
 70
     1
102
RTVSPropertyOp13
 70
     1
102
RTVSPropertyOp14
 70
     1
102
RTVSPropertyOp15
 70
     1
102
RTVSPropertyOp16
 70
     1
102
RTVSPropertyOp17
 70
     1
102
RTVSPropertyOp18
 70
     1
102
RTVSPropertyOp19
 70
     1
102
RTVSPropertyOp20
 70
     1
102
RTVSPropertyOp21
 70
     1
102
RTVSPropertyOp22
 70
     1
102
RTVSPropertyOp23
 70
     1
102
RTVSPropertyOp24
 70
     1
102
RTVSPropertyOp25
 70
     1
102
RTVSPropertyOp26
 70
     1
102
RTVSPropertyOp27
 70
     1
102
RTVSPropertyOp28
 70
     1
102
RTVSPropertyOp29
 70
     1
102
RTVSPropertyOp30
 70
     1
102
RTVSPropertyOp31
 70
     1
102
RTVSPropertyOp32
 70
     1
  0
XRECORD
  5
667
102
{ACAD_REACTORS
330
666
102
}
330
666
100
AcDbXrecord
280
     1
102
RTVSPropertyOp0
 70
     1
102
RTVSPropertyOp1
 70
     1
102
RTVSPropertyOp2
 70
     1
102
RTVSPropertyOp3
 70
     1
102
RTVSPropertyOp4
 70
     1
102
RTVSPropertyOp5
 70
     1
102
RTVSPropertyOp6
 70
     1
102
RTVSPropertyOp7
 70
     1
102
RTVSPropertyOp8
 70
     1
102
RTVSPropertyOp9
 70
     1
102
RTVSPropertyOp10
 70
     1
102
RTVSPropertyOp11
 70
     1
102
RTVSPropertyOp12
 70
     1
102
RTVSPropertyOp13
 70
     1
102
RTVSPropertyOp14
 70
     1
102
RTVSPropertyOp15
 70
     1
102
RTVSPropertyOp16
 70
     1
102
RTVSPropertyOp17
 70
     1
102
RTVSPropertyOp18
 70
     1
102
RTVSPropertyOp19
 70
     1
102
RTVSPropertyOp20
 70
     1
102
RTVSPropertyOp21
 70
     1
102
RTVSPropertyOp22
 70
     1
102
RTVSPropertyOp23
 70
     1
102
RTVSPropertyOp24
 70
     1
102
RTVSPropertyOp25
 70
     1
102
RTVSPropertyOp26
 70
     1
102
RTVSPropertyOp27
 70
     1
102
RTVSPropertyOp28
 70
     1
102
RTVSPropertyOp29
 70
     1
102
RTVSPropertyOp30
 70
     1
102
RTVSPropertyOp31
 70
     1
102
RTVSPropertyOp32
 70
     1
  0
XRECORD
  5
65B
102
{ACAD_REACTORS
330
65A
102
}
330
65A
100
AcDbXrecord
280
     1
102
RTVSPropertyOp0
 70
     1
102
RTVSPropertyOp1
 70
     1
102
RTVSPropertyOp2
 70
     1
102
RTVSPropertyOp3
 70
     1
102
RTVSPropertyOp4
 70
     1
102
RTVSPropertyOp5
 70
     1
102
RTVSPropertyOp6
 70
     1
102
RTVSPropertyOp7
 70
     1
102
RTVSPropertyOp8
 70
     1
102
RTVSPropertyOp9
 70
     1
102
RTVSPropertyOp10
 70
     1
102
RTVSPropertyOp11
 70
     1
102
RTVSPropertyOp12
 70
     1
102
RTVSPropertyOp13
 70
     1
102
RTVSPropertyOp14
 70
     1
102
RTVSPropertyOp15
 70
     1
102
RTVSPropertyOp16
 70
     1
102
RTVSPropertyOp17
 70
     1
102
RTVSPropertyOp18
 70
     1
102
RTVSPropertyOp19
 70
     1
102
RTVSPropertyOp20
 70
     1
102
RTVSPropertyOp21
 70
     1
102
RTVSPropertyOp22
 70
     1
102
RTVSPropertyOp23
 70
     1
102
RTVSPropertyOp24
 70
     1
102
RTVSPropertyOp25
 70
     1
102
RTVSPropertyOp26
 70
     1
102
RTVSPropertyOp27
 70
     1
102
RTVSPropertyOp28
 70
     1
102
RTVSPropertyOp29
 70
     1
102
RTVSPropertyOp30
 70
     1
102
RTVSPropertyOp31
 70
     1
102
RTVSPropertyOp32
 70
     1
  0
XRECORD
  5
65D
102
{ACAD_REACTORS
330
65C
102
}
330
65C
100
AcDbXrecord
280
     1
102
RTVSPropertyOp0
 70
     1
102
RTVSPropertyOp1
 70
     1
102
RTVSPropertyOp2
 70
     1
102
RTVSPropertyOp3
 70
     1
102
RTVSPropertyOp4
 70
     1
102
RTVSPropertyOp5
 70
     1
102
RTVSPropertyOp6
 70
     1
102
RTVSPropertyOp7
 70
     1
102
RTVSPropertyOp8
 70
     1
102
RTVSPropertyOp9
 70
     1
102
RTVSPropertyOp10
 70
     1
102
RTVSPropertyOp11
 70
     1
102
RTVSPropertyOp12
 70
     1
102
RTVSPropertyOp13
 70
     1
102
RTVSPropertyOp14
 70
     1
102
RTVSPropertyOp15
 70
     1
102
RTVSPropertyOp16
 70
     1
102
RTVSPropertyOp17
 70
     1
102
RTVSPropertyOp18
 70
     1
102
RTVSPropertyOp19
 70
     1
102
RTVSPropertyOp20
 70
     1
102
RTVSPropertyOp21
 70
     1
102
RTVSPropertyOp22
 70
     1
102
RTVSPropertyOp23
 70
     1
102
RTVSPropertyOp24
 70
     1
102
RTVSPropertyOp25
 70
     1
102
RTVSPropertyOp26
 70
     1
102
RTVSPropertyOp27
 70
     1
102
RTVSPropertyOp28
 70
     1
102
RTVSPropertyOp29
 70
     1
102
RTVSPropertyOp30
 70
     1
102
RTVSPropertyOp31
 70
     1
102
RTVSPropertyOp32
 70
     1
  0
XRECORD
  5
665
102
{ACAD_REACTORS
330
664
102
}
330
664
100
AcDbXrecord
280
     1
102
RTVSPropertyOp0
 70
     1
102
RTVSPropertyOp1
 70
     1
102
RTVSPropertyOp2
 70
     1
102
RTVSPropertyOp3
 70
     1
102
RTVSPropertyOp4
 70
     1
102
RTVSPropertyOp5
 70
     1
102
RTVSPropertyOp6
 70
     1
102
RTVSPropertyOp7
 70
     1
102
RTVSPropertyOp8
 70
     1
102
RTVSPropertyOp9
 70
     1
102
RTVSPropertyOp10
 70
     1
102
RTVSPropertyOp11
 70
     1
102
RTVSPropertyOp12
 70
     1
102
RTVSPropertyOp13
 70
     1
102
RTVSPropertyOp14
 70
     1
102
RTVSPropertyOp15
 70
     1
102
RTVSPropertyOp16
 70
     1
102
RTVSPropertyOp17
 70
     1
102
RTVSPropertyOp18
 70
     1
102
RTVSPropertyOp19
 70
     1
102
RTVSPropertyOp20
 70
     1
102
RTVSPropertyOp21
 70
     1
102
RTVSPropertyOp22
 70
     1
102
RTVSPropertyOp23
 70
     1
102
RTVSPropertyOp24
 70
     1
102
RTVSPropertyOp25
 70
     1
102
RTVSPropertyOp26
 70
     1
102
RTVSPropertyOp27
 70
     1
102
RTVSPropertyOp28
 70
     1
102
RTVSPropertyOp29
 70
     1
102
RTVSPropertyOp30
 70
     1
102
RTVSPropertyOp31
 70
     1
102
RTVSPropertyOp32
 70
     1
  0
XRECORD
  5
649
102
{ACAD_REACTORS
330
648
102
}
330
648
100
AcDbXrecord
280
     1
102
RTVSPropertyOp0
 70
     1
102
RTVSPropertyOp1
 70
     1
102
RTVSPropertyOp2
 70
     1
102
RTVSPropertyOp3
 70
     1
102
RTVSPropertyOp4
 70
     1
102
RTVSPropertyOp5
 70
     1
102
RTVSPropertyOp6
 70
     1
102
RTVSPropertyOp7
 70
     1
102
RTVSPropertyOp8
 70
     1
102
RTVSPropertyOp9
 70
     1
102
RTVSPropertyOp10
 70
     1
102
RTVSPropertyOp11
 70
     1
102
RTVSPropertyOp12
 70
     1
102
RTVSPropertyOp13
 70
     1
102
RTVSPropertyOp14
 70
     1
102
RTVSPropertyOp15
 70
     1
102
RTVSPropertyOp16
 70
     1
102
RTVSPropertyOp17
 70
     1
102
RTVSPropertyOp18
 70
     1
102
RTVSPropertyOp19
 70
     1
102
RTVSPropertyOp20
 70
     1
102
RTVSPropertyOp21
 70
     1
102
RTVSPropertyOp22
 70
     1
102
RTVSPropertyOp23
 70
     1
102
RTVSPropertyOp24
 70
     1
102
RTVSPropertyOp25
 70
     1
102
RTVSPropertyOp26
 70
     1
102
RTVSPropertyOp27
 70
     1
102
RTVSPropertyOp28
 70
     1
102
RTVSPropertyOp29
 70
     1
102
RTVSPropertyOp30
 70
     1
102
RTVSPropertyOp31
 70
     1
102
RTVSPropertyOp32
 70
     1
  0
XRECORD
  5
64B
102
{ACAD_REACTORS
330
64A
102
}
330
64A
100
AcDbXrecord
280
     1
102
RTVSPropertyOp0
 70
     1
102
RTVSPropertyOp1
 70
     1
102
RTVSPropertyOp2
 70
     1
102
RTVSPropertyOp3
 70
     1
102
RTVSPropertyOp4
 70
     1
102
RTVSPropertyOp5
 70
     1
102
RTVSPropertyOp6
 70
     1
102
RTVSPropertyOp7
 70
     1
102
RTVSPropertyOp8
 70
     1
102
RTVSPropertyOp9
 70
     1
102
RTVSPropertyOp10
 70
     1
102
RTVSPropertyOp11
 70
     1
102
RTVSPropertyOp12
 70
     1
102
RTVSPropertyOp13
 70
     1
102
RTVSPropertyOp14
 70
     1
102
RTVSPropertyOp15
 70
     1
102
RTVSPropertyOp16
 70
     1
102
RTVSPropertyOp17
 70
     1
102
RTVSPropertyOp18
 70
     1
102
RTVSPropertyOp19
 70
     1
102
RTVSPropertyOp20
 70
     1
102
RTVSPropertyOp21
 70
     1
102
RTVSPropertyOp22
 70
     1
102
RTVSPropertyOp23
 70
     1
102
RTVSPropertyOp24
 70
     1
102
RTVSPropertyOp25
 70
     1
102
RTVSPropertyOp26
 70
     1
102
RTVSPropertyOp27
 70
     1
102
RTVSPropertyOp28
 70
     1
102
RTVSPropertyOp29
 70
     1
102
RTVSPropertyOp30
 70
     1
102
RTVSPropertyOp31
 70
     1
102
RTVSPropertyOp32
 70
     1
  0
XRECORD
  5
64D
102
{ACAD_REACTORS
330
64C
102
}
330
64C
100
AcDbXrecord
280
     1
102
RTVSPropertyOp0
 70
     1
102
RTVSPropertyOp1
 70
     1
102
RTVSPropertyOp2
 70
     1
102
RTVSPropertyOp3
 70
     1
102
RTVSPropertyOp4
 70
     1
102
RTVSPropertyOp5
 70
     1
102
RTVSPropertyOp6
 70
     1
102
RTVSPropertyOp7
 70
     1
102
RTVSPropertyOp8
 70
     1
102
RTVSPropertyOp9
 70
     1
102
RTVSPropertyOp10
 70
     1
102
RTVSPropertyOp11
 70
     1
102
RTVSPropertyOp12
 70
     1
102
RTVSPropertyOp13
 70
     1
102
RTVSPropertyOp14
 70
     1
102
RTVSPropertyOp15
 70
     1
102
RTVSPropertyOp16
 70
     1
102
RTVSPropertyOp17
 70
     1
102
RTVSPropertyOp18
 70
     1
102
RTVSPropertyOp19
 70
     1
102
RTVSPropertyOp20
 70
     1
102
RTVSPropertyOp21
 70
     1
102
RTVSPropertyOp22
 70
     1
102
RTVSPropertyOp23
 70
     1
102
RTVSPropertyOp24
 70
     1
102
RTVSPropertyOp25
 70
     1
102
RTVSPropertyOp26
 70
     1
102
RTVSPropertyOp27
 70
     1
102
RTVSPropertyOp28
 70
     1
102
RTVSPropertyOp29
 70
     1
102
RTVSPropertyOp30
 70
     1
102
RTVSPropertyOp31
 70
     1
102
RTVSPropertyOp32
 70
     1
  0
XRECORD
  5
64F
102
{ACAD_REACTORS
330
64E
102
}
330
64E
100
AcDbXrecord
280
     1
102
RTVSPropertyOp0
 70
     1
102
RTVSPropertyOp1
 70
     1
102
RTVSPropertyOp2
 70
     1
102
RTVSPropertyOp3
 70
     1
102
RTVSPropertyOp4
 70
     1
102
RTVSPropertyOp5
 70
     1
102
RTVSPropertyOp6
 70
     1
102
RTVSPropertyOp7
 70
     1
102
RTVSPropertyOp8
 70
     1
102
RTVSPropertyOp9
 70
     1
102
RTVSPropertyOp10
 70
     1
102
RTVSPropertyOp11
 70
     1
102
RTVSPropertyOp12
 70
     1
102
RTVSPropertyOp13
 70
     1
102
RTVSPropertyOp14
 70
     1
102
RTVSPropertyOp15
 70
     1
102
RTVSPropertyOp16
 70
     1
102
RTVSPropertyOp17
 70
     1
102
RTVSPropertyOp18
 70
     1
102
RTVSPropertyOp19
 70
     1
102
RTVSPropertyOp20
 70
     1
102
RTVSPropertyOp21
 70
     1
102
RTVSPropertyOp22
 70
     1
102
RTVSPropertyOp23
 70
     1
102
RTVSPropertyOp24
 70
     1
102
RTVSPropertyOp25
 70
     1
102
RTVSPropertyOp26
 70
     1
102
RTVSPropertyOp27
 70
     1
102
RTVSPropertyOp28
 70
     1
102
RTVSPropertyOp29
 70
     1
102
RTVSPropertyOp30
 70
     1
102
RTVSPropertyOp31
 70
     1
102
RTVSPropertyOp32
 70
     1
  0
XRECORD
  5
663
102
{ACAD_REACTORS
330
662
102
}
330
662
100
AcDbXrecord
280
     1
102
RTVSPropertyOp0
 70
     1
102
RTVSPropertyOp1
 70
     1
102
RTVSPropertyOp2
 70
     1
102
RTVSPropertyOp3
 70
     1
102
RTVSPropertyOp4
 70
     1
102
RTVSPropertyOp5
 70
     1
102
RTVSPropertyOp6
 70
     1
102
RTVSPropertyOp7
 70
     1
102
RTVSPropertyOp8
 70
     1
102
RTVSPropertyOp9
 70
     1
102
RTVSPropertyOp10
 70
     1
102
RTVSPropertyOp11
 70
     1
102
RTVSPropertyOp12
 70
     1
102
RTVSPropertyOp13
 70
     1
102
RTVSPropertyOp14
 70
     1
102
RTVSPropertyOp15
 70
     1
102
RTVSPropertyOp16
 70
     1
102
RTVSPropertyOp17
 70
     1
102
RTVSPropertyOp18
 70
     1
102
RTVSPropertyOp19
 70
     1
102
RTVSPropertyOp20
 70
     1
102
RTVSPropertyOp21
 70
     1
102
RTVSPropertyOp22
 70
     1
102
RTVSPropertyOp23
 70
     1
102
RTVSPropertyOp24
 70
     1
102
RTVSPropertyOp25
 70
     1
102
RTVSPropertyOp26
 70
     1
102
RTVSPropertyOp27
 70
     1
102
RTVSPropertyOp28
 70
     1
102
RTVSPropertyOp29
 70
     1
102
RTVSPropertyOp30
 70
     1
102
RTVSPropertyOp31
 70
     1
102
RTVSPropertyOp32
 70
     1
  0
XRECORD
  5
659
102
{ACAD_REACTORS
330
658
102
}
330
658
100
AcDbXrecord
280
     1
102
RTVSPropertyOp0
 70
     1
102
RTVSPropertyOp1
 70
     1
102
RTVSPropertyOp2
 70
     1
102
RTVSPropertyOp3
 70
     1
102
RTVSPropertyOp4
 70
     1
102
RTVSPropertyOp5
 70
     1
102
RTVSPropertyOp6
 70
     1
102
RTVSPropertyOp7
 70
     1
102
RTVSPropertyOp8
 70
     1
102
RTVSPropertyOp9
 70
     1
102
RTVSPropertyOp10
 70
     1
102
RTVSPropertyOp11
 70
     1
102
RTVSPropertyOp12
 70
     1
102
RTVSPropertyOp13
 70
     1
102
RTVSPropertyOp14
 70
     1
102
RTVSPropertyOp15
 70
     1
102
RTVSPropertyOp16
 70
     1
102
RTVSPropertyOp17
 70
     1
102
RTVSPropertyOp18
 70
     1
102
RTVSPropertyOp19
 70
     1
102
RTVSPropertyOp20
 70
     1
102
RTVSPropertyOp21
 70
     1
102
RTVSPropertyOp22
 70
     1
102
RTVSPropertyOp23
 70
     1
102
RTVSPropertyOp24
 70
     1
102
RTVSPropertyOp25
 70
     1
102
RTVSPropertyOp26
 70
     1
102
RTVSPropertyOp27
 70
     1
102
RTVSPropertyOp28
 70
     1
102
RTVSPropertyOp29
 70
     1
102
RTVSPropertyOp30
 70
     1
102
RTVSPropertyOp31
 70
     1
102
RTVSPropertyOp32
 70
     1
  0
XRECORD
  5
661
102
{ACAD_REACTORS
330
660
102
}
330
660
100
AcDbXrecord
280
     1
102
RTVSPropertyOp0
 70
     1
102
RTVSPropertyOp1
 70
     1
102
RTVSPropertyOp2
 70
     1
102
RTVSPropertyOp3
 70
     1
102
RTVSPropertyOp4
 70
     1
102
RTVSPropertyOp5
 70
     1
102
RTVSPropertyOp6
 70
     1
102
RTVSPropertyOp7
 70
     1
102
RTVSPropertyOp8
 70
     1
102
RTVSPropertyOp9
 70
     1
102
RTVSPropertyOp10
 70
     1
102
RTVSPropertyOp11
 70
     1
102
RTVSPropertyOp12
 70
     1
102
RTVSPropertyOp13
 70
     1
102
RTVSPropertyOp14
 70
     1
102
RTVSPropertyOp15
 70
     1
102
RTVSPropertyOp16
 70
     1
102
RTVSPropertyOp17
 70
     1
102
RTVSPropertyOp18
 70
     1
102
RTVSPropertyOp19
 70
     1
102
RTVSPropertyOp20
 70
     1
102
RTVSPropertyOp21
 70
     1
102
RTVSPropertyOp22
 70
     1
102
RTVSPropertyOp23
 70
     1
102
RTVSPropertyOp24
 70
     1
102
RTVSPropertyOp25
 70
     1
102
RTVSPropertyOp26
 70
     1
102
RTVSPropertyOp27
 70
     1
102
RTVSPropertyOp28
 70
     1
102
RTVSPropertyOp29
 70
     1
102
RTVSPropertyOp30
 70
     1
102
RTVSPropertyOp31
 70
     1
102
RTVSPropertyOp32
 70
     1
  0
ENDSEC
  0
EOF
