  0
SECTION
  2
HEADER
  9
$ACADVER
  1
AC1014
  9
$ACADMAINTVER
 70
     9
  9
$DWGCODEPAGE
  3
ANSI_932
  9
$INSBASE
 10
0.0
 20
0.0
 30
0.0
  9
$EXTMIN
 10
0.0
 20
0.0
 30
0.0
  9
$EXTMAX
 10
1260.0
 20
891.0
 30
0.0
  9
$LIMMIN
 10
0.0
 20
0.0
  9
$LIMMAX
 10
1260.0
 20
891.0
  9
$ORTHOMODE
 70
     0
  9
$REGENMODE
 70
     1
  9
$FILLMODE
 70
     1
  9
$QTEXTMODE
 70
     0
  9
$MIRRTEXT
 70
     1
  9
$DRAGMODE
 70
     2
  9
$LTSCALE
 40
0.75
  9
$OSMODE
 70
    37
  9
$ATTMODE
 70
     1
  9
$TEXTSIZE
 40
15.0
  9
$TRACEWID
 40
0.05
  9
$TEXTSTYLE
  7
STANDARD
  9
$CLAYER
  8
0
  9
$CELTYPE
  6
BYLAYER
  9
$CECOLOR
 62
   256
  9
$CELTSCALE
 40
1.0
  9
$DELOBJ
 70
     1
  9
$DISPSILH
 70
     0
  9
$DIMSCALE
 40
3.0
  9
$DIMASZ
 40
4.0
  9
$DIMEXO
 40
2.0
  9
$DIMDLI
 40
10.0
  9
$DIMRND
 40
0.0
  9
$DIMDLE
 40
0.0
  9
$DIMEXE
 40
2.0
  9
$DIMTP
 40
0.0
  9
$DIMTM
 40
0.0
  9
$DIMTXT
 40
4.0
  9
$DIMCEN
 40
0.09
  9
$DIMTSZ
 40
0.0
  9
$DIMTOL
 70
     0
  9
$DIMLIM
 70
     0
  9
$DIMTIH
 70
     0
  9
$DIMTOH
 70
     0
  9
$DIMSE1
 70
     0
  9
$DIMSE2
 70
     0
  9
$DIMTAD
 70
     3
  9
$DIMZIN
 70
     8
  9
$DIMBLK
  1

  9
$DIMASO
 70
     1
  9
$DIMSHO
 70
     1
  9
$DIMPOST
  1

  9
$DIMAPOST
  1

  9
$DIMALT
 70
     0
  9
$DIMALTD
 70
     2
  9
$DIMALTF
 40
25.4
  9
$DIMLFAC
 40
1.0
  9
$DIMTOFL
 70
     1
  9
$DIMTVP
 40
0.7
  9
$DIMTIX
 70
     0
  9
$DIMSOXD
 70
     0
  9
$DIMSAH
 70
     0
  9
$DIMBLK1
  1

  9
$DIMBLK2
  1

  9
$DIMSTYLE
  2
STANDARD
  9
$DIMCLRD
 70
     0
  9
$DIMCLRE
 70
     0
  9
$DIMCLRT
 70
     0
  9
$DIMTFAC
 40
0.5
  9
$DIMGAP
 40
0.09
  9
$DIMJUST
 70
     0
  9
$DIMSD1
 70
     0
  9
$DIMSD2
 70
     0
  9
$DIMTOLJ
 70
     1
  9
$DIMTZIN
 70
     8
  9
$DIMALTZ
 70
     0
  9
$DIMALTTZ
 70
     0
  9
$DIMFIT
 70
     5
  9
$DIMUPT
 70
     1
  9
$DIMUNIT
 70
     2
  9
$DIMDEC
 70
     2
  9
$DIMTDEC
 70
     4
  9
$DIMALTU
 70
     2
  9
$DIMALTTD
 70
     2
  9
$DIMTXSTY
  7
STANDARD
  9
$DIMAUNIT
 70
     0
  9
$LUNITS
 70
     2
  9
$LUPREC
 70
     4
  9
$SKETCHINC
 40
0.1
  9
$FILLETRAD
 40
0.5
  9
$AUNITS
 70
     0
  9
$AUPREC
 70
     0
  9
$MENU
  1
.
  9
$ELEVATION
 40
0.0
  9
$PELEVATION
 40
0.0
  9
$THICKNESS
 40
0.0
  9
$LIMCHECK
 70
     0
  9
$CHAMFERA
 40
0.5
  9
$CHAMFERB
 40
0.5
  9
$CHAMFERC
 40
1.0
  9
$CHAMFERD
 40
0.0
  9
$SKPOLY
 70
     0
  9
$TDCREATE
 40
2457190.048865741
  9
$TDUPDATE
 40
2457190.048865741
  9
$TDINDWG
 40
0.0000000116
  9
$TDUSRTIMER
 40
0.0000000116
  9
$USRTIMER
 70
     1
  9
$ANGBASE
 50
0.0
  9
$ANGDIR
 70
     0
  9
$PDMODE
 70
     0
  9
$PDSIZE
 40
0.0
  9
$PLINEWID
 40
0.0
  9
$COORDS
 70
     1
  9
$SPLFRAME
 70
     0
  9
$SPLINETYPE
 70
     6
  9
$SPLINESEGS
 70
     8
  9
$ATTDIA
 70
     0
  9
$ATTREQ
 70
     1
  9
$HANDLING
 70
     1
  9
$HANDSEED
  5
1A1
  9
$SURFTAB1
 70
     6
  9
$SURFTAB2
 70
     6
  9
$SURFTYPE
 70
     6
  9
$SURFU
 70
     6
  9
$SURFV
 70
     6
  9
$UCSNAME
  2

  9
$UCSORG
 10
0.0
 20
0.0
 30
0.0
  9
$UCSXDIR
 10
1.0
 20
0.0
 30
0.0
  9
$UCSYDIR
 10
0.0
 20
1.0
 30
0.0
  9
$PUCSNAME
  2

  9
$PUCSORG
 10
0.0
 20
0.0
 30
0.0
  9
$PUCSXDIR
 10
1.0
 20
0.0
 30
0.0
  9
$PUCSYDIR
 10
0.0
 20
1.0
 30
0.0
  9
$USERI1
 70
     0
  9
$USERI2
 70
     0
  9
$USERI3
 70
     0
  9
$USERI4
 70
     0
  9
$USERI5
 70
     0
  9
$USERR1
 40
0.0
  9
$USERR2
 40
0.0
  9
$USERR3
 40
0.0
  9
$USERR4
 40
0.0
  9
$USERR5
 40
0.0
  9
$WORLDVIEW
 70
     1
  9
$SHADEDGE
 70
     3
  9
$SHADEDIF
 70
    70
  9
$TILEMODE
 70
     1
  9
$MAXACTVP
 70
    64
  9
$PINSBASE
 10
0.0
 20
0.0
 30
0.0
  9
$PLIMCHECK
 70
     0
  9
$PEXTMIN
 10
0.0
 20
0.0
 30
0.0
  9
$PEXTMAX
 10
420.0
 20
297.0
 30
0.0
  9
$PLIMMIN
 10
0.0
 20
0.0
  9
$PLIMMAX
 10
420.0
 20
297.0
  9
$UNITMODE
 70
     0
  9
$VISRETAIN
 70
     1
  9
$PLINEGEN
 70
     0
  9
$PSLTSCALE
 70
     1
  9
$TREEDEPTH
 70
  3020
  9
$PICKSTYLE
 70
     1
  9
$CMLSTYLE
  2
STANDARD
  9
$CMLJUST
 70
     0
  9
$CMLSCALE
 40
1.0
  9
$PROXYGRAPHICS
 70
     1
  9
$MEASUREMENT
 70
     1
  0
ENDSEC
  0
SECTION
  2
CLASSES
  0
CLASS
  1
ACDBDICTIONARYWDFLT
  2
AcDbDictionaryWithDefault
  3
ObjectDBX Classes
 90
        0
280
     0
281
     0
  0
CLASS
  1
DICTIONARYVAR
  2
AcDbDictionaryVar
  3
ObjectDBX Classes
 90
        0
280
     0
281
     0
  0
CLASS
  1
XRECORD
  2
AcDbXrecord
  3
AutoCAD 2000
 90
        0
280
     0
281
     0
  0
CLASS
  1
LWPOLYLINE
  2
AcDbPolyline
  3
AutoCAD 2000
 90
        0
280
     0
281
     1
  0
CLASS
  1
HATCH
  2
AcDbHatch
  3
AutoCAD 2000
 90
        0
280
     0
281
     1
  0
CLASS
  1
ACDBPLACEHOLDER
  2
AcDbPlaceHolder
  3
ObjectDBX Classes
 90
        0
280
     0
281
     0
  0
CLASS
  1
LAYOUT
  2
AcDbLayout
  3
ObjectDBX Classes
 90
        0
280
     0
281
     0
  0
ENDSEC
  0
SECTION
  2
TABLES
  0
TABLE
  2
VPORT
  5
8
330
0
100
AcDbSymbolTable
 70
     1
  0
VPORT
  5
29
330
8
100
AcDbSymbolTableRecord
100
AcDbViewportTableRecord
  2
*ACTIVE
 70
     0
 10
0.0
 20
0.0
 11
1.0
 21
1.0
 12
10.42990654205607
 22
4.5
 13
0.0
 23
0.0
 14
0.5
 24
0.5
 15
0.5
 25
0.5
 16
0.0
 26
0.0
 36
1.0
 17
0.0
 27
0.0
 37
0.0
 40
9.0
 41
1.972972972850329
 42
50.0
 43
0.0
 44
0.0
 50
0.0
 51
0.0
 71
     0
 72
   100
 73
     1
 74
     3
 75
     0
 76
     0
 77
     0
 78
     0
  0
ENDTAB
  0
TABLE
  2
LTYPE
  5
5
330
0
100
AcDbSymbolTable
 70
     9
  0
LTYPE
  5
14
330
5
100
AcDbSymbolTableRecord
100
AcDbLinetypeTableRecord
  2
BYBLOCK
 70
     0
  3

 72
    65
 73
     0
 40
0.0
  0
LTYPE
  5
15
330
5
100
AcDbSymbolTableRecord
100
AcDbLinetypeTableRecord
  2
BYLAYER
 70
     0
  3

 72
    65
 73
     0
 40
0.0
  0
LTYPE
  5
16
330
5
100
AcDbSymbolTableRecord
100
AcDbLinetypeTableRecord
  2
CONTINUOUS
 70
     0
  3
Solid line
 72
    65
 73
     0
 40
0.0
  0
LTYPE
  5
68
330
5
100
AcDbSymbolTableRecord
100
AcDbLinetypeTableRecord
  2
DOT
 70
     0
  3
DOT
 72
    65
 73
     2
 40
4.0
 49
6.0
 74
     0
 49
-2.0
 74
     0
  0
LTYPE
  5
69
330
5
100
AcDbSymbolTableRecord
100
AcDbLinetypeTableRecord
  2
HIDDEN
 70
     0
  3
HIDDEN
 72
    65
 73
     2
 40
4.2
 49
8.4
 74
     0
 49
-4.2
 74
     0
  0
LTYPE
  5
6A
330
5
100
AcDbSymbolTableRecord
100
AcDbLinetypeTableRecord
  2
DASHDOT
 70
     0
  3
DASHDOT
 72
    65
 73
     4
 40
14.5
 49
30.0
 74
     0
 49
-9.0
 74
     0
 49
2.5
 74
     0
 49
-9.0
 74
     0
  0
LTYPE
  5
6B
330
5
100
AcDbSymbolTableRecord
100
AcDbLinetypeTableRecord
  2
PHANTOM
 70
     0
  3
PHANTOM
 72
    65
 73
     6
 40
12.0
 49
30.0
 74
     0
 49
-9.0
 74
     0
 49
2.5
 74
     0
 49
-5.0
 74
     0
 49
2.5
 74
     0
 49
-9.0
 74
     0
  0
LTYPE
  5
6C
330
5
100
AcDbSymbolTableRecord
100
AcDbLinetypeTableRecord
  2
ACAD_ISO14W100
 70
     0
  3
ACAD_ISO14W100
 72
    65
 73
     8
 40
1.5
 49
12.0
 74
     0
 49
-3.0
 74
     0
 49
0.5
 74
     0
 49
-3.0
 74
     0
 49
0.5
 74
     0
 49
-3.0
 74
     0
 49
0.5
 74
     0
 49
-3.0
 74
     0
  0
LTYPE
  5
6D
330
5
100
AcDbSymbolTableRecord
100
AcDbLinetypeTableRecord
  2
ACAD_ISO06W100
 70
     0
  3
ACAD_ISO06W100
 72
    65
 73
     8
 40
13.5
 49
24.0
 74
     0
 49
-3.0
 74
     0
 49
0.5
 74
     0
 49
-3.0
 74
     0
 49
0.5
 74
     0
 49
-3.0
 74
     0
 49
0.5
 74
     0
 49
-3.0
 74
     0
  0
LTYPE
  5
6E
330
5
100
AcDbSymbolTableRecord
100
AcDbLinetypeTableRecord
  2
ACAD_ISO11W100
 70
     0
  3
ACAD_ISO11W100
 72
    65
 73
     6
 40
15.5
 49
12.0
 74
     0
 49
-3.0
 74
     0
 49
12.0
 74
     0
 49
-3.0
 74
     0
 49
0.5
 74
     0
 49
-3.0
 74
     0
  0
LTYPE
  5
6F
330
5
100
AcDbSymbolTableRecord
100
AcDbLinetypeTableRecord
  2
ACAD_ISO13W100
 70
     0
  3
ACAD_ISO13W100
 72
    65
 73
     8
 40
13.0
 49
12.0
 74
     0
 49
-3.0
 74
     0
 49
12.0
 74
     0
 49
-3.0
 74
     0
 49
0.5
 74
     0
 49
-3.0
 74
     0
 49
0.5
 74
     0
 49
-3.0
 74
     0
  0
ENDTAB
  0
TABLE
  2
LAYER
  5
2
330
0
100
AcDbSymbolTable
 70
    29
  0
LAYER
  5
10
330
2
100
AcDbSymbolTableRecord
100
AcDbLayerTableRecord
  2
0
 70
     0
 62
     7
  6
CONTINUOUS
  0
LAYER
  5
70
330
2
100
AcDbSymbolTableRecord
100
AcDbLayerTableRecord
  2
1
 70
     0
 62
     7
  6
CONTINUOUS
  0
LAYER
  5
71
330
2
100
AcDbSymbolTableRecord
100
AcDbLayerTableRecord
  2
2
 70
     0
 62
   134
  6
CONTINUOUS
  0
LAYER
  5
72
330
2
100
AcDbSymbolTableRecord
100
AcDbLayerTableRecord
  2
3
 70
     0
 62
   214
  6
CONTINUOUS
  0
LAYER
  5
73
330
2
100
AcDbSymbolTableRecord
100
AcDbLayerTableRecord
  2
4
 70
     0
 62
     3
  6
CONTINUOUS
  0
LAYER
  5
74
330
2
100
AcDbSymbolTableRecord
100
AcDbLayerTableRecord
  2
5
 70
     0
 62
     3
  6
CONTINUOUS
  0
LAYER
  5
75
330
2
100
AcDbSymbolTableRecord
100
AcDbLayerTableRecord
  2
6
 70
     0
 62
     2
  6
CONTINUOUS
  0
LAYER
  5
76
330
2
100
AcDbSymbolTableRecord
100
AcDbLayerTableRecord
  2
7
 70
     0
 62
     4
  6
CONTINUOUS
  0
LAYER
  5
77
330
2
100
AcDbSymbolTableRecord
100
AcDbLayerTableRecord
  2
8
 70
     0
 62
     6
  6
CONTINUOUS
  0
LAYER
  5
78
330
2
100
AcDbSymbolTableRecord
100
AcDbLayerTableRecord
  2
9
 70
     0
 62
     2
  6
CONTINUOUS
  0
LAYER
  5
79
330
2
100
AcDbSymbolTableRecord
100
AcDbLayerTableRecord
  2
10
 70
     0
 62
     3
  6
CONTINUOUS
  0
LAYER
  5
7A
330
2
100
AcDbSymbolTableRecord
100
AcDbLayerTableRecord
  2
11
 70
     0
 62
   251
  6
CONTINUOUS
  0
LAYER
  5
7B
330
2
100
AcDbSymbolTableRecord
100
AcDbLayerTableRecord
  2
12
 70
     0
 62
     7
  6
CONTINUOUS
  0
LAYER
  5
7C
330
2
100
AcDbSymbolTableRecord
100
AcDbLayerTableRecord
  2
13
 70
     0
 62
   216
  6
CONTINUOUS
  0
LAYER
  5
7D
330
2
100
AcDbSymbolTableRecord
100
AcDbLayerTableRecord
  2
14
 70
     0
 62
    56
  6
CONTINUOUS
  0
LAYER
  5
7E
330
2
100
AcDbSymbolTableRecord
100
AcDbLayerTableRecord
  2
15
 70
     0
 62
    96
  6
CONTINUOUS
  0
LAYER
  5
7F
330
2
100
AcDbSymbolTableRecord
100
AcDbLayerTableRecord
  2
16
 70
     0
 62
    16
  6
CONTINUOUS
  0
LAYER
  5
80
330
2
100
AcDbSymbolTableRecord
100
AcDbLayerTableRecord
  2
17
 70
     0
 62
   132
  6
CONTINUOUS
  0
LAYER
  5
81
330
2
100
AcDbSymbolTableRecord
100
AcDbLayerTableRecord
  2
18
 70
     0
 62
   212
  6
CONTINUOUS
  0
LAYER
  5
82
330
2
100
AcDbSymbolTableRecord
100
AcDbLayerTableRecord
  2
19
 70
     0
 62
    52
  6
CONTINUOUS
  0
LAYER
  5
83
330
2
100
AcDbSymbolTableRecord
100
AcDbLayerTableRecord
  2
20
 70
     0
 62
   250
  6
CONTINUOUS
  0
LAYER
  5
84
330
2
100
AcDbSymbolTableRecord
100
AcDbLayerTableRecord
  2
21
 70
     0
 62
     7
  6
CONTINUOUS
  0
LAYER
  5
85
330
2
100
AcDbSymbolTableRecord
100
AcDbLayerTableRecord
  2
22
 70
     0
 62
     7
  6
CONTINUOUS
  0
LAYER
  5
86
330
2
100
AcDbSymbolTableRecord
100
AcDbLayerTableRecord
  2
23
 70
     0
 62
     7
  6
CONTINUOUS
  0
LAYER
  5
87
330
2
100
AcDbSymbolTableRecord
100
AcDbLayerTableRecord
  2
24
 70
     0
 62
     7
  6
CONTINUOUS
  0
LAYER
  5
88
330
2
100
AcDbSymbolTableRecord
100
AcDbLayerTableRecord
  2
25
 70
     0
 62
     7
  6
CONTINUOUS
  0
LAYER
  5
89
330
2
100
AcDbSymbolTableRecord
100
AcDbLayerTableRecord
  2
26
 70
     0
 62
     4
  6
CONTINUOUS
  0
LAYER
  5
8A
330
2
100
AcDbSymbolTableRecord
100
AcDbLayerTableRecord
  2
27
 70
     0
 62
     1
  6
CONTINUOUS
  0
LAYER
  5
8B
330
2
100
AcDbSymbolTableRecord
100
AcDbLayerTableRecord
  2
28
 70
     0
 62
     7
  6
CONTINUOUS
  0
ENDTAB
  0
TABLE
  2
STYLE
  5
3
330
0
100
AcDbSymbolTable
 70
     2
  0
STYLE
  5
11
330
3
100
AcDbSymbolTableRecord
100
AcDbTextStyleTableRecord
  2
STANDARD
 70
     0
 40
0.0
 41
1.0
 50
0.0
 71
     0
 42
0.2
  3
txt
  4
bigfont
  0
STYLE
  5
2C
330
3
100
AcDbSymbolTableRecord
100
AcDbTextStyleTableRecord
  2
T_STANDARD
 70
     4
 40
10.0
 41
1.0
 50
0.0
 71
     0
 42
10.0
  3
txt
  4
bigfont
  0
ENDTAB
  0
TABLE
  2
VIEW
  5
6
330
0
100
AcDbSymbolTable
 70
     0
  0
ENDTAB
  0
TABLE
  2
UCS
  5
7
330
0
100
AcDbSymbolTable
 70
     0
  0
ENDTAB
  0
TABLE
  2
APPID
  5
9
330
0
100
AcDbSymbolTable
 70
     2
  0
APPID
  5
12
330
9
100
AcDbSymbolTableRecord
100
AcDbRegAppTableRecord
  2
ACAD
 70
     0
  0
APPID
  5
2B
330
9
100
AcDbSymbolTableRecord
100
AcDbRegAppTableRecord
  2
ODA
 70
     0
  0
ENDTAB
  0
TABLE
  2
DIMSTYLE
  5
A
330
0
100
AcDbSymbolTable
 70
     1
  0
DIMSTYLE
105
27
102
{ACAD_REACTORS
330
A4
330
B8
330
164
102
}
330
A
100
AcDbSymbolTableRecord
100
AcDbDimStyleTableRecord
  2
STANDARD
 70
     0
  3

  4

  5

  6

  7

 40
1.0
 41
0.18
 42
0.0625
 43
0.38
 44
0.18
 45
0.0
 46
0.0
 47
0.0
 48
0.0
140
0.18
141
0.09
142
0.0
143
25.4
144
1.0
145
0.0
146
1.0
147
0.09
 71
     0
 72
     0
 73
     1
 74
     1
 75
     0
 76
     0
 77
     0
 78
     0
170
     0
171
     2
172
     0
173
     0
174
     0
175
     0
176
     0
177
     0
178
     0
270
     2
271
     4
272
     4
273
     2
274
     2
340
11
275
     0
280
     0
281
     0
282
     0
283
     1
284
     0
285
     0
286
     0
287
     3
288
     0
  0
ENDTAB
  0
TABLE
  2
BLOCK_RECORD
  5
1
330
0
100
AcDbSymbolTable
 70
    19
  0
BLOCK_RECORD
  5
1F
330
1
100
AcDbSymbolTableRecord
100
AcDbBlockTableRecord
  2
*MODEL_SPACE
  0
BLOCK_RECORD
  5
1B
330
1
100
AcDbSymbolTableRecord
100
AcDbBlockTableRecord
  2
*PAPER_SPACE
  0
BLOCK_RECORD
  5
2D
330
1
100
AcDbSymbolTableRecord
100
AcDbBlockTableRecord
  2
_ORIGIN
  0
BLOCK_RECORD
  5
32
330
1
100
AcDbSymbolTableRecord
100
AcDbBlockTableRecord
  2
_DOTBLANK
  0
BLOCK_RECORD
  5
37
330
1
100
AcDbSymbolTableRecord
100
AcDbBlockTableRecord
  2
_DOT
  0
BLOCK_RECORD
  5
3C
330
1
100
AcDbSymbolTableRecord
100
AcDbBlockTableRecord
  2
_OPEN
  0
BLOCK_RECORD
  5
42
330
1
100
AcDbSymbolTableRecord
100
AcDbBlockTableRecord
  2
_CLOSED
  0
BLOCK_RECORD
  5
49
330
1
100
AcDbSymbolTableRecord
100
AcDbBlockTableRecord
  2
_CLOSEDBLANK
  0
BLOCK_RECORD
  5
4F
330
1
100
AcDbSymbolTableRecord
100
AcDbBlockTableRecord
  2
_BOXBLANK
  0
BLOCK_RECORD
  5
57
330
1
100
AcDbSymbolTableRecord
100
AcDbBlockTableRecord
  2
_BOXFILLED
  0
BLOCK_RECORD
  5
5C
330
1
100
AcDbSymbolTableRecord
100
AcDbBlockTableRecord
  2
_INTEGRAL
  0
BLOCK_RECORD
  5
61
330
1
100
AcDbSymbolTableRecord
100
AcDbBlockTableRecord
  2
_OBLIQUE
  0
BLOCK_RECORD
  5
65
330
1
100
AcDbSymbolTableRecord
100
AcDbBlockTableRecord
  2
_NONE
  0
BLOCK_RECORD
  5
91
330
1
100
AcDbSymbolTableRecord
100
AcDbBlockTableRecord
  2
DIM1
  0
BLOCK_RECORD
  5
A5
330
1
100
AcDbSymbolTableRecord
100
AcDbBlockTableRecord
  2
DIM2
  0
BLOCK_RECORD
  5
DB
330
1
100
AcDbSymbolTableRecord
100
AcDbBlockTableRecord
  2
*G14
  0
BLOCK_RECORD
  5
E3
330
1
100
AcDbSymbolTableRecord
100
AcDbBlockTableRecord
  2
*G15
  0
BLOCK_RECORD
  5
E9
330
1
100
AcDbSymbolTableRecord
100
AcDbBlockTableRecord
  2
*G16
  0
BLOCK_RECORD
  5
F1
330
1
100
AcDbSymbolTableRecord
100
AcDbBlockTableRecord
  2
*G17
  0
BLOCK_RECORD
  5
151
330
1
100
AcDbSymbolTableRecord
100
AcDbBlockTableRecord
  2
DIM3
  0
ENDTAB
  0
ENDSEC
  0
SECTION
  2
BLOCKS
  0
BLOCK
  5
20
330
1F
100
AcDbEntity
  8
0
100
AcDbBlockBegin
  2
*MODEL_SPACE
 70
     0
 71
     0
 10
0.0
 20
0.0
 30
0.0
  3
*MODEL_SPACE
  1

  0
ENDBLK
  5
21
330
1F
100
AcDbEntity
  8
0
100
AcDbBlockEnd
  0
BLOCK
  5
1C
330
1B
100
AcDbEntity
 67
     1
  8
0
100
AcDbBlockBegin
  2
*PAPER_SPACE
 70
     0
 71
     0
 10
0.0
 20
0.0
 30
0.0
  3
*PAPER_SPACE
  1

  0
ENDBLK
  5
1D
330
1B
100
AcDbEntity
 67
     1
  8
0
100
AcDbBlockEnd
  0
BLOCK
  5
30
330
2D
100
AcDbEntity
  8
0
100
AcDbBlockBegin
  2
_ORIGIN
 70
     0
 71
     0
 10
0.0
 20
0.0
 30
0.0
  3
_ORIGIN
  1

  0
CIRCLE
  5
2E
330
2D
100
AcDbEntity
  8
0
100
AcDbCircle
 10
0.0
 20
0.0
 30
0.0
 40
0.5
  0
LINE
  5
2F
330
2D
100
AcDbEntity
  8
0
100
AcDbLine
 10
0.0
 20
0.0
 30
0.0
 11
-1.0
 21
0.0
 31
0.0
  0
ENDBLK
  5
31
330
2D
100
AcDbEntity
  8
0
100
AcDbBlockEnd
  0
BLOCK
  5
35
330
32
100
AcDbEntity
  8
0
100
AcDbBlockBegin
  2
_DOTBLANK
 70
     0
 71
     0
 10
0.0
 20
0.0
 30
0.0
  3
_DOTBLANK
  1

  0
CIRCLE
  5
33
330
32
100
AcDbEntity
  8
0
100
AcDbCircle
 10
0.0
 20
0.0
 30
0.0
 40
0.5
  0
LINE
  5
34
330
32
100
AcDbEntity
  8
0
100
AcDbLine
 10
-0.5
 20
0.0
 30
0.0
 11
-1.0
 21
0.0
 31
0.0
  0
ENDBLK
  5
36
330
32
100
AcDbEntity
  8
0
100
AcDbBlockEnd
  0
BLOCK
  5
3A
330
37
100
AcDbEntity
  8
0
100
AcDbBlockBegin
  2
_DOT
 70
     0
 71
     0
 10
0.0
 20
0.0
 30
0.0
  3
_DOT
  1

  0
LWPOLYLINE
  5
38
330
37
100
AcDbEntity
  8
0
100
AcDbPolyline
 90
        2
 70
     1
 43
0.5
 10
-0.25
 20
0.0
 42
1.0
 10
0.25
 20
0.0
 42
1.0
  0
LINE
  5
39
330
37
100
AcDbEntity
  8
0
100
AcDbLine
 10
-0.5
 20
0.0
 30
0.0
 11
-1.0
 21
0.0
 31
0.0
  0
ENDBLK
  5
3B
330
37
100
AcDbEntity
  8
0
100
AcDbBlockEnd
  0
BLOCK
  5
40
330
3C
100
AcDbEntity
  8
0
100
AcDbBlockBegin
  2
_OPEN
 70
     0
 71
     0
 10
0.0
 20
0.0
 30
0.0
  3
_OPEN
  1

  0
LINE
  5
3D
330
3C
100
AcDbEntity
  8
0
100
AcDbLine
 10
-1.0
 20
0.1666666666666667
 30
0.0
 11
0.0
 21
0.0
 31
0.0
  0
LINE
  5
3E
330
3C
100
AcDbEntity
  8
0
100
AcDbLine
 10
-1.0
 20
-0.1666666666666667
 30
0.0
 11
0.0
 21
0.0
 31
0.0
  0
LINE
  5
3F
330
3C
100
AcDbEntity
  8
0
100
AcDbLine
 10
0.0
 20
0.0
 30
0.0
 11
-1.0
 21
0.0
 31
0.0
  0
ENDBLK
  5
41
330
3C
100
AcDbEntity
  8
0
100
AcDbBlockEnd
  0
BLOCK
  5
47
330
42
100
AcDbEntity
  8
0
100
AcDbBlockBegin
  2
_CLOSED
 70
     0
 71
     0
 10
0.0
 20
0.0
 30
0.0
  3
_CLOSED
  1

  0
LINE
  5
43
330
42
100
AcDbEntity
  8
0
100
AcDbLine
 10
-1.0
 20
0.1666666666666667
 30
0.0
 11
0.0
 21
0.0
 31
0.0
  0
LINE
  5
44
330
42
100
AcDbEntity
  8
0
100
AcDbLine
 10
0.0
 20
0.0
 30
0.0
 11
-1.0
 21
-0.1666666666666667
 31
0.0
  0
LINE
  5
45
330
42
100
AcDbEntity
  8
0
100
AcDbLine
 10
-1.0
 20
0.1666666666666667
 30
0.0
 11
-1.0
 21
-0.1666666666666667
 31
0.0
  0
LINE
  5
46
330
42
100
AcDbEntity
  8
0
100
AcDbLine
 10
0.0
 20
0.0
 30
0.0
 11
-1.0
 21
0.0
 31
0.0
  0
ENDBLK
  5
48
330
42
100
AcDbEntity
  8
0
100
AcDbBlockEnd
  0
BLOCK
  5
4D
330
49
100
AcDbEntity
  8
0
100
AcDbBlockBegin
  2
_CLOSEDBLANK
 70
     0
 71
     0
 10
0.0
 20
0.0
 30
0.0
  3
_CLOSEDBLANK
  1

  0
LINE
  5
4A
330
49
100
AcDbEntity
  8
0
100
AcDbLine
 10
-1.0
 20
0.1666666666666667
 30
0.0
 11
0.0
 21
0.0
 31
0.0
  0
LINE
  5
4B
330
49
100
AcDbEntity
  8
0
100
AcDbLine
 10
0.0
 20
0.0
 30
0.0
 11
-1.0
 21
-0.1666666666666667
 31
0.0
  0
LINE
  5
4C
330
49
100
AcDbEntity
  8
0
100
AcDbLine
 10
-1.0
 20
0.1666666666666667
 30
0.0
 11
-1.0
 21
-0.1666666666666667
 31
0.0
  0
ENDBLK
  5
4E
330
49
100
AcDbEntity
  8
0
100
AcDbBlockEnd
  0
BLOCK
  5
55
330
4F
100
AcDbEntity
  8
0
100
AcDbBlockBegin
  2
_BOXBLANK
 70
     0
 71
     0
 10
0.0
 20
0.0
 30
0.0
  3
_BOXBLANK
  1

  0
LINE
  5
50
330
4F
100
AcDbEntity
  8
0
100
AcDbLine
 10
-0.5
 20
-0.5
 30
0.0
 11
0.5
 21
-0.5
 31
0.0
  0
LINE
  5
51
330
4F
100
AcDbEntity
  8
0
100
AcDbLine
 10
0.5
 20
-0.5
 30
0.0
 11
0.5
 21
0.5
 31
0.0
  0
LINE
  5
52
330
4F
100
AcDbEntity
  8
0
100
AcDbLine
 10
0.5
 20
0.5
 30
0.0
 11
-0.5
 21
0.5
 31
0.0
  0
LINE
  5
53
330
4F
100
AcDbEntity
  8
0
100
AcDbLine
 10
-0.5
 20
0.5
 30
0.0
 11
-0.5
 21
-0.5
 31
0.0
  0
LINE
  5
54
330
4F
100
AcDbEntity
  8
0
100
AcDbLine
 10
-0.5
 20
0.0
 30
0.0
 11
-1.0
 21
0.0
 31
0.0
  0
ENDBLK
  5
56
330
4F
100
AcDbEntity
  8
0
100
AcDbBlockEnd
  0
BLOCK
  5
5A
330
57
100
AcDbEntity
  8
0
100
AcDbBlockBegin
  2
_BOXFILLED
 70
     0
 71
     0
 10
0.0
 20
0.0
 30
0.0
  3
_BOXFILLED
  1

  0
SOLID
  5
58
330
57
100
AcDbEntity
  8
0
100
AcDbTrace
 10
-0.5
 20
0.5
 30
0.0
 11
0.5
 21
0.5
 31
0.0
 12
-0.5
 22
-0.5
 32
0.0
 13
0.5
 23
-0.5
 33
0.0
  0
LINE
  5
59
330
57
100
AcDbEntity
  8
0
100
AcDbLine
 10
-0.5
 20
0.0
 30
0.0
 11
-1.0
 21
0.0
 31
0.0
  0
ENDBLK
  5
5B
330
57
100
AcDbEntity
  8
0
100
AcDbBlockEnd
  0
BLOCK
  5
5F
330
5C
100
AcDbEntity
  8
0
100
AcDbBlockBegin
  2
_INTEGRAL
 70
     0
 71
     0
 10
0.0
 20
0.0
 30
0.0
  3
_INTEGRAL
  1

  0
ARC
  5
5D
330
5C
100
AcDbEntity
  8
0
100
AcDbCircle
 10
0.444888
 20
-0.0913346
 30
0.0
 40
0.4541666
100
AcDbArc
 50
5844.169510334396
 51
9625.69095819783
  0
ARC
  5
5E
330
5C
100
AcDbEntity
  8
0
100
AcDbCircle
 10
-0.444888
 20
0.0913346
 30
0.0
 40
0.4541666
100
AcDbArc
 50
16157.40982268921
 51
19938.93127055265
  0
ENDBLK
  5
60
330
5C
100
AcDbEntity
  8
0
100
AcDbBlockEnd
  0
BLOCK
  5
63
330
61
100
AcDbEntity
  8
0
100
AcDbBlockBegin
  2
_OBLIQUE
 70
     0
 71
     0
 10
0.0
 20
0.0
 30
0.0
  3
_OBLIQUE
  1

  0
LINE
  5
62
330
61
100
AcDbEntity
  8
0
100
AcDbLine
 10
-0.5
 20
-0.5
 30
0.0
 11
0.5
 21
0.5
 31
0.0
  0
ENDBLK
  5
64
330
61
100
AcDbEntity
  8
0
100
AcDbBlockEnd
  0
BLOCK
  5
66
330
65
100
AcDbEntity
  8
0
100
AcDbBlockBegin
  2
_NONE
 70
     0
 71
     0
 10
0.0
 20
0.0
 30
0.0
  3
_NONE
  1

  0
ENDBLK
  5
67
330
65
100
AcDbEntity
  8
0
100
AcDbBlockEnd
  0
BLOCK
  5
92
330
91
100
AcDbEntity
  8
0
100
AcDbBlockBegin
  2
DIM1
 70
     0
 71
     0
 10
0.0
 20
0.0
 30
0.0
  3
DIM1
  1

  0
LINE
  5
94
330
91
100
AcDbEntity
  8
5
  6
CONTINUOUS
 62
     3
100
AcDbLine
 10
553.8509131857877
 20
173.7298832327249
 30
0.0
 11
203.850913185789
 21
173.7298832327249
 31
0.0
  0
LINE
  5
95
330
91
100
AcDbEntity
  8
5
  6
CONTINUOUS
 62
     3
100
AcDbLine
 10
553.8509131857877
 20
171.7298832327249
 30
0.0
 11
553.8509131857894
 21
315.5345312045549
 31
0.0
  0
LINE
  5
96
330
91
100
AcDbEntity
  8
5
  6
CONTINUOUS
 62
     3
100
AcDbLine
 10
203.850913185789
 20
171.7298832327249
 30
0.0
 11
203.8509131857894
 21
210.0345312045549
 31
0.0
  0
LINE
  5
97
330
91
100
AcDbEntity
  8
5
  6
CONTINUOUS
 62
     3
100
AcDbLine
 10
553.8509131857877
 20
173.7298832327249
 30
0.0
 11
549.0212840543423
 21
172.4357880072123
 31
0.0
  0
LINE
  5
98
330
91
100
AcDbEntity
  8
5
  6
CONTINUOUS
 62
     3
100
AcDbLine
 10
553.8509131857877
 20
173.7298832327249
 30
0.0
 11
549.0212840543423
 21
175.0239784582375
 31
0.0
  0
LINE
  5
99
330
91
100
AcDbEntity
  8
5
  6
CONTINUOUS
 62
     3
100
AcDbLine
 10
549.0212840543423
 20
172.4357880072123
 30
0.0
 11
549.0212840543423
 21
175.0239784582375
 31
0.0
  0
LINE
  5
9A
330
91
100
AcDbEntity
  8
5
  6
CONTINUOUS
 62
     3
100
AcDbLine
 10
552.6435059029263
 20
173.7298832327249
 30
0.0
 11
550.2286913372037
 21
173.0828356199686
 31
0.0
  0
LINE
  5
9B
330
91
100
AcDbEntity
  8
5
  6
CONTINUOUS
 62
     3
100
AcDbLine
 10
552.6435059029263
 20
173.7298832327249
 30
0.0
 11
550.2286913372037
 21
174.3769308454812
 31
0.0
  0
LINE
  5
9C
330
91
100
AcDbEntity
  8
5
  6
CONTINUOUS
 62
     3
100
AcDbLine
 10
550.2286913372037
 20
173.0828356199686
 30
0.0
 11
550.2286913372037
 21
174.3769308454812
 31
0.0
  0
LINE
  5
9D
330
91
100
AcDbEntity
  8
5
  6
CONTINUOUS
 62
     3
100
AcDbLine
 10
203.850913185789
 20
173.7298832327249
 30
0.0
 11
208.6805423172343
 21
175.0239784582375
 31
0.0
  0
LINE
  5
9E
330
91
100
AcDbEntity
  8
5
  6
CONTINUOUS
 62
     3
100
AcDbLine
 10
203.850913185789
 20
173.7298832327249
 30
0.0
 11
208.6805423172343
 21
172.4357880072123
 31
0.0
  0
LINE
  5
9F
330
91
100
AcDbEntity
  8
5
  6
CONTINUOUS
 62
     3
100
AcDbLine
 10
208.6805423172343
 20
175.0239784582375
 30
0.0
 11
208.6805423172343
 21
172.4357880072123
 31
0.0
  0
LINE
  5
A0
330
91
100
AcDbEntity
  8
5
  6
CONTINUOUS
 62
     3
100
AcDbLine
 10
205.0583204686503
 20
173.7298832327249
 30
0.0
 11
207.473135034373
 21
174.3769308454812
 31
0.0
  0
LINE
  5
A1
330
91
100
AcDbEntity
  8
5
  6
CONTINUOUS
 62
     3
100
AcDbLine
 10
205.0583204686503
 20
173.7298832327249
 30
0.0
 11
207.473135034373
 21
173.0828356199686
 31
0.0
  0
LINE
  5
A2
330
91
100
AcDbEntity
  8
5
  6
CONTINUOUS
 62
     3
100
AcDbLine
 10
207.473135034373
 20
174.3769308454812
 30
0.0
 11
207.473135034373
 21
173.0828356199686
 31
0.0
  0
MTEXT
  5
A3
330
91
100
AcDbEntity
  8
5
  6
CONTINUOUS
 62
     3
100
AcDbMText
 10
378.8509131857893
 20
181.2298832327249
 30
0.0
 40
12.0
 41
0.0
 71
     8
 72
     1
  1
Ｂ
  0
ENDBLK
  5
93
330
91
100
AcDbEntity
  8
0
100
AcDbBlockEnd
  0
BLOCK
  5
A6
330
A5
100
AcDbEntity
  8
0
100
AcDbBlockBegin
  2
DIM2
 70
     0
 71
     0
 10
0.0
 20
0.0
 30
0.0
  3
DIM2
  1

  0
LINE
  5
A8
330
A5
100
AcDbEntity
  8
5
  6
CONTINUOUS
 62
     3
100
AcDbLine
 10
632.9434454904388
 20
237.534531204555
 30
0.0
 11
632.9434454904388
 21
387.5345312045549
 31
0.0
  0
LINE
  5
A9
330
A5
100
AcDbEntity
  8
5
  6
CONTINUOUS
 62
     3
100
AcDbLine
 10
634.9434454904388
 20
237.534531204555
 30
0.0
 11
475.8509131857895
 21
237.5345312045549
 31
0.0
  0
LINE
  5
AA
330
A5
100
AcDbEntity
  8
5
  6
CONTINUOUS
 62
     3
100
AcDbLine
 10
634.9434454904388
 20
387.5345312045549
 30
0.0
 11
584.1009065100689
 21
387.5345312045549
 31
0.0
  0
LINE
  5
AB
330
A5
100
AcDbEntity
  8
5
  6
CONTINUOUS
 62
     3
100
AcDbLine
 10
632.9434454904388
 20
237.534531204555
 30
0.0
 11
631.6493502649262
 21
242.3641603360003
 31
0.0
  0
LINE
  5
AC
330
A5
100
AcDbEntity
  8
5
  6
CONTINUOUS
 62
     3
100
AcDbLine
 10
632.9434454904388
 20
237.534531204555
 30
0.0
 11
634.2375407159514
 21
242.3641603360003
 31
0.0
  0
LINE
  5
AD
330
A5
100
AcDbEntity
  8
5
  6
CONTINUOUS
 62
     3
100
AcDbLine
 10
631.6493502649262
 20
242.3641603360003
 30
0.0
 11
634.2375407159514
 21
242.3641603360003
 31
0.0
  0
LINE
  5
AE
330
A5
100
AcDbEntity
  8
5
  6
CONTINUOUS
 62
     3
100
AcDbLine
 10
632.9434454904388
 20
238.7419384874163
 30
0.0
 11
632.2963978776825
 21
241.156753053139
 31
0.0
  0
LINE
  5
AF
330
A5
100
AcDbEntity
  8
5
  6
CONTINUOUS
 62
     3
100
AcDbLine
 10
632.9434454904388
 20
238.7419384874163
 30
0.0
 11
633.5904931031951
 21
241.156753053139
 31
0.0
  0
LINE
  5
B0
330
A5
100
AcDbEntity
  8
5
  6
CONTINUOUS
 62
     3
100
AcDbLine
 10
632.2963978776825
 20
241.156753053139
 30
0.0
 11
633.5904931031951
 21
241.156753053139
 31
0.0
  0
LINE
  5
B1
330
A5
100
AcDbEntity
  8
5
  6
CONTINUOUS
 62
     3
100
AcDbLine
 10
632.9434454904388
 20
387.5345312045549
 30
0.0
 11
634.2375407159514
 21
382.7049020731096
 31
0.0
  0
LINE
  5
B2
330
A5
100
AcDbEntity
  8
5
  6
CONTINUOUS
 62
     3
100
AcDbLine
 10
632.9434454904388
 20
387.5345312045549
 30
0.0
 11
631.6493502649262
 21
382.7049020731096
 31
0.0
  0
LINE
  5
B3
330
A5
100
AcDbEntity
  8
5
  6
CONTINUOUS
 62
     3
100
AcDbLine
 10
634.2375407159514
 20
382.7049020731096
 30
0.0
 11
631.6493502649262
 21
382.7049020731096
 31
0.0
  0
LINE
  5
B4
330
A5
100
AcDbEntity
  8
5
  6
CONTINUOUS
 62
     3
100
AcDbLine
 10
632.9434454904388
 20
386.3271239216936
 30
0.0
 11
633.5904931031951
 21
383.9123093559709
 31
0.0
  0
LINE
  5
B5
330
A5
100
AcDbEntity
  8
5
  6
CONTINUOUS
 62
     3
100
AcDbLine
 10
632.9434454904388
 20
386.3271239216936
 30
0.0
 11
632.2963978776825
 21
383.9123093559709
 31
0.0
  0
LINE
  5
B6
330
A5
100
AcDbEntity
  8
5
  6
CONTINUOUS
 62
     3
100
AcDbLine
 10
633.5904931031951
 20
383.9123093559709
 30
0.0
 11
632.2963978776825
 21
383.9123093559709
 31
0.0
  0
MTEXT
  5
B7
330
A5
100
AcDbEntity
  8
5
  6
CONTINUOUS
 62
     3
100
AcDbMText
 10
625.4434454904388
 20
312.5345312045545
 30
0.0
 40
12.0
 41
0.0
 71
     8
 72
     1
  1
Ａ
 11
1.615544574432587E-15
 21
1.0
 31
0.0
  0
ENDBLK
  5
A7
330
A5
100
AcDbEntity
  8
0
100
AcDbBlockEnd
  0
BLOCK
  5
DC
330
DB
100
AcDbEntity
  8
0
100
AcDbBlockBegin
  2
*G14
 70
     1
 71
     0
 10
0.0
 20
0.0
 30
0.0
  3
*G14
  1

  0
LINE
  5
DE
330
DB
100
AcDbEntity
  8
5
  6
CONTINUOUS
 62
     3
100
AcDbLine
 10
380.5892012675155
 20
402.1387520066168
 30
0.0
 11
481.5992012675154
 21
402.1387520066168
 31
0.0
  0
LINE
  5
DF
330
DB
100
AcDbEntity
  8
5
  6
CONTINUOUS
 62
     3
100
AcDbLine
 10
481.5992012675154
 20
402.1387520066168
 30
0.0
 11
499.2647878071879
 21
385.5004169819186
 31
0.0
  0
LINE
  5
E0
330
DB
100
AcDbEntity
  8
5
  6
CONTINUOUS
 62
     3
100
AcDbLine
 10
499.2647878071879
 20
385.5004169819186
 30
0.0
 11
503.8509055563945
 21
381.1809813717478
 31
0.0
  0
LINE
  5
E1
330
DB
100
AcDbEntity
  8
5
  6
CONTINUOUS
 62
     3
100
AcDbLine
 10
498.1073985341854
 20
384.2715704457741
 30
0.0
 11
503.8509055563945
 21
381.1809813717478
 31
0.0
  0
LINE
  5
E2
330
DB
100
AcDbEntity
  8
5
  6
CONTINUOUS
 62
     3
100
AcDbLine
 10
503.8509055563945
 20
381.1809813717478
 30
0.0
 11
500.4221770801904
 21
386.7292635180631
 31
0.0
  0
INSERT
  5
E7
330
DB
100
AcDbEntity
  8
25
100
AcDbBlockReference
  2
*G15
 10
0.0
 20
0.0
 30
0.0
  0
ENDBLK
  5
DD
330
DB
100
AcDbEntity
  8
0
100
AcDbBlockEnd
  0
BLOCK
  5
E4
330
E3
100
AcDbEntity
  8
0
100
AcDbBlockBegin
  2
*G15
 70
     1
 71
     0
 10
0.0
 20
0.0
 30
0.0
  3
*G15
  1

  0
TEXT
  5
E6
330
E3
100
AcDbEntity
  8
5
  6
CONTINUOUS
 62
     3
100
AcDbText
 10
380.5892012675155
 20
403.7137520066168
 30
0.0
 40
6.300000000000011
  1
呼び圧力20K 20Aフランジ
100
AcDbText
  0
ENDBLK
  5
E5
330
E3
100
AcDbEntity
  8
0
100
AcDbBlockEnd
  0
BLOCK
  5
EA
330
E9
100
AcDbEntity
  8
0
100
AcDbBlockBegin
  2
*G16
 70
     1
 71
     0
 10
0.0
 20
0.0
 30
0.0
  3
*G16
  1

  0
LINE
  5
EC
330
E9
100
AcDbEntity
  8
5
  6
CONTINUOUS
 62
     3
100
AcDbLine
 10
342.6863486266298
 20
278.2390369102784
 30
0.0
 11
445.7963486266297
 21
278.2390369102784
 31
0.0
  0
LINE
  5
ED
330
E9
100
AcDbEntity
  8
5
  6
CONTINUOUS
 62
     3
100
AcDbLine
 10
445.7963486266297
 20
278.2390369102784
 30
0.0
 11
469.3200835582615
 21
255.5119257362729
 31
0.0
  0
LINE
  5
EE
330
E9
100
AcDbEntity
  8
5
  6
CONTINUOUS
 62
     3
100
AcDbLine
 10
469.3200835582615
 20
255.5119257362729
 30
0.0
 11
473.8509131857895
 21
251.134531204555
 31
0.0
  0
LINE
  5
EF
330
E9
100
AcDbEntity
  8
5
  6
CONTINUOUS
 62
     3
100
AcDbLine
 10
468.1471642391773
 20
254.2978936075488
 30
0.0
 11
473.8509131857895
 21
251.134531204555
 31
0.0
  0
LINE
  5
F0
330
E9
100
AcDbEntity
  8
5
  6
CONTINUOUS
 62
     3
100
AcDbLine
 10
473.8509131857895
 20
251.134531204555
 30
0.0
 11
470.4930028773457
 21
256.7259578649971
 31
0.0
  0
INSERT
  5
F5
330
E9
100
AcDbEntity
  8
25
100
AcDbBlockReference
  2
*G17
 10
0.0
 20
0.0
 30
0.0
  0
ENDBLK
  5
EB
330
E9
100
AcDbEntity
  8
0
100
AcDbBlockEnd
  0
BLOCK
  5
F2
330
F1
100
AcDbEntity
  8
0
100
AcDbBlockBegin
  2
*G17
 70
     1
 71
     0
 10
0.0
 20
0.0
 30
0.0
  3
*G17
  1

  0
TEXT
  5
F4
330
F1
100
AcDbEntity
  8
5
  6
CONTINUOUS
 62
     3
100
AcDbText
 10
342.6863486266298
 20
281.3890369102783
 30
0.0
 40
6.300000000000011
  1
STPG370 Sch80 20A
100
AcDbText
  0
ENDBLK
  5
F3
330
F1
100
AcDbEntity
  8
0
100
AcDbBlockEnd
  0
BLOCK
  5
152
330
151
100
AcDbEntity
  8
0
100
AcDbBlockBegin
  2
DIM3
 70
     0
 71
     0
 10
0.0
 20
0.0
 30
0.0
  3
DIM3
  1

  0
LINE
  5
154
330
151
100
AcDbEntity
  8
5
  6
CONTINUOUS
 62
     3
100
AcDbLine
 10
179.8509121857895
 20
540.0713031028605
 30
0.0
 11
179.8509121857895
 21
440.0712954734653
 31
0.0
  0
LINE
  5
155
330
151
100
AcDbEntity
  8
5
  6
CONTINUOUS
 62
     3
100
AcDbLine
 10
177.8509121857895
 20
540.0713031028605
 30
0.0
 11
204.850920815184
 21
540.0713031028603
 31
0.0
  0
LINE
  5
156
330
151
100
AcDbEntity
  8
5
  6
CONTINUOUS
 62
     3
100
AcDbLine
 10
177.8509121857895
 20
440.0712954734653
 30
0.0
 11
204.8509208390339
 21
440.071295473465
 31
0.0
  0
LINE
  5
157
330
151
100
AcDbEntity
  8
5
  6
CONTINUOUS
 62
     3
100
AcDbLine
 10
179.8509121857895
 20
540.0713031028605
 30
0.0
 11
181.1450074113021
 21
535.2416739714151
 31
0.0
  0
LINE
  5
158
330
151
100
AcDbEntity
  8
5
  6
CONTINUOUS
 62
     3
100
AcDbLine
 10
179.8509121857895
 20
540.0713031028605
 30
0.0
 11
178.5568169602769
 21
535.2416739714151
 31
0.0
  0
LINE
  5
159
330
151
100
AcDbEntity
  8
5
  6
CONTINUOUS
 62
     3
100
AcDbLine
 10
181.1450074113021
 20
535.2416739714151
 30
0.0
 11
178.5568169602769
 21
535.2416739714151
 31
0.0
  0
LINE
  5
15A
330
151
100
AcDbEntity
  8
5
  6
CONTINUOUS
 62
     3
100
AcDbLine
 10
179.8509121857895
 20
538.8638958199991
 30
0.0
 11
180.4979597985458
 21
536.4490812542765
 31
0.0
  0
LINE
  5
15B
330
151
100
AcDbEntity
  8
5
  6
CONTINUOUS
 62
     3
100
AcDbLine
 10
179.8509121857895
 20
538.8638958199991
 30
0.0
 11
179.2038645730332
 21
536.4490812542765
 31
0.0
  0
LINE
  5
15C
330
151
100
AcDbEntity
  8
5
  6
CONTINUOUS
 62
     3
100
AcDbLine
 10
180.4979597985458
 20
536.4490812542765
 30
0.0
 11
179.2038645730332
 21
536.4490812542765
 31
0.0
  0
LINE
  5
15D
330
151
100
AcDbEntity
  8
5
  6
CONTINUOUS
 62
     3
100
AcDbLine
 10
179.8509121857895
 20
440.0712954734653
 30
0.0
 11
178.5568169602769
 21
444.9009246049106
 31
0.0
  0
LINE
  5
15E
330
151
100
AcDbEntity
  8
5
  6
CONTINUOUS
 62
     3
100
AcDbLine
 10
179.8509121857895
 20
440.0712954734653
 30
0.0
 11
181.1450074113021
 21
444.9009246049106
 31
0.0
  0
LINE
  5
15F
330
151
100
AcDbEntity
  8
5
  6
CONTINUOUS
 62
     3
100
AcDbLine
 10
178.5568169602769
 20
444.9009246049106
 30
0.0
 11
181.1450074113021
 21
444.9009246049106
 31
0.0
  0
LINE
  5
160
330
151
100
AcDbEntity
  8
5
  6
CONTINUOUS
 62
     3
100
AcDbLine
 10
179.8509121857895
 20
441.2787027563266
 30
0.0
 11
179.2038645730332
 21
443.6935173220493
 31
0.0
  0
LINE
  5
161
330
151
100
AcDbEntity
  8
5
  6
CONTINUOUS
 62
     3
100
AcDbLine
 10
179.8509121857895
 20
441.2787027563266
 30
0.0
 11
180.4979597985458
 21
443.6935173220493
 31
0.0
  0
LINE
  5
162
330
151
100
AcDbEntity
  8
5
  6
CONTINUOUS
 62
     3
100
AcDbLine
 10
179.2038645730332
 20
443.6935173220493
 30
0.0
 11
180.4979597985458
 21
443.6935173220493
 31
0.0
  0
MTEXT
  5
163
330
151
100
AcDbEntity
  8
5
  6
CONTINUOUS
 62
     3
100
AcDbMText
 10
172.3509121857895
 20
490.0712992881636
 30
0.0
 40
12.0
 41
0.0
 71
     8
 72
     1
  1
φ100
 11
1.615544574432587E-15
 21
1.0
 31
0.0
  0
ENDBLK
  5
153
330
151
100
AcDbEntity
  8
0
100
AcDbBlockEnd
  0
ENDSEC
  0
SECTION
  2
ENTITIES
  0
LINE
  5
8C
330
1F
100
AcDbEntity
  8
7
  6
DASHDOT
 62
     4
100
AcDbLine
 10
174.9880324483469
 20
178.9707799838518
 30
0.0
 11
174.9880324483469
 21
297.1167760776009
 31
0.0
  0
LINE
  5
8D
330
1F
100
AcDbEntity
  8
7
  6
DASHDOT
 62
     4
100
AcDbLine
 10
176.0771456838204
 20
238.6236543343996
 30
0.0
 11
132.2110243917068
 21
194.7575345920068
 31
0.0
  0
LINE
  5
8E
330
1F
100
AcDbEntity
  8
7
  6
DASHDOT
 62
     4
100
AcDbLine
 10
175.7640181661202
 20
237.5345312045549
 30
0.0
 11
114.7268172383869
 21
237.5345312045549
 31
0.0
  0
LINE
  5
8F
330
1F
100
AcDbEntity
  8
7
  6
DASHDOT
 62
     4
100
AcDbLine
 10
132.8900328755939
 20
279.6325231479138
 30
0.0
 11
176.681319820936
 21
235.8412340568039
 31
0.0
  0
LINE
  5
90
330
1F
100
AcDbEntity
  8
7
  6
DASHDOT
 62
     4
100
AcDbLine
 10
623.8509131857895
 20
237.5345312045549
 30
0.0
 11
197.8509131857894
 21
237.5345312045549
 31
0.0
  0
DIMENSION
  5
A4
330
1F
100
AcDbEntity
  8
5
  6
CONTINUOUS
 62
     3
100
AcDbDimension
  2
DIM1
 10
553.8509131857877
 20
173.7298832327249
 30
0.0
 11
378.8509131857893
 21
181.2298832327249
 31
0.0
 70
   160
  1
Ｂ
  3
STANDARD
100
AcDbAlignedDimension
 13
553.8509131857894
 23
317.5345312045549
 33
0.0
 14
203.8509131857894
 24
212.0345312045549
 34
0.0
100
AcDbRotatedDimension
1001
ACAD
1000
DSTYLE
1002
{
1070
   287
1070
     5
1070
     7
1000

1070
     6
1000

1070
   173
1070
     1
1070
   289
1070
     2
1070
   279
1070
     2
1070
   288
1070
     1
1070
    77
1070
     3
1070
   172
1070
     1
1070
   174
1070
     0
1070
    74
1070
     0
1070
    73
1070
     0
1070
   284
1070
     8
1070
    78
1070
     8
1070
   140
1040
4.0
1070
    40
1040
3.0
1070
    42
1040
0.6666666666666666
1070
    44
1040
0.6666666666666666
1070
    43
1040
10.0
1070
   271
1070
     2
1070
    41
1040
4.0
1002
}
  0
DIMENSION
  5
B8
330
1F
100
AcDbEntity
  8
5
  6
CONTINUOUS
 62
     3
100
AcDbDimension
  2
DIM2
 10
632.9434454904388
 20
237.534531204555
 30
0.0
 11
625.4434454904388
 21
312.5345312045545
 31
0.0
 70
   160
  1
Ａ
  3
STANDARD
100
AcDbAlignedDimension
 13
473.8509131857895
 23
237.5345312045549
 33
0.0
 14
582.1009065100689
 24
387.5345312045549
 34
0.0
 50
90.00000000000014
100
AcDbRotatedDimension
1001
ACAD
1000
DSTYLE
1002
{
1070
   287
1070
     5
1070
     7
1000

1070
     6
1000

1070
   173
1070
     1
1070
   289
1070
     2
1070
   279
1070
     2
1070
   288
1070
     1
1070
    77
1070
     3
1070
   172
1070
     1
1070
   174
1070
     0
1070
    74
1070
     0
1070
    73
1070
     0
1070
   284
1070
     8
1070
    78
1070
     8
1070
   140
1040
4.0
1070
    40
1040
3.0
1070
    42
1040
0.6666666666666666
1070
    44
1040
0.6666666666666666
1070
    43
1040
10.0
1070
   271
1070
     2
1070
    41
1040
4.0
1002
}
  0
LINE
  5
B9
330
1F
100
AcDbEntity
  8
25
  6
CONTINUOUS
 62
     7
100
AcDbLine
 10
503.8509055563945
 20
384.5345235751603
 30
0.0
 11
503.8509055563945
 21
373.534523575161
 31
0.0
  0
LINE
  5
BA
330
1F
100
AcDbEntity
  8
25
  6
CONTINUOUS
 62
     7
100
AcDbLine
 10
553.8509131857894
 20
386.5345274494623
 30
0.0
 11
505.8509131857895
 21
386.5345274494623
 31
0.0
  0
ARC
  5
BB
330
1F
100
AcDbEntity
  8
25
  6
CONTINUOUS
 62
     7
100
AcDbCircle
 10
505.8509131857895
 20
384.5345235751603
 30
0.0
 40
2.0
100
AcDbArc
 50
89.9999913485786
 51
180.0000006832426
  0
LINE
  5
BC
330
1F
100
AcDbEntity
  8
25
  6
CONTINUOUS
 62
     7
100
AcDbLine
 10
528.3509131857895
 20
387.5345312045549
 30
0.0
 11
528.3509131857895
 21
386.5345274494623
 31
0.0
  0
LINE
  5
BD
330
1F
100
AcDbEntity
  8
25
  6
CONTINUOUS
 62
     7
100
AcDbLine
 10
533.2508994528796
 20
365.5345273898581
 30
0.0
 11
553.8509131857894
 21
365.534527389858
 31
0.0
  0
LINE
  5
BE
330
1F
100
AcDbEntity
  8
25
  6
CONTINUOUS
 62
     7
100
AcDbLine
 10
553.8509131857894
 20
360.5345216678121
 30
0.0
 11
540.2509070822737
 21
360.5345216678121
 31
0.0
  0
LINE
  5
BF
330
1F
100
AcDbEntity
  8
25
  6
CONTINUOUS
 62
     7
100
AcDbLine
 10
505.8509131857895
 20
371.5345207141381
 30
0.0
 11
553.8509131857894
 21
371.5345207141381
 31
0.0
  0
ARC
  5
C0
330
1F
100
AcDbEntity
  8
25
  6
CONTINUOUS
 62
     7
100
AcDbCircle
 10
505.8509131857895
 20
373.534523575161
 30
0.0
 40
2.0
100
AcDbArc
 50
179.9999974955183
 51
269.9999999999998
  0
LINE
  5
C1
330
1F
100
AcDbEntity
  8
25
  6
CONTINUOUS
 62
     7
100
AcDbLine
 10
535.2509223410624
 20
365.5345235751611
 30
0.0
 11
540.2509108969716
 21
360.5345350192531
 31
0.0
  0
LINE
  5
C2
330
1F
100
AcDbEntity
  8
25
  6
CONTINUOUS
 62
     7
100
AcDbLine
 10
533.2508994528796
 20
367.5345197604631
 30
0.0
 11
533.2508994528796
 21
365.5345273898581
 31
0.0
  0
ARC
  5
C3
330
1F
100
AcDbEntity
  8
25
  6
CONTINUOUS
 62
     7
100
AcDbCircle
 10
529.2509147116687
 20
367.5345197604631
 30
0.0
 40
4.0
100
AcDbArc
 50
0.0000025044817295
 51
90.00000500895695
  0
LINE
  5
C4
330
1F
100
AcDbEntity
  8
25
  6
CONTINUOUS
 62
     7
100
AcDbLine
 10
540.2509070822737
 20
360.5345216678121
 30
0.0
 11
540.2509070822737
 21
317.5060610996987
 31
0.0
  0
ARC
  5
C5
330
1F
100
AcDbEntity
  8
25
  6
CONTINUOUS
 62
     7
100
AcDbCircle
 10
174.9880225154988
 20
237.5345312045549
 30
0.0
 40
50.0
100
AcDbArc
 50
89.99998861779527
 51
270.0000113822044
  0
ARC
  5
C6
330
1F
100
AcDbEntity
  8
7
  6
DASHDOT
 62
     4
100
AcDbCircle
 10
174.9880225154988
 20
237.5345312045549
 30
0.0
 40
37.5
100
AcDbArc
 50
89.99998482372268
 51
270.0000151762704
  0
ARC
  5
C7
330
1F
100
AcDbEntity
  8
25
  6
CONTINUOUS
 62
     7
100
AcDbCircle
 10
174.9880225154988
 20
237.5345312045549
 30
0.0
 40
28.0
100
AcDbArc
 50
89.99997967463487
 51
270.0000203253647
  0
ARC
  5
C8
330
1F
100
AcDbEntity
  8
25
  6
CONTINUOUS
 62
     7
100
AcDbCircle
 10
174.9880324483469
 20
237.5345411374026
 30
0.0
 40
13.84999999999999
100
AcDbArc
 50
89.99999999999991
 51
269.9999999999998
  0
ARC
  5
C9
330
1F
100
AcDbEntity
  8
25
  6
CONTINUOUS
 62
     7
100
AcDbCircle
 10
174.9880324483469
 20
237.5345215123639
 30
0.0
 40
10.700004733085
100
AcDbArc
 50
89.99999999999991
 51
269.9999999999998
  0
CIRCLE
  5
CA
330
1F
100
AcDbEntity
  8
25
  6
CONTINUOUS
 62
     7
100
AcDbCircle
 10
148.4715189909848
 20
264.051036269032
 30
0.0
 40
7.5
  0
CIRCLE
  5
CB
330
1F
100
AcDbEntity
  8
25
  6
CONTINUOUS
 62
     7
100
AcDbCircle
 10
148.4715177526101
 20
211.0180273784525
 30
0.0
 40
7.5
  0
LINE
  5
CC
330
1F
100
AcDbEntity
  8
25
  6
CONTINUOUS
 62
     7
100
AcDbLine
 10
225.8509208151833
 20
256.1345220492819
 30
0.0
 11
230.8509093710913
 21
251.134533493373
 31
0.0
  0
LINE
  5
CD
330
1F
100
AcDbEntity
  8
25
  6
CONTINUOUS
 62
     7
100
AcDbLine
 10
219.8509236762063
 20
285.534531204555
 30
0.0
 11
219.8509236762063
 21
237.5345312045549
 31
0.0
  0
LINE
  5
CE
330
1F
100
AcDbEntity
  8
25
  6
CONTINUOUS
 62
     7
100
AcDbLine
 10
225.8509170004862
 20
258.134544937465
 30
0.0
 11
225.8509170004863
 21
237.5345312045549
 31
0.0
  0
LINE
  5
CF
330
1F
100
AcDbEntity
  8
25
  6
CONTINUOUS
 62
     7
100
AcDbLine
 10
204.8509169408821
 20
237.5345312045549
 30
0.0
 11
204.8509169408821
 21
285.534531204555
 31
0.0
  0
LINE
  5
D0
330
1F
100
AcDbEntity
  8
25
  6
CONTINUOUS
 62
     7
100
AcDbLine
 10
206.850920815184
 20
287.53453883395
 30
0.0
 11
217.8509208151833
 21
287.53453883395
 31
0.0
  0
ARC
  5
D1
330
1F
100
AcDbEntity
  8
25
  6
CONTINUOUS
 62
     7
100
AcDbCircle
 10
206.850920815184
 20
285.534531204555
 30
0.0
 40
2.0
100
AcDbArc
 50
89.99999931675049
 51
180.0000086514145
  0
LINE
  5
D2
330
1F
100
AcDbEntity
  8
25
  6
CONTINUOUS
 62
     7
100
AcDbLine
 10
203.8509131857894
 20
263.034531204555
 30
0.0
 11
204.8509169408821
 21
263.034531204555
 31
0.0
  0
ARC
  5
D3
330
1F
100
AcDbEntity
  8
25
  6
CONTINUOUS
 62
     7
100
AcDbCircle
 10
217.8509208151833
 20
285.534531204555
 30
0.0
 40
2.0
100
AcDbArc
 50
0.0
 51
90.00000250448173
  0
ARC
  5
D4
330
1F
100
AcDbEntity
  8
25
  6
CONTINUOUS
 62
     7
100
AcDbCircle
 10
223.8509246298812
 20
262.134529678676
 30
0.0
 40
4.0
100
AcDbArc
 50
179.9999949910365
 51
269.9999974955179
  0
LINE
  5
D5
330
1F
100
AcDbEntity
  8
25
  6
CONTINUOUS
 62
     7
100
AcDbLine
 10
223.8509246298812
 20
258.134544937465
 30
0.0
 11
225.8509170004862
 21
258.134544937465
 31
0.0
  0
LINE
  5
D6
330
1F
100
AcDbEntity
  8
25
  6
CONTINUOUS
 62
     7
100
AcDbLine
 10
230.8509227225323
 20
237.5345312045549
 30
0.0
 11
230.8509227225323
 21
251.134537308071
 31
0.0
  0
LINE
  5
D7
330
1F
100
AcDbEntity
  8
25
  6
CONTINUOUS
 62
     7
100
AcDbLine
 10
230.8509227225323
 20
251.134537308071
 30
0.0
 11
473.8685010447621
 21
251.1345335338682
 31
0.0
  0
ARC
  5
D8
330
1F
100
AcDbEntity
  8
7
  6
DASHDOT
 62
     4
100
AcDbCircle
 10
473.8509131857895
 20
317.534531204555
 30
0.0
 40
80.0
100
AcDbArc
 50
269.9999999999998
 51
0.0
  0
ARC
  5
D9
330
1F
100
AcDbEntity
  8
25
  6
CONTINUOUS
 62
     7
100
AcDbCircle
 10
473.8509131857895
 20
317.534531204555
 30
0.0
 40
93.60000000000002
100
AcDbArc
 50
269.9999999999998
 51
0.0
  0
ARC
  5
DA
330
1F
100
AcDbEntity
  8
25
  6
CONTINUOUS
 62
     7
100
AcDbCircle
 10
473.8509131857895
 20
317.534531204555
 30
0.0
 40
66.39999999999998
100
AcDbArc
 50
269.9999999999998
 51
0.0
  0
INSERT
  5
E8
330
1F
100
AcDbEntity
  8
5
100
AcDbBlockReference
  2
*G14
 10
0.0
 20
0.0
 30
0.0
  0
INSERT
  5
F6
330
1F
100
AcDbEntity
  8
5
100
AcDbBlockReference
  2
*G16
 10
0.0
 20
0.0
 30
0.0
  0
LINE
  5
F7
330
1F
100
AcDbEntity
  8
7
  6
DASHDOT
 62
     4
100
AcDbLine
 10
553.8509131857894
 20
393.5345312045549
 30
0.0
 11
553.8509131857894
 21
317.534531204555
 31
0.0
  0
CIRCLE
  5
F8
330
1F
100
AcDbEntity
  8
25
  6
CONTINUOUS
 62
     7
100
AcDbCircle
 10
527.3344096612756
 20
516.5878102301333
 30
0.0
 40
7.5
  0
CIRCLE
  5
F9
330
1F
100
AcDbEntity
  8
25
  6
CONTINUOUS
 62
     7
100
AcDbCircle
 10
527.3344084229009
 20
463.5548013395536
 30
0.0
 40
7.5
  0
CIRCLE
  5
FA
330
1F
100
AcDbEntity
  8
22
  6
CONTINUOUS
 62
     7
100
AcDbCircle
 10
553.8509034935983
 20
490.0712954734651
 30
0.0
 40
10.70000473310301
  0
CIRCLE
  5
FB
330
1F
100
AcDbEntity
  8
22
  6
CONTINUOUS
 62
     7
100
AcDbCircle
 10
553.8509034935983
 20
490.0712954734651
 30
0.0
 40
13.8500196250385
  0
CIRCLE
  5
FC
330
1F
100
AcDbEntity
  8
22
  6
CONTINUOUS
 62
     7
100
AcDbCircle
 10
553.8509034935983
 20
490.0712954734651
 30
0.0
 40
28.00000969219263
  0
CIRCLE
  5
FD
330
1F
100
AcDbEntity
  8
7
  6
DASHDOT
 62
     4
100
AcDbCircle
 10
553.8509034935983
 20
490.0712954734651
 30
0.0
 40
37.50000969219479
  0
CIRCLE
  5
FE
330
1F
100
AcDbEntity
  8
22
  6
CONTINUOUS
 62
     7
100
AcDbCircle
 10
553.8509231186376
 20
490.5805519918276
 30
0.0
 40
49.49075317382949
  0
CIRCLE
  5
FF
330
1F
100
AcDbEntity
  8
25
  6
CONTINUOUS
 62
     7
100
AcDbCircle
 10
580.3674146415103
 20
516.5878066213775
 30
0.0
 40
7.5
  0
CIRCLE
  5
100
330
1F
100
AcDbEntity
  8
25
  6
CONTINUOUS
 62
     7
100
AcDbCircle
 10
580.6208300402486
 20
463.8106450702166
 30
0.0
 40
7.5
  0
LINE
  5
101
330
1F
100
AcDbEntity
  8
25
  6
CONTINUOUS
 62
     7
100
AcDbLine
 10
225.8509208151833
 20
508.6712863181922
 30
0.0
 11
230.8509093710913
 21
503.6712977622833
 31
0.0
  0
LINE
  5
102
330
1F
100
AcDbEntity
  8
25
  6
CONTINUOUS
 62
     7
100
AcDbLine
 10
219.8509236762063
 20
538.0712954734652
 30
0.0
 11
219.8509236762063
 21
490.0712954734651
 31
0.0
  0
LINE
  5
103
330
1F
100
AcDbEntity
  8
25
  6
CONTINUOUS
 62
     7
100
AcDbLine
 10
225.8509170004862
 20
510.6713092063753
 30
0.0
 11
225.8509170004862
 21
490.0712954734651
 31
0.0
  0
LINE
  5
104
330
1F
100
AcDbEntity
  8
25
  6
CONTINUOUS
 62
     7
100
AcDbLine
 10
204.8509169408821
 20
490.0712954734651
 30
0.0
 11
204.8509169408821
 21
538.0712954734652
 31
0.0
  0
LINE
  5
105
330
1F
100
AcDbEntity
  8
25
  6
CONTINUOUS
 62
     7
100
AcDbLine
 10
206.850920815184
 20
540.0713031028603
 30
0.0
 11
217.8509208151833
 21
540.0713031028603
 31
0.0
  0
ARC
  5
106
330
1F
100
AcDbEntity
  8
25
  6
CONTINUOUS
 62
     7
100
AcDbCircle
 10
206.850920815184
 20
538.0712954734652
 30
0.0
 40
2.0
100
AcDbArc
 50
89.99999931675049
 51
180.0000086514145
  0
LINE
  5
107
330
1F
100
AcDbEntity
  8
25
  6
CONTINUOUS
 62
     7
100
AcDbLine
 10
203.8509131857894
 20
515.5712954734653
 30
0.0
 11
204.8509169408821
 21
515.5712954734653
 31
0.0
  0
ARC
  5
108
330
1F
100
AcDbEntity
  8
25
  6
CONTINUOUS
 62
     7
100
AcDbCircle
 10
217.8509208151833
 20
538.0712954734652
 30
0.0
 40
2.0
100
AcDbArc
 50
0.0
 51
90.00000250448173
  0
ARC
  5
109
330
1F
100
AcDbEntity
  8
25
  6
CONTINUOUS
 62
     7
100
AcDbCircle
 10
223.8509246298812
 20
514.6712939475863
 30
0.0
 40
4.0
100
AcDbArc
 50
179.9999949910365
 51
269.9999974955179
  0
LINE
  5
10A
330
1F
100
AcDbEntity
  8
25
  6
CONTINUOUS
 62
     7
100
AcDbLine
 10
223.8509246298812
 20
510.6713092063753
 30
0.0
 11
225.8509170004862
 21
510.6713092063753
 31
0.0
  0
LINE
  5
10B
330
1F
100
AcDbEntity
  8
25
  6
CONTINUOUS
 62
     7
100
AcDbLine
 10
230.8509227225323
 20
490.0712954734651
 30
0.0
 11
230.8509227225323
 21
503.6713015769812
 31
0.0
  0
LINE
  5
10C
330
1F
100
AcDbEntity
  8
25
  6
CONTINUOUS
 62
     7
100
AcDbLine
 10
230.8509227225323
 20
503.6713015769812
 30
0.0
 11
506.1228701839006
 21
503.6712973018496
 31
0.0
  0
LINE
  5
10D
330
1F
100
AcDbEntity
  8
25
  6
CONTINUOUS
 62
     7
100
AcDbLine
 10
225.8509208151833
 20
471.4713046287381
 30
0.0
 11
230.8509093710913
 21
476.471293184647
 31
0.0
  0
LINE
  5
10E
330
1F
100
AcDbEntity
  8
25
  6
CONTINUOUS
 62
     7
100
AcDbLine
 10
219.8509236762063
 20
442.0712954734651
 30
0.0
 11
219.8509236762063
 21
490.0712954734651
 31
0.0
  0
LINE
  5
10F
330
1F
100
AcDbEntity
  8
25
  6
CONTINUOUS
 62
     7
100
AcDbLine
 10
225.8509170004862
 20
469.471281740555
 30
0.0
 11
225.8509170004862
 21
490.0712954734651
 31
0.0
  0
LINE
  5
110
330
1F
100
AcDbEntity
  8
25
  6
CONTINUOUS
 62
     7
100
AcDbLine
 10
204.8509169408821
 20
490.0712954734651
 30
0.0
 11
204.8509169408821
 21
442.0712954734651
 31
0.0
  0
LINE
  5
111
330
1F
100
AcDbEntity
  8
25
  6
CONTINUOUS
 62
     7
100
AcDbLine
 10
206.850920815184
 20
440.07128784407
 30
0.0
 11
217.8509208151833
 21
440.07128784407
 31
0.0
  0
ARC
  5
112
330
1F
100
AcDbEntity
  8
25
  6
CONTINUOUS
 62
     7
100
AcDbCircle
 10
206.850920815184
 20
442.0712954734651
 30
0.0
 40
2.0
100
AcDbArc
 50
179.9999913485851
 51
270.0000006832491
  0
LINE
  5
113
330
1F
100
AcDbEntity
  8
25
  6
CONTINUOUS
 62
     7
100
AcDbLine
 10
203.8509131857894
 20
464.571295473465
 30
0.0
 11
204.8509169408821
 21
464.571295473465
 31
0.0
  0
ARC
  5
114
330
1F
100
AcDbEntity
  8
25
  6
CONTINUOUS
 62
     7
100
AcDbCircle
 10
217.8509208151833
 20
442.0712954734651
 30
0.0
 40
2.0
100
AcDbArc
 50
269.9999974955179
 51
0.0
  0
ARC
  5
115
330
1F
100
AcDbEntity
  8
25
  6
CONTINUOUS
 62
     7
100
AcDbCircle
 10
223.8509246298812
 20
465.471296999344
 30
0.0
 40
4.0
100
AcDbArc
 50
90.00000250448173
 51
180.0000050089631
  0
LINE
  5
116
330
1F
100
AcDbEntity
  8
25
  6
CONTINUOUS
 62
     7
100
AcDbLine
 10
223.8509246298812
 20
469.471281740555
 30
0.0
 11
225.8509170004862
 21
469.471281740555
 31
0.0
  0
LINE
  5
117
330
1F
100
AcDbEntity
  8
25
  6
CONTINUOUS
 62
     7
100
AcDbLine
 10
230.8509227225323
 20
490.0712954734651
 30
0.0
 11
230.8509227225323
 21
476.4712893699491
 31
0.0
  0
LINE
  5
118
330
1F
100
AcDbEntity
  8
25
  6
CONTINUOUS
 62
     7
100
AcDbLine
 10
230.8509227225323
 20
476.4712893699491
 30
0.0
 11
506.4139809875805
 21
476.4712936496019
 31
0.0
  0
LINE
  5
119
330
1F
100
AcDbEntity
  8
7
  6
DASHDOT
 62
     4
100
AcDbLine
 10
197.8509131857894
 20
490.0712954734651
 30
0.0
 11
609.3390561154624
 21
490.0712954734651
 31
0.0
  0
LINE
  5
11A
330
1F
100
AcDbEntity
  8
7
  6
DASHDOT
 62
     4
100
AcDbLine
 10
553.8509131857894
 20
546.0713051656562
 30
0.0
 11
553.8509131857894
 21
435.0897988179991
 31
0.0
  0
LINE
  5
11B
330
1F
100
AcDbEntity
  8
7
  6
DASHDOT
 62
     4
100
AcDbLine
 10
518.0492119748129
 20
526.3822631356521
 30
0.0
 11
590.166771586267
 21
454.2647035241983
 31
0.0
  0
LINE
  5
11C
330
1F
100
AcDbEntity
  8
7
  6
DASHDOT
 62
     4
100
AcDbLine
 10
589.9133561875286
 20
526.1337481673955
 30
0.0
 11
517.7884673452754
 21
454.0088593251425
 31
0.0
  0
LINE
  5
11D
330
1F
100
AcDbEntity
  8
25
  6
CONTINUOUS
 62
     7
100
AcDbLine
 10
144.4007074741632
 20
146.0175055859743
 30
0.0
 11
144.4007074741632
 21
26.01750558597428
 31
0.0
  0
TEXT
  5
11E
330
1F
100
AcDbEntity
  8
6
  6
CONTINUOUS
 62
     2
100
AcDbText
 10
145.4174111296092
 20
127.6598266107603
 30
0.0
 40
5.999999999999986
  1
型式
100
AcDbText
  0
TEXT
  5
11F
330
1F
100
AcDbEntity
  8
6
  6
CONTINUOUS
 62
     2
100
AcDbText
 10
145.4174111296092
 20
117.6598266107603
 30
0.0
 40
6.0
  1
Ａ寸法
100
AcDbText
  0
TEXT
  5
120
330
1F
100
AcDbEntity
  8
6
  6
CONTINUOUS
 62
     2
100
AcDbText
 10
145.4174111296092
 20
107.6598266107603
 30
0.0
 40
6.0
  1
Ｂ寸法
100
AcDbText
  0
TEXT
  5
121
330
1F
100
AcDbEntity
  8
6
  6
CONTINUOUS
 62
     2
100
AcDbText
 10
145.4174111296092
 20
97.65982661076032
 30
0.0
 40
6.0
  1
防食措置
100
AcDbText
  0
TEXT
  5
122
330
1F
100
AcDbEntity
  8
6
  6
CONTINUOUS
 62
     2
100
AcDbText
 10
145.4174111296092
 20
47.65982661076032
 30
0.0
 40
6.0
  1
集合管
100
AcDbText
  0
TEXT
  5
123
330
1F
100
AcDbEntity
  8
6
  6
CONTINUOUS
 62
     2
100
AcDbText
 10
145.4174111296092
 20
37.65982661076032
 30
0.0
 40
6.0
  1
気密試験圧力
100
AcDbText
  0
TEXT
  5
124
330
1F
100
AcDbEntity
  8
6
  6
CONTINUOUS
 62
     2
100
AcDbText
 10
145.4174111296092
 20
27.65982661076032
 30
0.0
 40
6.000000000000004
  1
耐圧試験圧力
100
AcDbText
  0
LINE
  5
125
330
1F
100
AcDbEntity
  8
25
  6
CONTINUOUS
 62
     7
100
AcDbLine
 10
189.4007074741632
 20
136.0175055859743
 30
0.0
 11
189.4007074741632
 21
26.01750558597428
 31
0.0
  0
TEXT
  5
126
330
1F
100
AcDbEntity
  8
6
  6
CONTINUOUS
 62
     2
100
AcDbText
 10
190.4174111296092
 20
127.6598266107603
 30
0.0
 40
5.999999999999986
  1
3/4HL-250×150
100
AcDbText
  0
TEXT
  5
127
330
1F
100
AcDbEntity
  8
6
  6
CONTINUOUS
 62
     2
100
AcDbText
 10
190.4174111296092
 20
117.6598266107603
 30
0.0
 40
6.0
  1
１５０
100
AcDbText
  0
TEXT
  5
128
330
1F
100
AcDbEntity
  8
6
  6
CONTINUOUS
 62
     2
100
AcDbText
 10
190.4174111296092
 20
107.6598266107603
 30
0.0
 40
6.0
  1
２５０
100
AcDbText
  0
TEXT
  5
129
330
1F
100
AcDbEntity
  8
6
  6
CONTINUOUS
 62
     2
100
AcDbText
 10
190.4174111296092
 20
97.65982661076032
 30
0.0
 40
6.0
  1
焼付塗装
100
AcDbText
  0
TEXT
  5
12A
330
1F
100
AcDbEntity
  8
6
  6
CONTINUOUS
 62
     2
100
AcDbText
 10
190.4174111296092
 20
87.65982661076032
 30
0.0
 40
6.0
  1
（１）鋼管洗浄
100
AcDbText
  0
TEXT
  5
12B
330
1F
100
AcDbEntity
  8
6
  6
CONTINUOUS
 62
     2
100
AcDbText
 10
190.4174111296092
 20
77.65982661076032
 30
0.0
 40
6.0
  1
（２）プライマー処理
100
AcDbText
  0
TEXT
  5
12C
330
1F
100
AcDbEntity
  8
6
  6
CONTINUOUS
 62
     2
100
AcDbText
 10
190.4174111296092
 20
67.65982661076032
 30
0.0
 40
6.0
  1
（３）仕上塗料を塗装
100
AcDbText
  0
TEXT
  5
12D
330
1F
100
AcDbEntity
  8
6
  6
CONTINUOUS
 62
     2
100
AcDbText
 10
190.4174111296092
 20
57.65982661076032
 30
0.0
 40
6.0
  1
（４）焼付塗装
100
AcDbText
  0
TEXT
  5
12E
330
1F
100
AcDbEntity
  8
6
  6
CONTINUOUS
 62
     2
100
AcDbText
 10
190.4174111296092
 20
47.65982661076032
 30
0.0
 40
6.0
  1
JIS G 3454 STPG370 Sch80
100
AcDbText
  0
TEXT
  5
12F
330
1F
100
AcDbEntity
  8
6
  6
CONTINUOUS
 62
     2
100
AcDbText
 10
190.4174111296092
 20
37.65982661076032
 30
0.0
 40
6.0
  1
１．８ＭＰａ
100
AcDbText
  0
TEXT
  5
130
330
1F
100
AcDbEntity
  8
6
  6
CONTINUOUS
 62
     2
100
AcDbText
 10
190.4174111296092
 20
27.65982661076032
 30
0.0
 40
6.000000000000004
  1
２．６ＭＰａ
100
AcDbText
  0
LINE
  5
131
330
1F
100
AcDbEntity
  8
25
  6
CONTINUOUS
 62
     7
100
AcDbLine
 10
248.6450886954403
 20
136.0175055859743
 30
0.0
 11
248.6450886954403
 21
106.0175055859743
 31
0.0
  0
LINE
  5
132
330
1F
100
AcDbEntity
  8
25
  6
CONTINUOUS
 62
     7
100
AcDbLine
 10
308.2109369942614
 20
136.0175055859743
 30
0.0
 11
308.2109369942614
 21
106.0175055859743
 31
0.0
  0
LINE
  5
133
330
1F
100
AcDbEntity
  8
25
  6
CONTINUOUS
 62
     7
100
AcDbLine
 10
367.6708558212872
 20
136.0175055859743
 30
0.0
 11
367.6708558212872
 21
106.0175055859743
 31
0.0
  0
LINE
  5
134
330
1F
100
AcDbEntity
  8
25
  6
CONTINUOUS
 62
     7
100
AcDbLine
 10
427.501274159154
 20
136.0175055859743
 30
0.0
 11
427.501274159154
 21
106.0175055859743
 31
0.0
  0
LINE
  5
135
330
1F
100
AcDbEntity
  8
25
  6
CONTINUOUS
 62
     7
100
AcDbLine
 10
488.80359870195
 20
136.0175055859743
 30
0.0
 11
488.80359870195
 21
106.0175055859743
 31
0.0
  0
LINE
  5
136
330
1F
100
AcDbEntity
  8
25
  6
CONTINUOUS
 62
     7
100
AcDbLine
 10
547.0435171866229
 20
146.0175055859743
 30
0.0
 11
547.0435171866229
 21
26.01750558597428
 31
0.0
  0
TEXT
  5
137
330
1F
100
AcDbEntity
  8
6
  6
CONTINUOUS
 62
     2
100
AcDbText
 10
249.6617923508863
 20
127.6598266107603
 30
0.0
 40
5.999999999999986
  1
3/4HL-600×150
100
AcDbText
  0
TEXT
  5
138
330
1F
100
AcDbEntity
  8
6
  6
CONTINUOUS
 62
     2
100
AcDbText
 10
249.6617923508863
 20
117.6598266107603
 30
0.0
 40
6.0
  1
１５０
100
AcDbText
  0
TEXT
  5
139
330
1F
100
AcDbEntity
  8
6
  6
CONTINUOUS
 62
     2
100
AcDbText
 10
249.6617923508863
 20
107.6598266107603
 30
0.0
 40
6.0
  1
６００
100
AcDbText
  0
TEXT
  5
13A
330
1F
100
AcDbEntity
  8
6
  6
CONTINUOUS
 62
     2
100
AcDbText
 10
309.2276406497073
 20
127.6598266107603
 30
0.0
 40
5.999999999999986
  1
3/4HL-860×150
100
AcDbText
  0
TEXT
  5
13B
330
1F
100
AcDbEntity
  8
6
  6
CONTINUOUS
 62
     2
100
AcDbText
 10
309.2276406497073
 20
117.6598266107603
 30
0.0
 40
6.0
  1
１５０
100
AcDbText
  0
TEXT
  5
13C
330
1F
100
AcDbEntity
  8
6
  6
CONTINUOUS
 62
     2
100
AcDbText
 10
309.2276406497073
 20
107.6598266107603
 30
0.0
 40
6.0
  1
８６０
100
AcDbText
  0
TEXT
  5
13D
330
1F
100
AcDbEntity
  8
6
  6
CONTINUOUS
 62
     2
100
AcDbText
 10
368.6875594767332
 20
127.6598266107603
 30
0.0
 40
5.999999999999986
  1
3/4HL-280×140
100
AcDbText
  0
TEXT
  5
13E
330
1F
100
AcDbEntity
  8
6
  6
CONTINUOUS
 62
     2
100
AcDbText
 10
368.6875594767332
 20
117.6598266107603
 30
0.0
 40
6.0
  1
１４０
100
AcDbText
  0
TEXT
  5
13F
330
1F
100
AcDbEntity
  8
6
  6
CONTINUOUS
 62
     2
100
AcDbText
 10
368.6875594767332
 20
107.6598266107603
 30
0.0
 40
6.0
  1
２８０
100
AcDbText
  0
TEXT
  5
140
330
1F
100
AcDbEntity
  8
6
  6
CONTINUOUS
 62
     2
100
AcDbText
 10
428.5179778146
 20
127.6598266107603
 30
0.0
 40
5.999999999999986
  1
3/4HL-660×200
100
AcDbText
  0
TEXT
  5
141
330
1F
100
AcDbEntity
  8
6
  6
CONTINUOUS
 62
     2
100
AcDbText
 10
428.5179778146
 20
117.6598266107603
 30
0.0
 40
6.0
  1
２００
100
AcDbText
  0
TEXT
  5
142
330
1F
100
AcDbEntity
  8
6
  6
CONTINUOUS
 62
     2
100
AcDbText
 10
428.5179778146
 20
107.6598266107603
 30
0.0
 40
6.0
  1
６６０
100
AcDbText
  0
TEXT
  5
143
330
1F
100
AcDbEntity
  8
6
  6
CONTINUOUS
 62
     2
100
AcDbText
 10
489.820302357396
 20
127.6598266107603
 30
0.0
 40
5.999999999999986
  1
3/4HL-910×150
100
AcDbText
  0
TEXT
  5
144
330
1F
100
AcDbEntity
  8
6
  6
CONTINUOUS
 62
     2
100
AcDbText
 10
489.820302357396
 20
117.6598266107603
 30
0.0
 40
6.0
  1
１５０
100
AcDbText
  0
TEXT
  5
145
330
1F
100
AcDbEntity
  8
6
  6
CONTINUOUS
 62
     2
100
AcDbText
 10
489.820302357396
 20
107.6598266107603
 30
0.0
 40
6.0
  1
９１０
100
AcDbText
  0
LINE
  5
146
330
1F
100
AcDbEntity
  8
25
  6
CONTINUOUS
 62
     7
100
AcDbLine
 10
144.4007074741632
 20
146.0175055859743
 30
0.0
 11
547.0435171866229
 21
146.0175055859743
 31
0.0
  0
LINE
  5
147
330
1F
100
AcDbEntity
  8
25
  6
CONTINUOUS
 62
     7
100
AcDbLine
 10
144.4007074741632
 20
136.0175055859743
 30
0.0
 11
547.0435171866229
 21
136.0175055859743
 31
0.0
  0
LINE
  5
148
330
1F
100
AcDbEntity
  8
25
  6
CONTINUOUS
 62
     7
100
AcDbLine
 10
144.4007074741632
 20
126.0175055859743
 30
0.0
 11
547.0435171866229
 21
126.0175055859743
 31
0.0
  0
LINE
  5
149
330
1F
100
AcDbEntity
  8
25
  6
CONTINUOUS
 62
     7
100
AcDbLine
 10
144.4007074741632
 20
116.0175055859743
 30
0.0
 11
547.0435171866229
 21
116.0175055859743
 31
0.0
  0
LINE
  5
14A
330
1F
100
AcDbEntity
  8
25
  6
CONTINUOUS
 62
     7
100
AcDbLine
 10
144.4007074741632
 20
106.0175055859743
 30
0.0
 11
547.0435171866229
 21
106.0175055859743
 31
0.0
  0
LINE
  5
14B
330
1F
100
AcDbEntity
  8
25
  6
CONTINUOUS
 62
     7
100
AcDbLine
 10
144.4007074741632
 20
56.01750558597428
 30
0.0
 11
547.0435171866229
 21
56.01750558597428
 31
0.0
  0
LINE
  5
14C
330
1F
100
AcDbEntity
  8
25
  6
CONTINUOUS
 62
     7
100
AcDbLine
 10
144.4007074741632
 20
46.01750558597428
 30
0.0
 11
547.0435171866229
 21
46.01750558597428
 31
0.0
  0
LINE
  5
14D
330
1F
100
AcDbEntity
  8
25
  6
CONTINUOUS
 62
     7
100
AcDbLine
 10
144.4007074741632
 20
36.01750558597428
 30
0.0
 11
547.0435171866229
 21
36.01750558597428
 31
0.0
  0
LINE
  5
14E
330
1F
100
AcDbEntity
  8
25
  6
CONTINUOUS
 62
     7
100
AcDbLine
 10
144.4007074741632
 20
26.01750558597428
 30
0.0
 11
547.0435171866229
 21
26.01750558597428
 31
0.0
  0
TEXT
  5
14F
330
1F
100
AcDbEntity
  8
6
  6
CONTINUOUS
 62
     2
100
AcDbText
 10
324.7221123303931
 20
138.0175055859743
 30
0.0
 40
6.0
  1
仕　　　　　様
100
AcDbText
  0
LINE
  5
150
330
1F
100
AcDbEntity
  8
25
  6
CONTINUOUS
 62
     7
100
AcDbLine
 10
203.8509131857894
 20
515.5712954734653
 30
0.0
 11
203.8509131857894
 21
464.571295473465
 31
0.0
  0
DIMENSION
  5
164
330
1F
100
AcDbEntity
  8
5
  6
CONTINUOUS
 62
     3
100
AcDbDimension
  2
DIM3
 10
179.8509121857895
 20
540.0713031028605
 30
0.0
 11
172.3509121857895
 21
490.0712992881636
 31
0.0
 70
   160
  1
<>
  3
STANDARD
100
AcDbAlignedDimension
 13
206.850920815184
 23
540.0713031028603
 33
0.0
 14
206.8509208390339
 24
440.071295473465
 34
0.0
 50
89.99999999999991
100
AcDbRotatedDimension
1001
ACAD
1000
DSTYLE
1002
{
1070
   287
1070
     5
1070
     7
1000

1070
     6
1000

1070
   173
1070
     1
1070
   289
1070
     2
1070
   279
1070
     2
1070
   288
1070
     1
1070
    77
1070
     3
1070
   172
1070
     1
1070
   174
1070
     0
1070
    74
1070
     0
1070
    73
1070
     0
1070
   284
1070
     8
1070
    78
1070
     8
1070
   140
1040
4.0
1070
    40
1040
3.0
1070
    42
1040
0.6666666666666666
1070
    44
1040
0.6666666666666666
1070
    43
1040
10.0
1070
   271
1070
     2
1070
    41
1040
4.0
1002
}
  0
LINE
  5
165
330
1F
100
AcDbEntity
  8
25
  6
CONTINUOUS
 62
     7
100
AcDbLine
 10
603.8509208151843
 20
384.5345235751603
 30
0.0
 11
603.8509208151843
 21
373.534523575161
 31
0.0
  0
LINE
  5
166
330
1F
100
AcDbEntity
  8
25
  6
CONTINUOUS
 62
     7
100
AcDbLine
 10
553.8509131857894
 20
386.5345274494623
 30
0.0
 11
601.8509131857893
 21
386.5345274494623
 31
0.0
  0
ARC
  5
167
330
1F
100
AcDbEntity
  8
25
  6
CONTINUOUS
 62
     7
100
AcDbCircle
 10
601.8509131857893
 20
384.5345235751603
 30
0.0
 40
2.0
100
AcDbArc
 50
359.9999993167567
 51
90.0000086514214
  0
LINE
  5
168
330
1F
100
AcDbEntity
  8
25
  6
CONTINUOUS
 62
     7
100
AcDbLine
 10
579.3509131857893
 20
387.5345312045549
 30
0.0
 11
579.3509131857893
 21
386.5345274494623
 31
0.0
  0
LINE
  5
169
330
1F
100
AcDbEntity
  8
25
  6
CONTINUOUS
 62
     7
100
AcDbLine
 10
574.4509269186992
 20
365.5345273898581
 30
0.0
 11
553.8509131857894
 21
365.534527389858
 31
0.0
  0
LINE
  5
16A
330
1F
100
AcDbEntity
  8
25
  6
CONTINUOUS
 62
     7
100
AcDbLine
 10
553.8509131857894
 20
360.5345216678121
 30
0.0
 11
567.4509192893051
 21
360.5345216678121
 31
0.0
  0
LINE
  5
16B
330
1F
100
AcDbEntity
  8
25
  6
CONTINUOUS
 62
     7
100
AcDbLine
 10
601.8509131857893
 20
371.5345207141381
 30
0.0
 11
553.8509131857894
 21
371.5345207141381
 31
0.0
  0
ARC
  5
16C
330
1F
100
AcDbEntity
  8
25
  6
CONTINUOUS
 62
     7
100
AcDbCircle
 10
601.8509131857893
 20
373.534523575161
 30
0.0
 40
2.0
100
AcDbArc
 50
269.9999999999998
 51
0.0000025044817295
  0
LINE
  5
16D
330
1F
100
AcDbEntity
  8
25
  6
CONTINUOUS
 62
     7
100
AcDbLine
 10
572.4509040305164
 20
365.5345235751611
 30
0.0
 11
567.4509154746072
 21
360.5345350192531
 31
0.0
  0
LINE
  5
16E
330
1F
100
AcDbEntity
  8
25
  6
CONTINUOUS
 62
     7
100
AcDbLine
 10
574.4509269186992
 20
367.5345197604631
 30
0.0
 11
574.4509269186992
 21
365.5345273898581
 31
0.0
  0
ARC
  5
16F
330
1F
100
AcDbEntity
  8
25
  6
CONTINUOUS
 62
     7
100
AcDbCircle
 10
578.4509116599102
 20
367.5345197604631
 30
0.0
 40
4.0
100
AcDbArc
 50
89.99999499104305
 51
179.9999974955183
  0
LINE
  5
170
330
1F
100
AcDbEntity
  8
25
  6
CONTINUOUS
 62
     7
100
AcDbLine
 10
567.4509192893051
 20
360.5345216678121
 30
0.0
 11
567.4509192893051
 21
317.5060610996987
 31
0.0
  0
LINE
  5
171
330
1F
100
AcDbEntity
  8
25
  6
CONTINUOUS
 62
     7
100
AcDbLine
 10
579.3509131857893
 20
387.5345312045549
 30
0.0
 11
528.3509131857895
 21
387.5345312045549
 31
0.0
  0
LINE
  5
172
330
1F
100
AcDbEntity
  8
25
  6
CONTINUOUS
 62
     7
100
AcDbLine
 10
225.8509208151833
 20
218.9345403598278
 30
0.0
 11
230.8509093710913
 21
223.9345289157368
 31
0.0
  0
LINE
  5
173
330
1F
100
AcDbEntity
  8
25
  6
CONTINUOUS
 62
     7
100
AcDbLine
 10
219.8509236762063
 20
189.5345312045548
 30
0.0
 11
219.8509236762063
 21
237.5345312045549
 31
0.0
  0
LINE
  5
174
330
1F
100
AcDbEntity
  8
25
  6
CONTINUOUS
 62
     7
100
AcDbLine
 10
225.8509170004862
 20
216.9345174716448
 30
0.0
 11
225.8509170004863
 21
237.5345312045549
 31
0.0
  0
LINE
  5
175
330
1F
100
AcDbEntity
  8
25
  6
CONTINUOUS
 62
     7
100
AcDbLine
 10
204.8509169408821
 20
237.5345312045549
 30
0.0
 11
204.8509169408821
 21
189.5345312045548
 31
0.0
  0
LINE
  5
176
330
1F
100
AcDbEntity
  8
25
  6
CONTINUOUS
 62
     7
100
AcDbLine
 10
206.850920815184
 20
187.5345235751598
 30
0.0
 11
217.8509208151833
 21
187.5345235751598
 31
0.0
  0
ARC
  5
177
330
1F
100
AcDbEntity
  8
25
  6
CONTINUOUS
 62
     7
100
AcDbCircle
 10
206.850920815184
 20
189.5345312045548
 30
0.0
 40
2.0
100
AcDbArc
 50
179.9999913485851
 51
270.0000006832491
  0
LINE
  5
178
330
1F
100
AcDbEntity
  8
25
  6
CONTINUOUS
 62
     7
100
AcDbLine
 10
203.8509131857894
 20
212.0345312045548
 30
0.0
 11
204.8509169408821
 21
212.0345312045548
 31
0.0
  0
ARC
  5
179
330
1F
100
AcDbEntity
  8
25
  6
CONTINUOUS
 62
     7
100
AcDbCircle
 10
217.8509208151833
 20
189.5345312045548
 30
0.0
 40
2.0
100
AcDbArc
 50
269.9999974955179
 51
0.0
  0
ARC
  5
17A
330
1F
100
AcDbEntity
  8
25
  6
CONTINUOUS
 62
     7
100
AcDbCircle
 10
223.8509246298812
 20
212.9345327304338
 30
0.0
 40
4.0
100
AcDbArc
 50
90.00000250448173
 51
180.0000050089631
  0
LINE
  5
17B
330
1F
100
AcDbEntity
  8
25
  6
CONTINUOUS
 62
     7
100
AcDbLine
 10
223.8509246298812
 20
216.9345174716448
 30
0.0
 11
225.8509170004862
 21
216.9345174716448
 31
0.0
  0
LINE
  5
17C
330
1F
100
AcDbEntity
  8
25
  6
CONTINUOUS
 62
     7
100
AcDbLine
 10
230.8509227225323
 20
237.5345312045549
 30
0.0
 11
230.8509227225323
 21
223.9345251010388
 31
0.0
  0
LINE
  5
17D
330
1F
100
AcDbEntity
  8
25
  6
CONTINUOUS
 62
     7
100
AcDbLine
 10
203.8509131857894
 20
212.0345312045548
 30
0.0
 11
203.8509131857894
 21
263.034531204555
 31
0.0
  0
LINE
  5
17E
330
1F
100
AcDbEntity
  8
25
  6
CONTINUOUS
 62
     7
100
AcDbLine
 10
230.8509227225323
 20
223.9345365451311
 30
0.0
 11
473.8825321011721
 21
223.9345365451311
 31
0.0
  0
VIEWPORT
  5
2A
330
1B
100
AcDbEntity
 67
     1
  8
0
100
AcDbViewport
 10
630.0
 20
445.5
 30
0.0
 40
1260.0
 41
891.0
 68
     1
 69
     1
1001
ACAD
1000
MVIEW
1002
{
1070
    16
1010
0.0
1020
0.0
1030
0.0
1010
0.0
1020
0.0
1030
1.0
1040
0.0
1040
9.0
1040
630.0
1040
445.5
1040
50.0
1040
0.0
1040
0.0
1070
     0
1070
   100
1070
     0
1070
     1
1070
     0
1070
     0
1070
     0
1070
     0
1040
0.0
1040
0.0
1040
0.0
1040
0.5
1040
0.5
1040
0.5
1040
0.5
1070
     0
1002
{
1002
}
1002
}
  0
ENDSEC
  0
SECTION
  2
OBJECTS
  0
DICTIONARY
  5
C
330
0
100
AcDbDictionary
  3
ACAD_GROUP
350
D
  3
ACAD_LAYOUT
350
1A
  3
ACAD_MLINESTYLE
350
17
  3
ACAD_PLOTSETTINGS
350
19
  3
ACDBHEADERROUNDTRIPXREC
350
17F
  3
ACDBVARIABLEDICTIONARY
350
19F
  0
DICTIONARY
  5
D
102
{ACAD_REACTORS
330
C
102
}
330
C
100
AcDbDictionary
  0
DICTIONARY
  5
1A
102
{ACAD_REACTORS
330
C
102
}
330
C
100
AcDbDictionary
  0
DICTIONARY
  5
17
102
{ACAD_REACTORS
330
C
102
}
330
C
100
AcDbDictionary
  3
STANDARD
350
18
  0
DICTIONARY
  5
19
102
{ACAD_REACTORS
330
C
102
}
330
C
100
AcDbDictionary
  0
DICTIONARY
  5
17F
102
{ACAD_REACTORS
330
C
102
}
330
C
100
AcDbDictionary
  3
CEPSNTYPE
350
188
  3
DIMSTYLEDATA
350
19E
  3
FINGERPRINTGUID
350
189
  3
HYPERLINKBASE
350
182
  3
INSUNITS
350
187
  3
LAYOUTDICT
350
184
  3
LWETCUNION
350
186
  3
PLOTSETDICT
350
185
  3
PSVPSCALE
350
18B
  3
PUCSBASE
350
18E
  3
PUCSORGBACK
350
194
  3
PUCSORGBOTTOM
350
190
  3
PUCSORGFRONT
350
193
  3
PUCSORGLEFT
350
191
  3
PUCSORGRIGHT
350
192
  3
PUCSORGTOP
350
18F
  3
PUCSORTHOREF
350
18C
  3
PUCSORTHOVIEW
350
18D
  3
STYLESHEET
350
183
  3
TSTACKALIGN
350
180
  3
TSTACKSIZE
350
181
  3
UCSBASE
350
197
  3
UCSORGBACK
350
19D
  3
UCSORGBOTTOM
350
199
  3
UCSORGFRONT
350
19C
  3
UCSORGLEFT
350
19A
  3
UCSORGRIGHT
350
19B
  3
UCSORGTOP
350
198
  3
UCSORTHOREF
350
195
  3
UCSORTHOVIEW
350
196
  3
VERSIONGUID
350
18A
  0
DICTIONARY
  5
19F
102
{ACAD_REACTORS
330
C
102
}
330
C
100
AcDbDictionary
  3
DIMASSOC
350
1A0
  0
MLINESTYLE
  5
18
102
{ACAD_REACTORS
330
17
102
}
330
17
100
AcDbMlineStyle
  2
Standard
 70
     0
  3

 62
   256
 51
90.0
 52
90.0
 71
     2
 49
0.5
 62
   256
  6
BYLAYER
 49
-0.5
 62
   256
  6
BYLAYER
  0
XRECORD
  5
188
102
{ACAD_REACTORS
330
17F
102
}
330
17F
100
AcDbXrecord
 90
        0
  0
XRECORD
  5
19E
102
{ACAD_REACTORS
330
17F
102
}
330
17F
100
AcDbXrecord
1000
DSTYLE
1002
{
1070
   171
 70
     2
1070
   143
 40
25.4
1070
   274
 70
     2
1070
    41
 40
4.0
1070
   289
 70
     2
1070
   141
 40
0.09
1070
    43
 40
10.0
1070
   278
 70
    46
1070
    44
 40
2.0
1070
    42
 40
2.0
1070
   147
 40
0.09
1070
    40
 40
3.0
1070
    77
 70
     3
1070
   272
 70
     4
1070
   146
 40
0.5
1070
   279
 70
     2
1070
   283
 70
     1
1070
   145
 40
0.7
1070
   340
340
11
1070
   140
 40
4.0
1070
   288
 70
     1
1002
}
  0
XRECORD
  5
189
102
{ACAD_REACTORS
330
17F
102
}
330
17F
100
AcDbXrecord
  1
{17E9497E-331C-4EFD-95E0-0268E7DAAB40}
  0
XRECORD
  5
182
102
{ACAD_REACTORS
330
17F
102
}
330
17F
100
AcDbXrecord
  1

  0
XRECORD
  5
187
102
{ACAD_REACTORS
330
17F
102
}
330
17F
100
AcDbXrecord
 90
        4
  0
XRECORD
  5
184
102
{ACAD_REACTORS
330
17F
102
}
330
17F
100
AcDbXrecord
340
1A
  0
XRECORD
  5
186
102
{ACAD_REACTORS
330
17F
102
}
330
17F
100
AcDbXrecord
 90
    10781
  0
XRECORD
  5
185
102
{ACAD_REACTORS
330
17F
102
}
330
17F
100
AcDbXrecord
340
19
  0
XRECORD
  5
18B
102
{ACAD_REACTORS
330
17F
102
}
330
17F
100
AcDbXrecord
 40
0.0
  0
XRECORD
  5
18E
102
{ACAD_REACTORS
330
17F
102
}
330
17F
100
AcDbXrecord
340
0
  0
XRECORD
  5
194
102
{ACAD_REACTORS
330
17F
102
}
330
17F
100
AcDbXrecord
 10
0.0
 20
0.0
 30
0.0
  0
XRECORD
  5
190
102
{ACAD_REACTORS
330
17F
102
}
330
17F
100
AcDbXrecord
 10
0.0
 20
0.0
 30
0.0
  0
XRECORD
  5
193
102
{ACAD_REACTORS
330
17F
102
}
330
17F
100
AcDbXrecord
 10
0.0
 20
0.0
 30
0.0
  0
XRECORD
  5
191
102
{ACAD_REACTORS
330
17F
102
}
330
17F
100
AcDbXrecord
 10
0.0
 20
0.0
 30
0.0
  0
XRECORD
  5
192
102
{ACAD_REACTORS
330
17F
102
}
330
17F
100
AcDbXrecord
 10
0.0
 20
0.0
 30
0.0
  0
XRECORD
  5
18F
102
{ACAD_REACTORS
330
17F
102
}
330
17F
100
AcDbXrecord
 10
0.0
 20
0.0
 30
0.0
  0
XRECORD
  5
18C
102
{ACAD_REACTORS
330
17F
102
}
330
17F
100
AcDbXrecord
340
0
  0
XRECORD
  5
18D
102
{ACAD_REACTORS
330
17F
102
}
330
17F
100
AcDbXrecord
 70
     0
  0
XRECORD
  5
183
102
{ACAD_REACTORS
330
17F
102
}
330
17F
100
AcDbXrecord
  1

  0
XRECORD
  5
180
102
{ACAD_REACTORS
330
17F
102
}
330
17F
100
AcDbXrecord
 90
        1
  0
XRECORD
  5
181
102
{ACAD_REACTORS
330
17F
102
}
330
17F
100
AcDbXrecord
 90
       70
  0
XRECORD
  5
197
102
{ACAD_REACTORS
330
17F
102
}
330
17F
100
AcDbXrecord
340
0
  0
XRECORD
  5
19D
102
{ACAD_REACTORS
330
17F
102
}
330
17F
100
AcDbXrecord
 10
0.0
 20
0.0
 30
0.0
  0
XRECORD
  5
199
102
{ACAD_REACTORS
330
17F
102
}
330
17F
100
AcDbXrecord
 10
0.0
 20
0.0
 30
0.0
  0
XRECORD
  5
19C
102
{ACAD_REACTORS
330
17F
102
}
330
17F
100
AcDbXrecord
 10
0.0
 20
0.0
 30
0.0
  0
XRECORD
  5
19A
102
{ACAD_REACTORS
330
17F
102
}
330
17F
100
AcDbXrecord
 10
0.0
 20
0.0
 30
0.0
  0
XRECORD
  5
19B
102
{ACAD_REACTORS
330
17F
102
}
330
17F
100
AcDbXrecord
 10
0.0
 20
0.0
 30
0.0
  0
XRECORD
  5
198
102
{ACAD_REACTORS
330
17F
102
}
330
17F
100
AcDbXrecord
 10
0.0
 20
0.0
 30
0.0
  0
XRECORD
  5
195
102
{ACAD_REACTORS
330
17F
102
}
330
17F
100
AcDbXrecord
340
0
  0
XRECORD
  5
196
102
{ACAD_REACTORS
330
17F
102
}
330
17F
100
AcDbXrecord
 70
     0
  0
XRECORD
  5
18A
102
{ACAD_REACTORS
330
17F
102
}
330
17F
100
AcDbXrecord
  1
{FAEB1C32-E019-11D5-929B-00C0DF256EC4}
  0
DICTIONARYVAR
  5
1A0
102
{ACAD_REACTORS
330
19F
102
}
330
19F
100
DictionaryVariables
280
     0
  1
1
  0
ENDSEC
  0
EOF
