  0
SECTION
  2
HEADER
  9
$ACADVER
  1
AC1004
  9
$INSBASE
 10
0.000000
 20
0.000000
  9
$EXTMIN
 10
0.000000
 20
0.000000
  9
$EXTMAX
 10
2100.000000
 20
1480.000000
  9
$LIMMIN
 10
0.000000
 20
0.000000
  9
$LIMMAX
 10
2100.000000
 20
1480.000000
  9
$VIEWCTR
 10
1050.000000
 20
740.000000
  9
$VIEWSIZE
 40
1480.000000
  9
$PEXTMIN
 10
0.000000
 20
0.000000
 30
0.000000
  9
$PEXTMAX
 10
210.000000
 20
148.000000
 30
0.000000
  9
$SNAPMODE
 70
     0
  9
$SNAPUNIT
 10
1.000000
 20
1.000000
  9
$SNAPBASE
 10
0.000000
 20
0.000000
  9
$SNAPANG
 50
0.000000
  9
$SNAPISOPAIR
 70
     0
  9
$SNAPSTYLE
 70
     0
  9
$GRIDMODE
 70
     0
  9
$GRIDUNIT
 10
0.000000
 20
0.000000
  9
$ORTHOMODE
 70
     0
  9
$REGENMODE
 70
     1
  9
$FILLMODE
 70
     1
  9
$QTEXTMODE
 70
     0
  9
$DRAGMODE
 70
     2
  9
$LTSCALE
 40
2.500000
  9
$OSMODE
 70
     0
  9
$ATTMODE
 70
     1
  9
$TEXTSIZE
 40
34.000000
  9
$TRACEWID
 40
0.050000
  9
$TEXTSTYLE
  7
STANDARD
  9
$CLAYER
  8
0
  9
$CELTYPE
  6
BYLAYER
  9
$CECOLOR
 62
   256
  9
$DIMSCALE
 40
1.000000
  9
$DIMASZ
 40
1.000000
  9
$DIMEXO
 40
0.000000
  9
$DIMDLI
 40
0.500000
  9
$DIMRND
 40
0.000000
  9
$DIMDLE
 40
0.000000
  9
$DIMEXE
 40
0.000000
  9
$DIMTP
 40
0.000000
  9
$DIMTM
 40
0.000000
  9
$DIMTXT
 40
4.000000
  9
$DIMCEN
 40
0.000000
  9
$DIMTSZ
 40
0.000000
  9
$DIMTOL
 70
     0
  9
$DIMLIM
 70
     0
  9
$DIMTIH
 70
     1
  9
$DIMTOH
 70
     1
  9
$DIMSE1
 70
     0
  9
$DIMSE2
 70
     0
  9
$DIMTAD
 70
     0
  9
$DIMZIN
 70
     0
  9
$DIMBLK
  1

  9
$DIMASO
 70
     0
  9
$DIMSHO
 70
     0
  9
$DIMPOST
  1

  9
$DIMAPOST
  1

  9
$DIMALT
 70
     0
  9
$DIMALTD
 70
     0
  9
$DIMALTF
 40
25.400000
  9
$DIMLFAC
 40
1.000000
  9
$DIMTOFL
 70
     0
  9
$DIMTVP
 40
0.000000
  9
$DIMTIX
 70
     0
  9
$DIMSOXD
 70
     0
  9
$DIMSAH
 70
     0
  9
$DIMBLKL
  1

  9
$DIMBLKR
  1

  9
$LUNITS
 70
     2
  9
$LUPREC
 70
     2
  9
$AXISMODE
 70
     0
  9
$AXISUNIT
 10
1.000000
 20
1.000000
  9
$SKETCHINC
 40
0.000000
  9
$FILLETRAD
 40
0.000000
  9
$AUNITS
 70
     1
  9
$AUPREC
 70
     2
  9
$MENU
  1
ACAD
  9
$ELEVATION
 40
0.000000
  9
$THICKNESS
 40
0.000000
  9
$VIEWDIR
 10
0.000000
 20
0.000000
 30
1.000000
  9
$LIMCHECK
 70
     1
  9
$BLIPMODE
 70
     1
  9
$CHAMFERA
 40
0.000000
  9
$CHAMFERB
 40
0.000000
  9
$FASTZOOM
 70
     1
  9
$SKPOLY
 70
     0
  9
$TDCREATE
 40
0.000000
  9
$TDUPDATE
 40
0.000000
  9
$TDINDWG
 40
0.000000
  9
$TDUSRTIMER
 40
0.000000
  9
$USRTIMER
 70
     1
  9
$ANGBASE
 50
0.000000
  9
$ANGDIR
 70
     0
  9
$PDMODE
 70
     0
  9
$PDSIZE
 40
0.000000
  9
$PLINEWID
 40
0.000000
  9
$COORDS
 70
     2
  9
$USERI1
 70
     0
  9
$USERI2
 70
     0
  9
$USERI3
 70
     0
  9
$USERI4
 70
     0
  9
$USERI5
 70
     0
  9
$USERR1
 40
0.000000
  9
$USERR2
 40
0.000000
  9
$USERR3
 40
0.000000
  9
$USERR4
 40
0.000000
  9
$USERR5
 40
0.000000
  0
ENDSEC
  0
SECTION
  2
TABLES
  0
TABLE
  2
LTYPE
 70
     5
  0
LTYPE
  2
CONTINUOUS
 70
    64
  3
Solid line
 72
    65
 73
     0
 40
0.0
  0
LTYPE
  2
HIDDEN
 70
    64
  3
------------------------
 72
    65
 73
     2
 40
12.6
 49
8.4
 49
-4.2
  0
LTYPE
  2
DOT
 70
    64
  3
¥¥¥¥¥¥¥¥¥¥¥¥¥¥¥¥¥¥¥¥¥¥¥¥
 72
    65
 73
     2
 40
8.0
 49
6.0
 49
-2.0
  0
LTYPE
  2
DASHDOT
 70
    64
  3
--¥--¥--¥--¥--¥--¥--¥--
 72
    65
 73
     4
 40
50.5
 49
30.0
 49
-9.0
 49
2.5
 49
-9.0
  0
LTYPE
  2
DIVIDE
 70
    64
  3
--¥¥--¥¥--¥¥--¥¥--¥¥--
 72
    65
 73
     6
 40
58.0
 49
30.0
 49
-9.0
 49
2.5
 49
-5.0
 49
2.5
 49
-9.0
  0
LTYPE
  2
ACAD_ISO06W100
 70
    64
  3
____ ... ____ ... ____
 72
    65
 73
     8
 40
37.5
 49
24.0
 49
-3.0
 49
0.5
 49
-3.0
 49
0.5
 49
-3.0
 49
0.5
 49
-3.0
  0
LTYPE
  2
ACAD_ISO14W100
 70
    64
  3
__ . . . __ . . . __ . . . 
 72
    65
 73
     8
 40
25.5
 49
12.0
 49
-3.0
 49
0.5
 49
-3.0
 49
0.5
 49
-3.0
 49
0.5
 49
-3.0
  0
ENDTAB
  0
TABLE
  2
LAYER
 70
1
  0
LAYER
  2
1
 70
64
 62
7
  6
CONTINUOUS
  0
ENDTAB
  0
TABLE
  2
STYLE
 70
     2
  0
STYLE
  2
STANDARD
 70
    64
 40
0.0
 41
1.0
 50
0.0
 71
     0
 42
0.2
  3
TXT
  4

  0
STYLE
  2
KANJI
 70
    64
 40
0.0
 41
1.0
 50
0.0
 71
     0
 42
0.2
  3
TXT
  4
BIGFONT
  0
ENDTAB
  0
TABLE
  2
VIEW
 70
     0
  0
ENDTAB
  0
ENDSEC
  0
SECTION
  2
BLOCKS
  0
BLOCK
  8
1
 62
7
  6
CONTINUOUS
  2
*D1
 70
    65
 10
0.0
 20
0.0
  0
LINE
  8
1
 62
7
  6
CONTINUOUS
 10
738.024286
 20
647.351714
 11
652.024286
 21
647.351714
  0
LINE
  8
1
 62
7
  6
CONTINUOUS
 10
738.024286
 20
667.351714
 11
738.024286
 21
588.714286
  0
LINE
  8
1
 62
7
  6
CONTINUOUS
 10
652.024286
 20
667.351714
 11
652.024286
 21
588.714286
  0
LINE
  8
1
 62
7
  6
CONTINUOUS
 10
738.024286
 20
647.351714
 11
718.705769
 21
642.175333
  0
LINE
  8
1
 62
7
  6
CONTINUOUS
 10
738.024286
 20
647.351714
 11
718.705769
 21
652.528095
  0
LINE
  8
1
 62
7
  6
CONTINUOUS
 10
652.024286
 20
647.351714
 11
671.342803
 21
652.528095
  0
LINE
  8
1
 62
7
  6
CONTINUOUS
 10
652.024286
 20
647.351714
 11
671.342803
 21
642.175333
  0
TEXT
  8
1
 62
7
  6
CONTINUOUS
 10
656.454857
 20
612.066000
 40
40.000000
 41
0.625000
  1
ƒÓ86
  7
KANJI
 50
0.000000
 51
30.000000
  0
ENDBLK
  0
BLOCK
  8
1
 62
7
  6
CONTINUOUS
  2
*D2
 70
    65
 10
0.0
 20
0.0
  0
LINE
  8
1
 62
7
  6
CONTINUOUS
 10
807.024286
 20
675.292857
 11
583.024286
 21
675.292857
  0
LINE
  8
1
 62
7
  6
CONTINUOUS
 10
807.024286
 20
695.292857
 11
807.024286
 21
467.714286
  0
LINE
  8
1
 62
7
  6
CONTINUOUS
 10
583.024286
 20
695.292857
 11
583.024286
 21
467.714286
  0
LINE
  8
1
 62
7
  6
CONTINUOUS
 10
807.024286
 20
675.292857
 11
787.705769
 21
670.116476
  0
LINE
  8
1
 62
7
  6
CONTINUOUS
 10
807.024286
 20
675.292857
 11
787.705769
 21
680.469238
  0
LINE
  8
1
 62
7
  6
CONTINUOUS
 10
583.024286
 20
675.292857
 11
602.342803
 21
680.469238
  0
LINE
  8
1
 62
7
  6
CONTINUOUS
 10
583.024286
 20
675.292857
 11
602.342803
 21
670.116476
  0
TEXT
  8
1
 62
7
  6
CONTINUOUS
 10
640.521714
 20
640.007143
 40
40.000000
 41
0.595238
  1
ƒÓ224
  7
KANJI
 50
0.000000
 51
30.000000
  0
ENDBLK
  0
BLOCK
  8
1
 62
7
  6
CONTINUOUS
  2
*D3
 70
    65
 10
0.0
 20
0.0
  0
LINE
  8
1
 62
7
  6
CONTINUOUS
 10
482.936571
 20
153.160000
 11
132.936571
 21
153.160000
  0
LINE
  8
1
 62
7
  6
CONTINUOUS
 10
482.936571
 20
133.160000
 11
482.936571
 21
138.285714
  0
LINE
  8
1
 62
7
  6
CONTINUOUS
 10
132.936571
 20
133.160000
 11
132.936571
 21
138.285714
  0
LINE
  8
1
 62
7
  6
CONTINUOUS
 10
482.936571
 20
153.160000
 11
463.618054
 21
147.983619
  0
LINE
  8
1
 62
7
  6
CONTINUOUS
 10
482.936571
 20
153.160000
 11
463.618054
 21
158.336381
  0
LINE
  8
1
 62
7
  6
CONTINUOUS
 10
132.936571
 20
153.160000
 11
152.255088
 21
158.336381
  0
LINE
  8
1
 62
7
  6
CONTINUOUS
 10
132.936571
 20
153.160000
 11
152.255088
 21
147.983619
  0
TEXT
  8
1
 62
7
  6
CONTINUOUS
 10
278.561429
 20
117.874286
 40
40.000000
 41
0.500000
  1
350
  7
KANJI
 50
0.000000
 51
30.000000
  0
ENDBLK
  0
BLOCK
  8
1
 62
7
  6
CONTINUOUS
  2
*D4
 70
    65
 10
0.0
 20
0.0
  0
LINE
  8
1
 62
7
  6
CONTINUOUS
 10
401.236571
 20
670.634857
 11
307.936571
 21
670.634857
  0
LINE
  8
1
 62
7
  6
CONTINUOUS
 10
401.236571
 20
690.634857
 11
401.236571
 21
560.214286
  0
LINE
  8
1
 62
7
  6
CONTINUOUS
 10
307.936571
 20
690.634857
 11
307.936571
 21
667.451714
  0
LINE
  8
1
 62
7
  6
CONTINUOUS
 10
401.236571
 20
670.634857
 11
381.918054
 21
665.458476
  0
LINE
  8
1
 62
7
  6
CONTINUOUS
 10
401.236571
 20
670.634857
 11
381.918054
 21
675.811238
  0
LINE
  8
1
 62
7
  6
CONTINUOUS
 10
307.936571
 20
670.634857
 11
327.255088
 21
675.811238
  0
LINE
  8
1
 62
7
  6
CONTINUOUS
 10
307.936571
 20
670.634857
 11
327.255088
 21
665.458476
  0
TEXT
  8
1
 62
7
  6
CONTINUOUS
 10
316.017143
 20
635.349143
 40
40.000000
 41
0.555556
  1
93.3
  7
KANJI
 50
0.000000
 51
30.000000
  0
ENDBLK
  0
BLOCK
  8
1
 62
7
  6
CONTINUOUS
  2
*D5
 70
    65
 10
0.0
 20
0.0
  0
LINE
  8
1
 62
7
  6
CONTINUOUS
 10
525.576857
 20
394.000000
 11
525.576857
 21
184.000000
  0
LINE
  8
1
 62
7
  6
CONTINUOUS
 10
545.576857
 20
394.000000
 11
528.650857
 21
394.000000
  0
LINE
  8
1
 62
7
  6
CONTINUOUS
 10
545.576857
 20
184.000000
 11
528.650857
 21
184.000000
  0
LINE
  8
1
 62
7
  6
CONTINUOUS
 10
525.576857
 20
394.000000
 11
530.753238
 21
374.681483
  0
LINE
  8
1
 62
7
  6
CONTINUOUS
 10
525.576857
 20
394.000000
 11
520.400476
 21
374.681483
  0
LINE
  8
1
 62
7
  6
CONTINUOUS
 10
525.576857
 20
184.000000
 11
520.400476
 21
203.318517
  0
LINE
  8
1
 62
7
  6
CONTINUOUS
 10
525.576857
 20
184.000000
 11
530.753238
 21
203.318517
  0
TEXT
  8
1
 62
7
  6
CONTINUOUS
 10
560.862571
 20
240.430571
 40
40.000000
 41
0.595238
  1
ƒÓ210
  7
KANJI
 50
90.000000
 51
30.000000
  0
ENDBLK
  0
ENDSEC
  0
SECTION
  2
ENTITIES
  0
CIRCLE
  8
1
 62
7
  6
CONTINUOUS
 10
398.532719
 20
1014.181177
 40
5.000000
  0
CIRCLE
  8
1
 62
7
  6
CONTINUOUS
 10
398.532719
 20
1014.181177
 40
2.500000
  0
LINE
  8
1
 62
7
  6
CONTINUOUS
 10
346.772288
 20
1135.501932
 11
345.617587
 21
1133.501932
  0
LINE
  8
1
 62
7
  6
CONTINUOUS
 10
345.617587
 20
1133.501932
 11
346.772288
 21
1131.501932
  0
LINE
  8
1
 62
7
  6
CONTINUOUS
 10
346.772288
 20
1131.501932
 11
349.081689
 21
1131.501932
  0
LINE
  8
1
 62
7
  6
CONTINUOUS
 10
349.081689
 20
1131.501932
 11
350.236390
 21
1133.501932
  0
LINE
  8
1
 62
7
  6
CONTINUOUS
 10
350.236390
 20
1133.501932
 11
349.081689
 21
1135.501932
  0
LINE
  8
1
 62
7
  6
CONTINUOUS
 10
349.081689
 20
1135.501932
 11
346.772288
 21
1135.501932
  0
LINE
  8
1
 62
7
  6
CONTINUOUS
 10
266.791453
 20
942.411112
 11
265.636752
 21
940.411112
  0
LINE
  8
1
 62
7
  6
CONTINUOUS
 10
265.636752
 20
940.411112
 11
266.791453
 21
938.411112
  0
LINE
  8
1
 62
7
  6
CONTINUOUS
 10
266.791453
 20
938.411112
 11
269.100854
 21
938.411112
  0
LINE
  8
1
 62
7
  6
CONTINUOUS
 10
269.100854
 20
938.411112
 11
270.255555
 21
940.411112
  0
LINE
  8
1
 62
7
  6
CONTINUOUS
 10
270.255555
 20
940.411112
 11
269.100854
 21
942.411112
  0
LINE
  8
1
 62
7
  6
CONTINUOUS
 10
269.100854
 20
942.411112
 11
266.791453
 21
942.411112
  0
CIRCLE
  8
1
 62
7
  6
CONTINUOUS
 10
307.936571
 20
1141.456522
 40
6.500000
  0
LINE
  8
1
 62
7
  6
CONTINUOUS
 10
305.627170
 20
1145.456522
 11
303.317769
 21
1141.456522
  0
LINE
  8
1
 62
7
  6
CONTINUOUS
 10
303.317769
 20
1141.456522
 11
305.627170
 21
1137.456522
  0
LINE
  8
1
 62
7
  6
CONTINUOUS
 10
305.627170
 20
1137.456522
 11
310.245972
 21
1137.456522
  0
LINE
  8
1
 62
7
  6
CONTINUOUS
 10
310.245972
 20
1137.456522
 11
312.555373
 21
1141.456522
  0
LINE
  8
1
 62
7
  6
CONTINUOUS
 10
312.555373
 20
1141.456522
 11
310.245972
 21
1145.456522
  0
LINE
  8
1
 62
7
  6
CONTINUOUS
 10
310.245972
 20
1145.456522
 11
305.627170
 21
1145.456522
  0
CIRCLE
  8
1
 62
7
  6
CONTINUOUS
 10
234.280085
 20
1111.084600
 40
6.500000
  0
LINE
  8
1
 62
7
  6
CONTINUOUS
 10
231.970684
 20
1115.084600
 11
229.661283
 21
1111.084600
  0
LINE
  8
1
 62
7
  6
CONTINUOUS
 10
229.661283
 20
1111.084600
 11
231.970684
 21
1107.084600
  0
LINE
  8
1
 62
7
  6
CONTINUOUS
 10
231.970684
 20
1107.084600
 11
236.589486
 21
1107.084600
  0
LINE
  8
1
 62
7
  6
CONTINUOUS
 10
236.589486
 20
1107.084600
 11
238.898887
 21
1111.084600
  0
LINE
  8
1
 62
7
  6
CONTINUOUS
 10
238.898887
 20
1111.084600
 11
236.589486
 21
1115.084600
  0
LINE
  8
1
 62
7
  6
CONTINUOUS
 10
236.589486
 20
1115.084600
 11
231.970684
 21
1115.084600
  0
CIRCLE
  8
1
 62
7
  6
CONTINUOUS
 10
203.436571
 20
1036.956522
 40
6.500000
  0
LINE
  8
1
 62
7
  6
CONTINUOUS
 10
201.127170
 20
1040.956522
 11
198.817769
 21
1036.956522
  0
LINE
  8
1
 62
7
  6
CONTINUOUS
 10
198.817769
 20
1036.956522
 11
201.127170
 21
1032.956522
  0
LINE
  8
1
 62
7
  6
CONTINUOUS
 10
201.127170
 20
1032.956522
 11
205.745972
 21
1032.956522
  0
LINE
  8
1
 62
7
  6
CONTINUOUS
 10
205.745972
 20
1032.956522
 11
208.055373
 21
1036.956522
  0
LINE
  8
1
 62
7
  6
CONTINUOUS
 10
208.055373
 20
1036.956522
 11
205.745972
 21
1040.956522
  0
LINE
  8
1
 62
7
  6
CONTINUOUS
 10
205.745972
 20
1040.956522
 11
201.127170
 21
1040.956522
  0
CIRCLE
  8
1
 62
7
  6
CONTINUOUS
 10
234.043909
 20
963.063860
 40
6.500000
  0
LINE
  8
1
 62
7
  6
CONTINUOUS
 10
231.734508
 20
967.063860
 11
229.425107
 21
963.063860
  0
LINE
  8
1
 62
7
  6
CONTINUOUS
 10
229.425107
 20
963.063860
 11
231.734508
 21
959.063860
  0
LINE
  8
1
 62
7
  6
CONTINUOUS
 10
231.734508
 20
959.063860
 11
236.353310
 21
959.063860
  0
LINE
  8
1
 62
7
  6
CONTINUOUS
 10
236.353310
 20
959.063860
 11
238.662711
 21
963.063860
  0
LINE
  8
1
 62
7
  6
CONTINUOUS
 10
238.662711
 20
963.063860
 11
236.353310
 21
967.063860
  0
LINE
  8
1
 62
7
  6
CONTINUOUS
 10
236.353310
 20
967.063860
 11
231.734508
 21
967.063860
  0
CIRCLE
  8
1
 62
7
  6
CONTINUOUS
 10
307.936571
 20
932.456522
 40
6.500000
  0
LINE
  8
1
 62
7
  6
CONTINUOUS
 10
305.627170
 20
936.456522
 11
303.317769
 21
932.456522
  0
LINE
  8
1
 62
7
  6
CONTINUOUS
 10
303.317769
 20
932.456522
 11
305.627170
 21
928.456522
  0
LINE
  8
1
 62
7
  6
CONTINUOUS
 10
305.627170
 20
928.456522
 11
310.245972
 21
928.456522
  0
LINE
  8
1
 62
7
  6
CONTINUOUS
 10
310.245972
 20
928.456522
 11
312.555373
 21
932.456522
  0
LINE
  8
1
 62
7
  6
CONTINUOUS
 10
312.555373
 20
932.456522
 11
310.245972
 21
936.456522
  0
LINE
  8
1
 62
7
  6
CONTINUOUS
 10
310.245972
 20
936.456522
 11
305.627170
 21
936.456522
  0
CIRCLE
  8
1
 62
7
  6
CONTINUOUS
 10
381.829233
 20
963.063860
 40
6.500000
  0
LINE
  8
1
 62
7
  6
CONTINUOUS
 10
379.519832
 20
967.063860
 11
377.210431
 21
963.063860
  0
LINE
  8
1
 62
7
  6
CONTINUOUS
 10
377.210431
 20
963.063860
 11
379.519832
 21
959.063860
  0
LINE
  8
1
 62
7
  6
CONTINUOUS
 10
379.519832
 20
959.063860
 11
384.138634
 21
959.063860
  0
LINE
  8
1
 62
7
  6
CONTINUOUS
 10
384.138634
 20
959.063860
 11
386.448035
 21
963.063860
  0
LINE
  8
1
 62
7
  6
CONTINUOUS
 10
386.448035
 20
963.063860
 11
384.138634
 21
967.063860
  0
LINE
  8
1
 62
7
  6
CONTINUOUS
 10
384.138634
 20
967.063860
 11
379.519832
 21
967.063860
  0
CIRCLE
  8
1
 62
7
  6
CONTINUOUS
 10
412.436571
 20
1036.956522
 40
6.500000
  0
LINE
  8
1
 62
7
  6
CONTINUOUS
 10
410.127170
 20
1040.956522
 11
407.817769
 21
1036.956522
  0
LINE
  8
1
 62
7
  6
CONTINUOUS
 10
407.817769
 20
1036.956522
 11
410.127170
 21
1032.956522
  0
LINE
  8
1
 62
7
  6
CONTINUOUS
 10
410.127170
 20
1032.956522
 11
414.745972
 21
1032.956522
  0
LINE
  8
1
 62
7
  6
CONTINUOUS
 10
414.745972
 20
1032.956522
 11
417.055373
 21
1036.956522
  0
LINE
  8
1
 62
7
  6
CONTINUOUS
 10
417.055373
 20
1036.956522
 11
414.745972
 21
1040.956522
  0
LINE
  8
1
 62
7
  6
CONTINUOUS
 10
414.745972
 20
1040.956522
 11
410.127170
 21
1040.956522
  0
CIRCLE
  8
1
 62
7
  6
CONTINUOUS
 10
381.829233
 20
1110.849184
 40
6.500000
  0
LINE
  8
1
 62
7
  6
CONTINUOUS
 10
379.519832
 20
1114.849184
 11
377.210431
 21
1110.849184
  0
LINE
  8
1
 62
7
  6
CONTINUOUS
 10
377.210431
 20
1110.849184
 11
379.519832
 21
1106.849184
  0
LINE
  8
1
 62
7
  6
CONTINUOUS
 10
379.519832
 20
1106.849184
 11
384.138634
 21
1106.849184
  0
LINE
  8
1
 62
7
  6
CONTINUOUS
 10
384.138634
 20
1106.849184
 11
386.448035
 21
1110.849184
  0
LINE
  8
1
 62
7
  6
CONTINUOUS
 10
386.448035
 20
1110.849184
 11
384.138634
 21
1114.849184
  0
LINE
  8
1
 62
7
  6
CONTINUOUS
 10
384.138634
 20
1114.849184
 11
379.519832
 21
1114.849184
  0
ARC
  8
1
 62
7
  6
CONTINUOUS
 10
307.936571
 20
1036.956522
 40
94.500000
 50
-14.953047
 51
0.000003
  0
ARC
  8
1
 62
7
  6
CONTINUOUS
 10
307.936571
 20
1036.956522
 40
94.500000
 50
23.445937
 51
90.000000
  0
ARC
  8
1
 62
7
  6
CONTINUOUS
 10
307.936571
 20
1036.956522
 40
112.000000
 50
-0.000002
 51
90.000000
  0
ARC
  8
1
 62
7
  6
CONTINUOUS
 10
307.936571
 20
1036.956522
 40
111.000000
 50
-0.000002
 51
90.000000
  0
ARC
  8
1
 62
7
  6
CONTINUOUS
 10
307.936571
 20
1036.956522
 40
94.500000
 50
-0.000002
 51
14.953047
  0
ARC
  8
1
 62
7
  6
CONTINUOUS
 10
307.936571
 20
1036.956522
 40
73.715393
 50
42.709724
 51
90.000000
  0
LINE
  8
1
 62
7
  6
DASHDOT
 10
307.936571
 20
1033.815528
 11
307.936571
 21
1151.956522
  0
LINE
  8
1
 62
7
  6
DASHDOT
 10
307.936571
 20
1033.815528
 11
307.936571
 21
1151.956522
  0
ARC
  8
1
 62
7
  6
CONTINUOUS
 10
307.936571
 20
1036.956522
 40
73.715393
 50
90.000000
 51
-179.999997
  0
ARC
  8
1
 62
7
  6
CONTINUOUS
 10
307.936571
 20
1036.956522
 40
94.500000
 50
90.000000
 51
-179.999997
  0
ARC
  8
1
 62
7
  6
CONTINUOUS
 10
307.936571
 20
1036.956522
 40
111.000000
 50
90.000000
 51
-179.999997
  0
ARC
  8
1
 62
7
  6
CONTINUOUS
 10
307.936571
 20
1036.956522
 40
112.000000
 50
90.000000
 51
-179.999997
  0
LINE
  8
1
 62
7
  6
DASHDOT
 10
307.936571
 20
1040.097516
 11
307.936571
 21
921.956522
  0
ARC
  8
1
 62
7
  6
CONTINUOUS
 10
203.436571
 20
1036.956522
 40
4.500000
 50
179.999998
 51
0.000003
  0
LINE
  8
1
 62
7
  6
DASHDOT
 10
307.936571
 20
1040.097516
 11
307.936571
 21
921.956522
  0
LINE
  8
1
 62
7
  6
DASHDOT
 10
303.821545
 20
1036.956522
 11
492.454921
 21
1036.956522
  0
ARC
  8
1
 62
7
  6
CONTINUOUS
 10
307.936571
 20
1036.956522
 40
73.715393
 50
-90.000000
 51
-30.420308
  0
ARC
  8
1
 62
7
  6
CONTINUOUS
 10
307.936571
 20
1036.956522
 40
94.500000
 50
-90.000000
 51
-23.445937
  0
ARC
  8
1
 62
7
  6
CONTINUOUS
 10
307.936571
 20
1036.956522
 40
111.000000
 50
-90.000000
 51
0.000003
  0
ARC
  8
1
 62
7
  6
CONTINUOUS
 10
307.936571
 20
1036.956522
 40
112.000000
 50
-90.000000
 51
0.000003
  0
LINE
  8
1
 62
7
  6
DASHDOT
 10
312.051597
 20
1036.956522
 11
122.736319
 21
1036.956522
  0
ARC
  8
1
 62
7
  6
CONTINUOUS
 10
307.936571
 20
1036.956522
 40
112.000000
 50
179.999998
 51
-90.000000
  0
ARC
  8
1
 62
7
  6
CONTINUOUS
 10
307.936571
 20
1036.956522
 40
111.000000
 50
179.999998
 51
-90.000000
  0
ARC
  8
1
 62
7
  6
CONTINUOUS
 10
307.936571
 20
1036.956522
 40
94.500000
 50
179.999998
 51
-90.000000
  0
ARC
  8
1
 62
7
  6
CONTINUOUS
 10
307.936571
 20
1036.956522
 40
73.715393
 50
179.999998
 51
-90.000000
  0
CIRCLE
  8
1
 62
7
  6
CONTINUOUS
 10
267.946154
 20
940.411112
 40
4.000000
  0
CIRCLE
  8
1
 62
7
  6
CONTINUOUS
 10
267.946154
 20
940.411112
 40
3.323500
  0
CIRCLE
  8
1
 62
7
  6
CONTINUOUS
 10
347.926988
 20
1133.501932
 40
4.000000
  0
CIRCLE
  8
1
 62
7
  6
CONTINUOUS
 10
347.926988
 20
1133.501932
 40
3.323500
  0
ARC
  8
1
 62
7
  6
CONTINUOUS
 10
264.948202
 20
1048.456522
 40
1.500000
 50
-89.999998
 51
-14.976742
  0
ARC
  8
1
 62
7
  6
CONTINUOUS
 10
263.777765
 20
1042.456522
 40
1.500000
 50
-7.099662
 51
90.000001
  0
LINE
  8
1
 62
7
  6
CONTINUOUS
 10
256.603239
 20
1039.265923
 11
259.269903
 21
1039.265923
  0
LINE
  8
1
 62
7
  6
CONTINUOUS
 10
256.603239
 20
1034.647121
 11
259.269903
 21
1034.647121
  0
CIRCLE
  8
1
 62
7
  6
CONTINUOUS
 10
257.936571
 20
1036.956522
 40
2.309401
  0
LINE
  8
1
 62
7
  6
CONTINUOUS
 10
259.269903
 20
1039.265923
 11
260.603239
 21
1036.956522
  0
LINE
  8
1
 62
7
  6
CONTINUOUS
 10
260.603239
 20
1036.956522
 11
259.269903
 21
1034.647121
  0
ARC
  8
1
 62
7
  6
CONTINUOUS
 10
263.777765
 20
1031.456522
 40
1.500000
 50
-89.999998
 51
7.099672
  0
ARC
  8
1
 62
7
  6
CONTINUOUS
 10
264.948202
 20
1025.456522
 40
1.500000
 50
14.976742
 51
89.999997
  0
ARC
  8
1
 62
7
  6
CONTINUOUS
 10
252.079611
 20
1045.456522
 40
1.500000
 50
171.347430
 51
-89.999998
  0
ARC
  8
1
 62
7
  6
CONTINUOUS
 10
252.079611
 20
1028.456522
 40
1.500000
 50
-171.347430
 51
-89.999998
  0
ARC
  8
1
 62
7
  6
CONTINUOUS
 10
252.079611
 20
1028.456522
 40
1.500000
 50
89.999997
 51
-171.347430
  0
LINE
  8
1
 62
7
  6
CONTINUOUS
 10
252.079611
 20
1043.956522
 11
263.777765
 21
1043.956522
  0
LINE
  8
1
 62
7
  6
CONTINUOUS
 10
252.079611
 20
1029.956522
 11
263.777765
 21
1029.956522
  0
LINE
  8
1
 62
7
  6
CONTINUOUS
 10
252.079611
 20
1026.956522
 11
264.948202
 21
1026.956522
  0
CIRCLE
  8
1
 62
7
  6
CONTINUOUS
 10
257.936571
 20
1036.956522
 40
4.250000
  0
LINE
  8
1
 62
7
  6
CONTINUOUS
 10
255.269903
 20
1036.956522
 11
256.603239
 21
1039.265923
  0
LINE
  8
1
 62
7
  6
CONTINUOUS
 10
255.269903
 20
1036.956522
 11
256.603239
 21
1034.647121
  0
LINE
  8
1
 62
7
  6
CONTINUOUS
 10
252.079611
 20
1046.956522
 11
264.948202
 21
1046.956522
  0
LINE
  8
1
 62
7
  6
CONTINUOUS
 10
399.236574
 20
1074.556520
 11
387.086573
 21
1074.556520
  0
LINE
  8
1
 62
7
  6
CONTINUOUS
 10
399.236574
 20
1058.956522
 11
399.736574
 21
1058.956522
  0
ARC
  8
1
 62
7
  6
CONTINUOUS
 10
441.863069
 20
1067.456527
 40
49.126503
 50
-180.000000
 51
-171.818484
  0
LINE
  8
1
 62
7
  6
CONTINUOUS
 10
399.236574
 20
1060.465353
 11
393.236574
 21
1060.465353
  0
LINE
  8
1
 62
7
  6
CONTINUOUS
 10
399.236574
 20
1058.988346
 11
393.236574
 21
1058.988346
  0
ARC
  8
1
 62
7
  6
CONTINUOUS
 10
399.736574
 20
1056.456522
 40
1.500000
 50
-89.999998
 51
90.000001
  0
LINE
  8
1
 62
7
  6
CONTINUOUS
 10
399.236574
 20
1014.956522
 11
399.736574
 21
1014.956522
  0
ARC
  8
1
 62
7
  6
CONTINUOUS
 10
399.736574
 20
1017.456522
 40
1.500000
 50
-89.999998
 51
90.000001
  0
LINE
  8
1
 62
7
  6
CONTINUOUS
 10
399.236574
 20
1013.447691
 11
393.236574
 21
1013.447691
  0
LINE
  8
1
 62
7
  6
CONTINUOUS
 10
399.236574
 20
1014.924698
 11
393.236574
 21
1014.924698
  0
ARC
  8
1
 62
7
  6
CONTINUOUS
 10
441.863069
 20
1006.456516
 40
49.126503
 50
171.818484
 51
-180.000000
  0
LINE
  8
1
 62
7
  6
CONTINUOUS
 10
392.736574
 20
1036.956522
 11
392.736574
 21
1006.456522
  0
LINE
  8
1
 62
7
  6
CONTINUOUS
 10
393.236574
 20
1036.956522
 11
393.236574
 21
1013.447691
  0
LINE
  8
1
 62
7
  6
CONTINUOUS
 10
399.736574
 20
1058.956522
 11
399.736574
 21
1014.956522
  0
LINE
  8
1
 62
7
  6
CONTINUOUS
 10
393.236574
 20
1036.956522
 11
393.236574
 21
1060.465353
  0
LINE
  8
1
 62
7
  6
CONTINUOUS
 10
392.736574
 20
1036.956522
 11
392.736574
 21
1067.456522
  0
LINE
  8
1
 62
7
  6
CONTINUOUS
 10
386.086573
 20
1074.538873
 11
386.086573
 21
1086.956522
  0
LINE
  8
1
 62
7
  6
CONTINUOUS
 10
358.086573
 20
1074.044756
 11
358.086573
 21
1086.956522
  0
LINE
  8
1
 62
7
  6
CONTINUOUS
 10
358.086573
 20
1086.956522
 11
386.086573
 21
1086.956522
  0
ARC
  8
1
 62
7
  6
CONTINUOUS
 10
343.226267
 20
1081.080068
 40
1.500000
 50
51.347431
 51
149.999999
  0
LINE
  8
1
 62
7
  6
CONTINUOUS
 10
348.936571
 20
1073.956522
 11
353.086573
 21
1073.956522
  0
ARC
  8
1
 62
7
  6
CONTINUOUS
 10
341.134210
 20
1071.456522
 40
1.500000
 50
149.999999
 51
-89.999998
  0
LINE
  8
1
 62
7
  6
CONTINUOUS
 10
344.525305
 20
1080.330068
 11
339.835173
 21
1072.206522
  0
ARC
  8
1
 62
7
  6
CONTINUOUS
 10
343.226267
 20
1081.080068
 40
1.500000
 50
-30.000003
 51
51.347441
  0
LINE
  8
1
 62
7
  6
CONTINUOUS
 10
334.269905
 20
1082.567194
 11
331.603237
 21
1082.567194
  0
ARC
  8
1
 62
7
  6
CONTINUOUS
 10
328.503836
 20
1089.580068
 40
1.500000
 50
68.652569
 51
149.999999
  0
ARC
  8
1
 62
7
  6
CONTINUOUS
 10
328.503836
 20
1089.580068
 40
1.500000
 50
-30.000003
 51
68.652572
  0
LINE
  8
1
 62
7
  6
CONTINUOUS
 10
335.603237
 20
1080.257791
 11
334.269905
 21
1077.948393
  0
LINE
  8
1
 62
7
  6
CONTINUOUS
 10
331.603237
 20
1077.948393
 11
330.269905
 21
1080.257791
  0
LINE
  8
1
 62
7
  6
CONTINUOUS
 10
334.269905
 20
1077.948393
 11
331.603237
 21
1077.948393
  0
ARC
  8
1
 62
7
  6
CONTINUOUS
 10
334.779114
 20
1072.449167
 40
1.500000
 50
-127.099662
 51
-30.000003
  0
ARC
  8
1
 62
7
  6
CONTINUOUS
 10
325.252834
 20
1077.949167
 40
1.500000
 50
149.999999
 51
-112.900338
  0
CIRCLE
  8
1
 62
7
  6
CONTINUOUS
 10
332.936571
 20
1080.257791
 40
2.309401
  0
CIRCLE
  8
1
 62
7
  6
CONTINUOUS
 10
332.936571
 20
1080.257791
 40
4.250000
  0
LINE
  8
1
 62
7
  6
CONTINUOUS
 10
334.269905
 20
1082.567194
 11
335.603237
 21
1080.257791
  0
LINE
  8
1
 62
7
  6
CONTINUOUS
 10
329.802874
 20
1088.830068
 11
323.953796
 21
1078.699167
  0
LINE
  8
1
 62
7
  6
CONTINUOUS
 10
331.603237
 20
1082.567194
 11
330.269905
 21
1080.257791
  0
LINE
  8
1
 62
7
  6
CONTINUOUS
 10
341.927229
 20
1081.830068
 11
336.078152
 21
1071.699167
  0
LINE
  8
1
 62
7
  6
CONTINUOUS
 10
335.504669
 20
1069.956522
 11
348.936571
 21
1069.956522
  0
LINE
  8
1
 62
7
  6
CONTINUOUS
 10
348.936571
 20
1049.918003
 11
348.936571
 21
1073.956522
  0
LINE
  8
1
 62
7
  6
CONTINUOUS
 10
348.936571
 20
999.956522
 11
353.086573
 21
999.956522
  0
ARC
  8
1
 62
7
  6
CONTINUOUS
 10
341.134210
 20
1002.456522
 40
1.500000
 50
89.999997
 51
-149.999999
  0
ARC
  8
1
 62
7
  6
CONTINUOUS
 10
334.779114
 20
1001.463876
 40
1.500000
 50
30.000003
 51
127.099656
  0
LINE
  8
1
 62
7
  6
CONTINUOUS
 10
335.504669
 20
1003.956522
 11
348.936571
 21
1003.956522
  0
LINE
  8
1
 62
7
  6
CONTINUOUS
 10
348.936571
 20
999.956522
 11
348.936571
 21
1023.995041
  0
LINE
  8
1
 62
7
  6
CONTINUOUS
 10
353.086573
 20
999.956522
 11
353.086573
 21
1073.956522
  0
LINE
  8
1
 62
7
  6
CONTINUOUS
 10
351.936571
 20
999.956522
 11
351.936571
 21
1073.956522
  0
ARC
  8
1
 62
7
  6
CONTINUOUS
 10
319.471464
 20
1079.935541
 40
1.500000
 50
-105.023265
 51
-30.000003
  0
LINE
  8
1
 62
7
  6
CONTINUOUS
 10
281.603237
 20
1082.567194
 11
284.269905
 21
1082.567194
  0
LINE
  8
1
 62
7
  6
CONTINUOUS
 10
285.603237
 20
1080.257791
 11
284.269905
 21
1077.948393
  0
LINE
  8
1
 62
7
  6
CONTINUOUS
 10
280.269905
 20
1080.257791
 11
281.603237
 21
1077.948393
  0
LINE
  8
1
 62
7
  6
CONTINUOUS
 10
284.269905
 20
1077.948393
 11
281.603237
 21
1077.948393
  0
CIRCLE
  8
1
 62
7
  6
CONTINUOUS
 10
282.936571
 20
1080.257791
 40
4.250000
  0
LINE
  8
1
 62
7
  6
CONTINUOUS
 10
284.269905
 20
1082.567194
 11
285.603237
 21
1080.257791
  0
CIRCLE
  8
1
 62
7
  6
CONTINUOUS
 10
282.936571
 20
1080.257791
 40
2.309401
  0
LINE
  8
1
 62
7
  6
CONTINUOUS
 10
281.603237
 20
1082.567194
 11
280.269905
 21
1080.257791
  0
LINE
  8
1
 62
7
  6
CONTINUOUS
 10
313.369009
 20
1037.895633
 11
320.328769
 21
1040.428779
  0
LINE
  8
1
 62
7
  6
CONTINUOUS
 10
313.495258
 20
1037.781958
 11
320.328769
 21
1040.269152
  0
LINE
  8
1
 62
7
  6
CONTINUOUS
 10
313.621508
 20
1037.668282
 11
320.328769
 21
1040.109526
  0
LINE
  8
1
 62
7
  6
CONTINUOUS
 10
313.747757
 20
1037.554607
 11
320.328769
 21
1039.949899
  0
LINE
  8
1
 62
7
  6
CONTINUOUS
 10
313.874007
 20
1037.440931
 11
320.328769
 21
1039.790272
  0
LINE
  8
1
 62
7
  6
CONTINUOUS
 10
314.000256
 20
1037.327256
 11
320.328769
 21
1039.630646
  0
LINE
  8
1
 62
7
  6
CONTINUOUS
 10
314.126506
 20
1037.213580
 11
320.328769
 21
1039.471019
  0
LINE
  8
1
 62
7
  6
CONTINUOUS
 10
314.252756
 20
1037.099904
 11
320.328769
 21
1039.311392
  0
LINE
  8
1
 62
7
  6
CONTINUOUS
 10
314.379005
 20
1036.986229
 11
320.328769
 21
1039.151766
  0
LINE
  8
1
 62
7
  6
CONTINUOUS
 10
314.505255
 20
1036.872553
 11
320.328769
 21
1038.992139
  0
LINE
  8
1
 62
7
  6
CONTINUOUS
 10
314.631504
 20
1036.758878
 11
320.328769
 21
1038.832512
  0
LINE
  8
1
 62
7
  6
CONTINUOUS
 10
314.757754
 20
1036.645202
 11
320.328769
 21
1038.672886
  0
LINE
  8
1
 62
7
  6
CONTINUOUS
 10
314.884004
 20
1036.531526
 11
320.328769
 21
1038.513259
  0
LINE
  8
1
 62
7
  6
CONTINUOUS
 10
315.010253
 20
1036.417851
 11
320.328769
 21
1038.353632
  0
LINE
  8
1
 62
7
  6
CONTINUOUS
 10
315.136502
 20
1036.304175
 11
320.328769
 21
1038.194006
  0
LINE
  8
1
 62
7
  6
CONTINUOUS
 10
315.262752
 20
1036.190500
 11
320.328769
 21
1038.034379
  0
LINE
  8
1
 62
7
  6
CONTINUOUS
 10
315.389001
 20
1036.076824
 11
320.328769
 21
1037.874752
  0
LINE
  8
1
 62
7
  6
CONTINUOUS
 10
315.515251
 20
1035.963148
 11
320.328769
 21
1037.715126
  0
LINE
  8
1
 62
7
  6
CONTINUOUS
 10
315.641500
 20
1035.849473
 11
320.328769
 21
1037.555499
  0
LINE
  8
1
 62
7
  6
CONTINUOUS
 10
315.767750
 20
1035.735797
 11
320.328769
 21
1037.395872
  0
LINE
  8
1
 62
7
  6
CONTINUOUS
 10
315.893999
 20
1035.622122
 11
320.328769
 21
1037.236246
  0
LINE
  8
1
 62
7
  6
CONTINUOUS
 10
316.020249
 20
1035.508446
 11
320.328769
 21
1037.076619
  0
LINE
  8
1
 62
7
  6
CONTINUOUS
 10
316.146499
 20
1035.394770
 11
320.328769
 21
1036.916992
  0
LINE
  8
1
 62
7
  6
CONTINUOUS
 10
316.272748
 20
1035.281095
 11
320.328769
 21
1036.757366
  0
LINE
  8
1
 62
7
  6
CONTINUOUS
 10
316.398998
 20
1035.167419
 11
320.328769
 21
1036.597739
  0
LINE
  8
1
 62
7
  6
CONTINUOUS
 10
316.525247
 20
1035.053744
 11
320.328769
 21
1036.438112
  0
LINE
  8
1
 62
7
  6
CONTINUOUS
 10
316.651497
 20
1034.940068
 11
320.328769
 21
1036.278486
  0
LINE
  8
1
 62
7
  6
CONTINUOUS
 10
316.777746
 20
1034.826392
 11
320.328769
 21
1036.118859
  0
LINE
  8
1
 62
7
  6
CONTINUOUS
 10
316.903996
 20
1034.712717
 11
320.328769
 21
1035.959232
  0
LINE
  8
1
 62
7
  6
CONTINUOUS
 10
312.864011
 20
1038.350336
 11
320.328769
 21
1041.067286
  0
LINE
  8
1
 62
7
  6
CONTINUOUS
 10
312.990260
 20
1038.236660
 11
320.328769
 21
1040.907659
  0
LINE
  8
1
 62
7
  6
CONTINUOUS
 10
313.116510
 20
1038.122985
 11
320.328769
 21
1040.748032
  0
LINE
  8
1
 62
7
  6
CONTINUOUS
 10
313.242759
 20
1038.009309
 11
320.328769
 21
1040.588406
  0
LINE
  8
1
 62
7
  6
CONTINUOUS
 10
308.824026
 20
1041.987955
 11
320.328769
 21
1046.175339
  0
LINE
  8
1
 62
7
  6
CONTINUOUS
 10
308.950275
 20
1041.874279
 11
320.328769
 21
1046.015712
  0
LINE
  8
1
 62
7
  6
CONTINUOUS
 10
309.076525
 20
1041.760604
 11
320.328769
 21
1045.856086
  0
LINE
  8
1
 62
7
  6
CONTINUOUS
 10
309.202774
 20
1041.646928
 11
320.328769
 21
1045.696459
  0
LINE
  8
1
 62
7
  6
CONTINUOUS
 10
309.329024
 20
1041.533252
 11
320.328769
 21
1045.536833
  0
LINE
  8
1
 62
7
  6
CONTINUOUS
 10
309.455273
 20
1041.419577
 11
320.328769
 21
1045.377206
  0
LINE
  8
1
 62
7
  6
CONTINUOUS
 10
309.581523
 20
1041.305901
 11
320.328769
 21
1045.217579
  0
LINE
  8
1
 62
7
  6
CONTINUOUS
 10
309.707772
 20
1041.192226
 11
320.328769
 21
1045.057953
  0
LINE
  8
1
 62
7
  6
CONTINUOUS
 10
309.834022
 20
1041.078550
 11
320.328769
 21
1044.898326
  0
LINE
  8
1
 62
7
  6
CONTINUOUS
 10
309.960271
 20
1040.964874
 11
320.328769
 21
1044.738699
  0
LINE
  8
1
 62
7
  6
CONTINUOUS
 10
310.086521
 20
1040.851199
 11
320.328769
 21
1044.579072
  0
LINE
  8
1
 62
7
  6
CONTINUOUS
 10
310.212771
 20
1040.737523
 11
320.328769
 21
1044.419446
  0
LINE
  8
1
 62
7
  6
CONTINUOUS
 10
310.339020
 20
1040.623848
 11
320.328769
 21
1044.259819
  0
LINE
  8
1
 62
7
  6
CONTINUOUS
 10
310.465269
 20
1040.510172
 11
320.328769
 21
1044.100192
  0
LINE
  8
1
 62
7
  6
CONTINUOUS
 10
310.591519
 20
1040.396497
 11
320.328769
 21
1043.940566
  0
LINE
  8
1
 62
7
  6
CONTINUOUS
 10
310.717769
 20
1040.282821
 11
320.328769
 21
1043.780939
  0
LINE
  8
1
 62
7
  6
CONTINUOUS
 10
310.844018
 20
1040.169145
 11
320.328769
 21
1043.621312
  0
LINE
  8
1
 62
7
  6
CONTINUOUS
 10
310.970268
 20
1040.055470
 11
320.328769
 21
1043.461686
  0
LINE
  8
1
 62
7
  6
CONTINUOUS
 10
311.096517
 20
1039.941794
 11
320.328769
 21
1043.302059
  0
LINE
  8
1
 62
7
  6
CONTINUOUS
 10
311.222767
 20
1039.828119
 11
320.328769
 21
1043.142432
  0
LINE
  8
1
 62
7
  6
CONTINUOUS
 10
311.349016
 20
1039.714443
 11
320.328769
 21
1042.982805
  0
LINE
  8
1
 62
7
  6
CONTINUOUS
 10
311.475266
 20
1039.600767
 11
320.328769
 21
1042.823179
  0
LINE
  8
1
 62
7
  6
CONTINUOUS
 10
311.601515
 20
1039.487092
 11
320.328769
 21
1042.663553
  0
LINE
  8
1
 62
7
  6
CONTINUOUS
 10
311.727765
 20
1039.373416
 11
320.328769
 21
1042.503926
  0
LINE
  8
1
 62
7
  6
CONTINUOUS
 10
311.854015
 20
1039.259741
 11
320.328769
 21
1042.344299
  0
LINE
  8
1
 62
7
  6
CONTINUOUS
 10
311.980264
 20
1039.146065
 11
320.328769
 21
1042.184672
  0
LINE
  8
1
 62
7
  6
CONTINUOUS
 10
312.106513
 20
1039.032389
 11
320.328769
 21
1042.025046
  0
LINE
  8
1
 62
7
  6
CONTINUOUS
 10
312.232763
 20
1038.918714
 11
320.328769
 21
1041.865419
  0
LINE
  8
1
 62
7
  6
CONTINUOUS
 10
312.359012
 20
1038.805038
 11
320.328769
 21
1041.705792
  0
LINE
  8
1
 62
7
  6
CONTINUOUS
 10
312.485262
 20
1038.691363
 11
320.328769
 21
1041.546166
  0
LINE
  8
1
 62
7
  6
CONTINUOUS
 10
312.611512
 20
1038.577687
 11
320.328769
 21
1041.386539
  0
LINE
  8
1
 62
7
  6
CONTINUOUS
 10
312.737761
 20
1038.464011
 11
320.328769
 21
1041.226912
  0
LINE
  8
1
 62
7
  6
CONTINUOUS
 10
318.040242
 20
1033.689636
 11
320.328769
 21
1034.522592
  0
LINE
  8
1
 62
7
  6
CONTINUOUS
 10
318.166491
 20
1033.575961
 11
320.328769
 21
1034.362966
  0
LINE
  8
1
 62
7
  6
CONTINUOUS
 10
318.292741
 20
1033.462285
 11
320.328769
 21
1034.203339
  0
LINE
  8
1
 62
7
  6
CONTINUOUS
 10
318.418990
 20
1033.348610
 11
320.328769
 21
1034.043712
  0
LINE
  8
1
 62
7
  6
CONTINUOUS
 10
318.545240
 20
1033.234934
 11
320.328769
 21
1033.884086
  0
LINE
  8
1
 62
7
  6
CONTINUOUS
 10
318.671490
 20
1033.121258
 11
320.328769
 21
1033.724459
  0
LINE
  8
1
 62
7
  6
CONTINUOUS
 10
318.797739
 20
1033.007583
 11
320.328769
 21
1033.564832
  0
LINE
  8
1
 62
7
  6
CONTINUOUS
 10
318.923988
 20
1032.893907
 11
320.328769
 21
1033.405206
  0
LINE
  8
1
 62
7
  6
CONTINUOUS
 10
319.050238
 20
1032.780232
 11
320.328769
 21
1033.245579
  0
LINE
  8
1
 62
7
  6
CONTINUOUS
 10
319.176488
 20
1032.666556
 11
320.328769
 21
1033.085952
  0
LINE
  8
1
 62
7
  6
CONTINUOUS
 10
319.302737
 20
1032.552881
 11
320.328769
 21
1032.926326
  0
LINE
  8
1
 62
7
  6
CONTINUOUS
 10
319.428986
 20
1032.439205
 11
320.328769
 21
1032.766699
  0
LINE
  8
1
 62
7
  6
CONTINUOUS
 10
319.555236
 20
1032.325529
 11
320.328769
 21
1032.607073
  0
LINE
  8
1
 62
7
  6
CONTINUOUS
 10
319.681486
 20
1032.211854
 11
320.328769
 21
1032.447446
  0
LINE
  8
1
 62
7
  6
CONTINUOUS
 10
319.807735
 20
1032.098178
 11
320.328769
 21
1032.287819
  0
LINE
  8
1
 62
7
  6
CONTINUOUS
 10
319.933985
 20
1031.984503
 11
320.328769
 21
1032.128192
  0
LINE
  8
1
 62
7
  6
CONTINUOUS
 10
320.060234
 20
1031.870827
 11
320.328769
 21
1031.968566
  0
LINE
  8
1
 62
7
  6
CONTINUOUS
 10
320.186484
 20
1031.757151
 11
320.328769
 21
1031.808939
  0
LINE
  8
1
 62
7
  6
CONTINUOUS
 10
320.312734
 20
1031.643476
 11
320.328769
 21
1031.649312
  0
LINE
  8
1
 62
7
  6
CONTINUOUS
 10
320.328769
 20
1023.413442
 11
320.328769
 21
1024.491062
  0
LINE
  8
1
 62
7
  6
CONTINUOUS
 10
320.328769
 20
1025.414736
 11
320.328769
 21
1026.492354
  0
LINE
  8
1
 62
7
  6
CONTINUOUS
 10
320.328769
 20
1027.435272
 11
320.328769
 21
1029.899854
  0
LINE
  8
1
 62
7
  6
CONTINUOUS
 10
317.030246
 20
1034.599041
 11
320.328769
 21
1035.799606
  0
LINE
  8
1
 62
7
  6
CONTINUOUS
 10
317.156495
 20
1034.485366
 11
320.328769
 21
1035.639979
  0
LINE
  8
1
 62
7
  6
CONTINUOUS
 10
317.282744
 20
1034.371690
 11
320.328769
 21
1035.480352
  0
LINE
  8
1
 62
7
  6
CONTINUOUS
 10
317.408994
 20
1034.258014
 11
320.328769
 21
1035.320726
  0
LINE
  8
1
 62
7
  6
CONTINUOUS
 10
317.535244
 20
1034.144339
 11
320.328769
 21
1035.161099
  0
LINE
  8
1
 62
7
  6
CONTINUOUS
 10
317.661493
 20
1034.030663
 11
320.328769
 21
1035.001472
  0
LINE
  8
1
 62
7
  6
CONTINUOUS
 10
317.787742
 20
1033.916988
 11
320.328769
 21
1034.841846
  0
LINE
  8
1
 62
7
  6
CONTINUOUS
 10
317.913992
 20
1033.803312
 11
320.328769
 21
1034.682219
  0
LINE
  8
1
 62
7
  6
CONTINUOUS
 10
320.328769
 20
1031.629037
 11
307.940279
 21
1042.783684
  0
LINE
  8
1
 62
7
  6
CONTINUOUS
 10
300.971708
 20
1034.790682
 11
294.883764
 21
1040.272290
  0
LINE
  8
1
 62
7
  6
CONTINUOUS
 10
301.126476
 20
1034.754951
 11
294.883764
 21
1040.375913
  0
LINE
  8
1
 62
7
  6
CONTINUOUS
 10
300.816940
 20
1034.826412
 11
294.883764
 21
1040.168668
  0
LINE
  8
1
 62
7
  6
CONTINUOUS
 10
300.518466
 20
1034.991537
 11
294.883764
 21
1040.065045
  0
LINE
  8
1
 62
7
  6
CONTINUOUS
 10
300.518466
 20
1034.991537
 11
294.883764
 21
1036.292410
  0
LINE
  8
1
 62
7
  6
CONTINUOUS
 10
294.883764
 20
1031.289178
 11
294.883764
 21
1032.366797
  0
LINE
  8
1
 62
7
  6
CONTINUOUS
 10
294.883764
 20
1029.287884
 11
294.883764
 21
1030.365504
  0
LINE
  8
1
 62
7
  6
CONTINUOUS
 10
294.883764
 20
1027.209618
 11
294.883764
 21
1028.287238
  0
LINE
  8
1
 62
7
  6
CONTINUOUS
 10
294.883764
 20
1033.309714
 11
294.883764
 21
1036.292410
  0
LINE
  8
1
 62
7
  6
CONTINUOUS
 10
313.949881
 20
1028.907954
 11
294.883764
 21
1046.075163
  0
LINE
  8
1
 62
7
  6
CONTINUOUS
 10
313.330809
 20
1029.050878
 11
294.883764
 21
1045.660672
  0
LINE
  8
1
 62
7
  6
CONTINUOUS
 10
312.866505
 20
1029.158071
 11
294.883764
 21
1045.349804
  0
LINE
  8
1
 62
7
  6
CONTINUOUS
 10
313.176041
 20
1029.086609
 11
294.883764
 21
1045.557050
  0
LINE
  8
1
 62
7
  6
CONTINUOUS
 10
313.485577
 20
1029.015147
 11
294.883764
 21
1045.764294
  0
LINE
  8
1
 62
7
  6
CONTINUOUS
 10
313.795113
 20
1028.943684
 11
294.883764
 21
1045.971540
  0
LINE
  8
1
 62
7
  6
CONTINUOUS
 10
314.104649
 20
1028.872223
 11
294.883764
 21
1046.178785
  0
LINE
  8
1
 62
7
  6
CONTINUOUS
 10
313.021273
 20
1029.122340
 11
294.883764
 21
1045.453426
  0
LINE
  8
1
 62
7
  6
CONTINUOUS
 10
313.640345
 20
1028.979416
 11
294.883764
 21
1045.867918
  0
LINE
  8
1
 62
7
  6
CONTINUOUS
 10
319.698635
 20
1030.467230
 11
294.883764
 21
1036.196194
  0
LINE
  8
1
 62
7
  6
CONTINUOUS
 10
319.986046
 20
1030.208444
 11
294.883764
 21
1036.003762
  0
LINE
  8
1
 62
7
  6
CONTINUOUS
 10
320.273456
 20
1029.949658
 11
294.883764
 21
1035.811330
  0
LINE
  8
1
 62
7
  6
CONTINUOUS
 10
320.328769
 20
1029.744456
 11
294.883764
 21
1035.618898
  0
LINE
  8
1
 62
7
  6
CONTINUOUS
 10
320.328769
 20
1029.552024
 11
294.883764
 21
1035.426466
  0
LINE
  8
1
 62
7
  6
CONTINUOUS
 10
320.328769
 20
1029.359592
 11
294.883764
 21
1035.234034
  0
LINE
  8
1
 62
7
  6
CONTINUOUS
 10
320.328769
 20
1029.167160
 11
294.883764
 21
1035.041602
  0
LINE
  8
1
 62
7
  6
CONTINUOUS
 10
320.328769
 20
1028.974728
 11
294.883764
 21
1034.849170
  0
LINE
  8
1
 62
7
  6
CONTINUOUS
 10
320.328769
 20
1028.782296
 11
294.883764
 21
1034.656738
  0
LINE
  8
1
 62
7
  6
CONTINUOUS
 10
320.328769
 20
1028.589864
 11
294.883764
 21
1034.464306
  0
LINE
  8
1
 62
7
  6
CONTINUOUS
 10
320.328769
 20
1028.397431
 11
294.883764
 21
1034.271874
  0
LINE
  8
1
 62
7
  6
CONTINUOUS
 10
320.328769
 20
1028.205000
 11
294.883764
 21
1034.079442
  0
LINE
  8
1
 62
7
  6
CONTINUOUS
 10
320.328769
 20
1028.012567
 11
294.883764
 21
1033.887010
  0
LINE
  8
1
 62
7
  6
CONTINUOUS
 10
320.328769
 20
1027.820136
 11
294.883764
 21
1033.694578
  0
LINE
  8
1
 62
7
  6
CONTINUOUS
 10
320.328769
 20
1027.627703
 11
294.883764
 21
1033.502146
  0
LINE
  8
1
 62
7
  6
CONTINUOUS
 10
320.328769
 20
1027.435272
 11
294.883764
 21
1033.309714
  0
LINE
  8
1
 62
7
  6
CONTINUOUS
 10
320.328769
 20
1027.531487
 11
294.883764
 21
1033.405930
  0
LINE
  8
1
 62
7
  6
CONTINUOUS
 10
320.328769
 20
1027.916351
 11
294.883764
 21
1033.790794
  0
LINE
  8
1
 62
7
  6
CONTINUOUS
 10
320.328769
 20
1028.301216
 11
294.883764
 21
1034.175658
  0
LINE
  8
1
 62
7
  6
CONTINUOUS
 10
320.328769
 20
1028.686080
 11
294.883764
 21
1034.560522
  0
LINE
  8
1
 62
7
  6
CONTINUOUS
 10
320.328769
 20
1029.070944
 11
294.883764
 21
1034.945386
  0
LINE
  8
1
 62
7
  6
CONTINUOUS
 10
320.328769
 20
1029.455808
 11
294.883764
 21
1035.330250
  0
LINE
  8
1
 62
7
  6
CONTINUOUS
 10
320.328769
 20
1029.840672
 11
294.883764
 21
1035.715114
  0
LINE
  8
1
 62
7
  6
CONTINUOUS
 10
319.842340
 20
1030.337837
 11
294.883764
 21
1036.099978
  0
LINE
  8
1
 62
7
  6
CONTINUOUS
 10
320.129751
 20
1030.079051
 11
294.883764
 21
1035.907546
  0
LINE
  8
1
 62
7
  6
CONTINUOUS
 10
320.328769
 20
1029.263376
 11
294.883764
 21
1035.137818
  0
LINE
  8
1
 62
7
  6
CONTINUOUS
 10
320.328769
 20
1028.878511
 11
294.883764
 21
1034.752954
  0
LINE
  8
1
 62
7
  6
CONTINUOUS
 10
320.328769
 20
1028.108783
 11
294.883764
 21
1033.983226
  0
LINE
  8
1
 62
7
  6
CONTINUOUS
 10
320.328769
 20
1027.723920
 11
294.883764
 21
1033.598362
  0
LINE
  8
1
 62
7
  6
CONTINUOUS
 10
320.328769
 20
1028.493647
 11
294.883764
 21
1034.368090
  0
LINE
  8
1
 62
7
  6
CONTINUOUS
 10
320.328769
 20
1026.030517
 11
294.883764
 21
1031.904960
  0
LINE
  8
1
 62
7
  6
CONTINUOUS
 10
320.328769
 20
1025.414736
 11
294.883764
 21
1031.289178
  0
LINE
  8
1
 62
7
  6
CONTINUOUS
 10
320.328769
 20
1025.568681
 11
294.883764
 21
1031.443123
  0
LINE
  8
1
 62
7
  6
CONTINUOUS
 10
320.328769
 20
1025.722626
 11
294.883764
 21
1031.597069
  0
LINE
  8
1
 62
7
  6
CONTINUOUS
 10
320.328769
 20
1025.876572
 11
294.883764
 21
1031.751014
  0
LINE
  8
1
 62
7
  6
CONTINUOUS
 10
320.328769
 20
1025.953545
 11
294.883764
 21
1031.827987
  0
LINE
  8
1
 62
7
  6
CONTINUOUS
 10
320.328769
 20
1026.184463
 11
294.883764
 21
1032.058906
  0
LINE
  8
1
 62
7
  6
CONTINUOUS
 10
320.328769
 20
1026.338409
 11
294.883764
 21
1032.212851
  0
LINE
  8
1
 62
7
  6
CONTINUOUS
 10
320.328769
 20
1026.492354
 11
294.883764
 21
1032.366797
  0
LINE
  8
1
 62
7
  6
CONTINUOUS
 10
320.328769
 20
1026.415382
 11
294.883764
 21
1032.289824
  0
LINE
  8
1
 62
7
  6
CONTINUOUS
 10
320.328769
 20
1026.107490
 11
294.883764
 21
1031.981933
  0
LINE
  8
1
 62
7
  6
CONTINUOUS
 10
320.328769
 20
1025.799599
 11
294.883764
 21
1031.674042
  0
LINE
  8
1
 62
7
  6
CONTINUOUS
 10
320.328769
 20
1025.491709
 11
294.883764
 21
1031.366150
  0
LINE
  8
1
 62
7
  6
CONTINUOUS
 10
320.328769
 20
1025.645653
 11
294.883764
 21
1031.520096
  0
LINE
  8
1
 62
7
  6
CONTINUOUS
 10
320.328769
 20
1026.261436
 11
294.883764
 21
1032.135878
  0
LINE
  8
1
 62
7
  6
CONTINUOUS
 10
320.328769
 20
1024.491062
 11
294.883764
 21
1030.365504
  0
LINE
  8
1
 62
7
  6
CONTINUOUS
 10
320.328769
 20
1024.337116
 11
294.883764
 21
1030.211558
  0
LINE
  8
1
 62
7
  6
CONTINUOUS
 10
320.328769
 20
1024.183170
 11
294.883764
 21
1030.057613
  0
LINE
  8
1
 62
7
  6
CONTINUOUS
 10
320.328769
 20
1024.029225
 11
294.883764
 21
1029.903667
  0
LINE
  8
1
 62
7
  6
CONTINUOUS
 10
320.328769
 20
1023.875279
 11
294.883764
 21
1029.749721
  0
LINE
  8
1
 62
7
  6
CONTINUOUS
 10
320.328769
 20
1023.721333
 11
294.883764
 21
1029.595776
  0
LINE
  8
1
 62
7
  6
CONTINUOUS
 10
320.328769
 20
1023.567388
 11
294.883764
 21
1029.441830
  0
LINE
  8
1
 62
7
  6
CONTINUOUS
 10
320.328769
 20
1023.413442
 11
294.883764
 21
1029.287884
  0
LINE
  8
1
 62
7
  6
CONTINUOUS
 10
320.328769
 20
1023.490415
 11
294.883764
 21
1029.364857
  0
LINE
  8
1
 62
7
  6
CONTINUOUS
 10
320.328769
 20
1023.798306
 11
294.883764
 21
1029.672749
  0
LINE
  8
1
 62
7
  6
CONTINUOUS
 10
320.328769
 20
1024.106197
 11
294.883764
 21
1029.980640
  0
LINE
  8
1
 62
7
  6
CONTINUOUS
 10
320.328769
 20
1024.414089
 11
294.883764
 21
1030.288531
  0
LINE
  8
1
 62
7
  6
CONTINUOUS
 10
320.328769
 20
1024.260143
 11
294.883764
 21
1030.134586
  0
LINE
  8
1
 62
7
  6
CONTINUOUS
 10
320.328769
 20
1029.648240
 11
294.883764
 21
1035.522682
  0
LINE
  8
1
 62
7
  6
CONTINUOUS
 10
320.328769
 20
1025.953545
 11
294.883764
 21
1031.827987
  0
LINE
  8
1
 62
7
  6
CONTINUOUS
 10
320.328769
 20
1023.644360
 11
294.883764
 21
1029.518803
  0
LINE
  8
1
 62
7
  6
CONTINUOUS
 10
320.328769
 20
1023.952252
 11
294.883764
 21
1029.826694
  0
LINE
  8
1
 62
7
  6
CONTINUOUS
 10
312.711738
 20
1029.193802
 11
294.883764
 21
1045.246181
  0
LINE
  8
1
 62
7
  6
CONTINUOUS
 10
312.092666
 20
1029.336726
 11
294.883764
 21
1044.831690
  0
LINE
  8
1
 62
7
  6
CONTINUOUS
 10
311.473594
 20
1029.479650
 11
294.883764
 21
1044.417199
  0
LINE
  8
1
 62
7
  6
CONTINUOUS
 10
310.854522
 20
1029.622574
 11
294.883764
 21
1044.002709
  0
LINE
  8
1
 62
7
  6
CONTINUOUS
 10
310.235450
 20
1029.765498
 11
294.883764
 21
1043.588217
  0
LINE
  8
1
 62
7
  6
CONTINUOUS
 10
309.616378
 20
1029.908422
 11
294.883764
 21
1043.173727
  0
LINE
  8
1
 62
7
  6
CONTINUOUS
 10
308.997306
 20
1030.051346
 11
294.883764
 21
1042.759236
  0
LINE
  8
1
 62
7
  6
CONTINUOUS
 10
308.378234
 20
1030.194270
 11
294.883764
 21
1042.344745
  0
LINE
  8
1
 62
7
  6
CONTINUOUS
 10
307.759162
 20
1030.337194
 11
294.883764
 21
1041.930254
  0
LINE
  8
1
 62
7
  6
CONTINUOUS
 10
307.140090
 20
1030.480118
 11
294.883764
 21
1041.515763
  0
LINE
  8
1
 62
7
  6
CONTINUOUS
 10
306.521018
 20
1030.623042
 11
294.883764
 21
1041.101272
  0
LINE
  8
1
 62
7
  6
CONTINUOUS
 10
305.901946
 20
1030.765966
 11
294.883764
 21
1040.686781
  0
LINE
  8
1
 62
7
  6
CONTINUOUS
 10
305.747178
 20
1030.801697
 11
294.883764
 21
1040.583159
  0
LINE
  8
1
 62
7
  6
CONTINUOUS
 10
306.056714
 20
1030.730235
 11
294.883764
 21
1040.790404
  0
LINE
  8
1
 62
7
  6
CONTINUOUS
 10
306.366250
 20
1030.658773
 11
294.883764
 21
1040.997649
  0
LINE
  8
1
 62
7
  6
CONTINUOUS
 10
306.675786
 20
1030.587311
 11
294.883764
 21
1041.204895
  0
LINE
  8
1
 62
7
  6
CONTINUOUS
 10
306.985322
 20
1030.515849
 11
294.883764
 21
1041.412141
  0
LINE
  8
1
 62
7
  6
CONTINUOUS
 10
307.294858
 20
1030.444387
 11
294.935292
 21
1041.572990
  0
LINE
  8
1
 62
7
  6
CONTINUOUS
 10
307.604394
 20
1030.372925
 11
294.883764
 21
1041.826631
  0
LINE
  8
1
 62
7
  6
CONTINUOUS
 10
307.913930
 20
1030.301463
 11
294.883764
 21
1042.033877
  0
LINE
  8
1
 62
7
  6
CONTINUOUS
 10
308.223466
 20
1030.230001
 11
294.883764
 21
1042.241122
  0
LINE
  8
1
 62
7
  6
CONTINUOUS
 10
308.533002
 20
1030.158539
 11
294.883764
 21
1042.448368
  0
LINE
  8
1
 62
7
  6
CONTINUOUS
 10
308.842538
 20
1030.087077
 11
294.883764
 21
1042.655613
  0
LINE
  8
1
 62
7
  6
CONTINUOUS
 10
309.152074
 20
1030.015615
 11
294.883764
 21
1042.862859
  0
LINE
  8
1
 62
7
  6
CONTINUOUS
 10
309.461610
 20
1029.944153
 11
294.883764
 21
1043.070104
  0
LINE
  8
1
 62
7
  6
CONTINUOUS
 10
309.771146
 20
1029.872691
 11
294.883764
 21
1043.277349
  0
LINE
  8
1
 62
7
  6
CONTINUOUS
 10
310.080682
 20
1029.801229
 11
294.883764
 21
1043.484595
  0
LINE
  8
1
 62
7
  6
CONTINUOUS
 10
310.390218
 20
1029.729767
 11
294.883764
 21
1043.691840
  0
LINE
  8
1
 62
7
  6
CONTINUOUS
 10
310.699754
 20
1029.658305
 11
294.883764
 21
1043.899086
  0
LINE
  8
1
 62
7
  6
CONTINUOUS
 10
311.009290
 20
1029.586843
 11
294.883764
 21
1044.106331
  0
LINE
  8
1
 62
7
  6
CONTINUOUS
 10
311.318826
 20
1029.515381
 11
294.883764
 21
1044.313576
  0
LINE
  8
1
 62
7
  6
CONTINUOUS
 10
311.628362
 20
1029.443919
 11
294.883764
 21
1044.520822
  0
LINE
  8
1
 62
7
  6
CONTINUOUS
 10
311.937898
 20
1029.372457
 11
294.883764
 21
1044.728068
  0
LINE
  8
1
 62
7
  6
CONTINUOUS
 10
312.247434
 20
1029.300995
 11
294.883764
 21
1044.935313
  0
LINE
  8
1
 62
7
  6
CONTINUOUS
 10
312.556970
 20
1029.229533
 11
294.883764
 21
1045.142559
  0
LINE
  8
1
 62
7
  6
CONTINUOUS
 10
311.783130
 20
1029.408188
 11
294.883764
 21
1044.624445
  0
LINE
  8
1
 62
7
  6
CONTINUOUS
 10
310.544986
 20
1029.694036
 11
294.883764
 21
1043.795463
  0
LINE
  8
1
 62
7
  6
CONTINUOUS
 10
309.306842
 20
1029.979884
 11
294.883764
 21
1042.966481
  0
LINE
  8
1
 62
7
  6
CONTINUOUS
 10
308.068698
 20
1030.265732
 11
294.883764
 21
1042.137500
  0
LINE
  8
1
 62
7
  6
CONTINUOUS
 10
306.830554
 20
1030.551580
 11
294.883764
 21
1041.308518
  0
LINE
  8
1
 62
7
  6
CONTINUOUS
 10
305.592410
 20
1030.837428
 11
294.883764
 21
1040.479536
  0
LINE
  8
1
 62
7
  6
CONTINUOUS
 10
306.211482
 20
1030.694504
 11
294.883764
 21
1040.894027
  0
LINE
  8
1
 62
7
  6
CONTINUOUS
 10
308.687770
 20
1030.122808
 11
294.883764
 21
1042.551990
  0
LINE
  8
1
 62
7
  6
CONTINUOUS
 10
311.164058
 20
1029.551112
 11
294.883764
 21
1044.209954
  0
LINE
  8
1
 62
7
  6
CONTINUOUS
 10
309.925914
 20
1029.836960
 11
294.883764
 21
1043.380972
  0
LINE
  8
1
 62
7
  6
CONTINUOUS
 10
307.449626
 20
1030.408656
 11
294.883764
 21
1041.723009
  0
LINE
  8
1
 62
7
  6
CONTINUOUS
 10
312.402202
 20
1029.265264
 11
294.883764
 21
1045.038935
  0
LINE
  8
1
 62
7
  6
CONTINUOUS
 10
320.328769
 20
1021.335176
 11
320.328769
 21
1022.412796
  0
LINE
  8
1
 62
7
  6
CONTINUOUS
 10
320.328769
 20
1021.412149
 11
294.883764
 21
1027.286591
  0
LINE
  8
1
 62
7
  6
CONTINUOUS
 10
320.328769
 20
1021.566095
 11
294.883764
 21
1027.440537
  0
LINE
  8
1
 62
7
  6
CONTINUOUS
 10
320.328769
 20
1021.720040
 11
294.883764
 21
1027.594483
  0
LINE
  8
1
 62
7
  6
CONTINUOUS
 10
320.328769
 20
1021.873986
 11
294.883764
 21
1027.748428
  0
LINE
  8
1
 62
7
  6
CONTINUOUS
 10
320.328769
 20
1022.027932
 11
294.883764
 21
1027.902374
  0
LINE
  8
1
 62
7
  6
CONTINUOUS
 10
320.328769
 20
1022.181877
 11
294.883764
 21
1028.056320
  0
LINE
  8
1
 62
7
  6
CONTINUOUS
 10
320.328769
 20
1022.335823
 11
294.883764
 21
1028.210265
  0
LINE
  8
1
 62
7
  6
CONTINUOUS
 10
320.328769
 20
1022.412796
 11
294.883764
 21
1028.287238
  0
LINE
  8
1
 62
7
  6
CONTINUOUS
 10
320.328769
 20
1022.104905
 11
294.883764
 21
1027.979347
  0
LINE
  8
1
 62
7
  6
CONTINUOUS
 10
320.328769
 20
1021.797013
 11
294.883764
 21
1027.671455
  0
LINE
  8
1
 62
7
  6
CONTINUOUS
 10
320.328769
 20
1021.489122
 11
294.883764
 21
1027.363564
  0
LINE
  8
1
 62
7
  6
CONTINUOUS
 10
320.328769
 20
1021.643068
 11
294.883764
 21
1027.517510
  0
LINE
  8
1
 62
7
  6
CONTINUOUS
 10
320.328769
 20
1022.258850
 11
294.883764
 21
1028.133292
  0
LINE
  8
1
 62
7
  6
CONTINUOUS
 10
320.328769
 20
1021.335176
 11
294.883764
 21
1027.209618
  0
LINE
  8
1
 62
7
  6
CONTINUOUS
 10
320.328769
 20
1021.950959
 11
294.883764
 21
1027.825401
  0
LINE
  8
1
 62
7
  6
CONTINUOUS
 10
308.066528
 20
1042.670008
 11
320.328769
 21
1047.133099
  0
LINE
  8
1
 62
7
  6
CONTINUOUS
 10
320.328769
 20
1029.796231
 11
294.883764
 21
1052.707017
  0
LINE
  8
1
 62
7
  6
CONTINUOUS
 10
320.328769
 20
1029.381741
 11
294.883764
 21
1052.292526
  0
LINE
  8
1
 62
7
  6
CONTINUOUS
 10
320.328769
 20
1028.967250
 11
294.883764
 21
1051.878035
  0
LINE
  8
1
 62
7
  6
CONTINUOUS
 10
320.328769
 20
1028.552759
 11
294.883764
 21
1051.463545
  0
LINE
  8
1
 62
7
  6
CONTINUOUS
 10
320.328769
 20
1028.138268
 11
294.883764
 21
1051.049053
  0
LINE
  8
1
 62
7
  6
CONTINUOUS
 10
320.328769
 20
1027.723778
 11
294.883764
 21
1050.634562
  0
LINE
  8
1
 62
7
  6
CONTINUOUS
 10
320.140601
 20
1027.478714
 11
294.883764
 21
1050.220072
  0
LINE
  8
1
 62
7
  6
CONTINUOUS
 10
319.521529
 20
1027.621637
 11
294.883764
 21
1049.805581
  0
LINE
  8
1
 62
7
  6
CONTINUOUS
 10
318.902457
 20
1027.764561
 11
294.883764
 21
1049.391090
  0
LINE
  8
1
 62
7
  6
CONTINUOUS
 10
318.283385
 20
1027.907486
 11
294.883764
 21
1048.976598
  0
LINE
  8
1
 62
7
  6
CONTINUOUS
 10
317.664313
 20
1028.050410
 11
294.883764
 21
1048.562108
  0
LINE
  8
1
 62
7
  6
CONTINUOUS
 10
317.045241
 20
1028.193333
 11
294.883764
 21
1048.147617
  0
LINE
  8
1
 62
7
  6
CONTINUOUS
 10
316.426169
 20
1028.336258
 11
294.883764
 21
1047.733126
  0
LINE
  8
1
 62
7
  6
CONTINUOUS
 10
315.807097
 20
1028.479182
 11
294.883764
 21
1047.318636
  0
LINE
  8
1
 62
7
  6
CONTINUOUS
 10
315.188025
 20
1028.622105
 11
294.883764
 21
1046.904145
  0
LINE
  8
1
 62
7
  6
CONTINUOUS
 10
314.568953
 20
1028.765030
 11
294.883764
 21
1046.489653
  0
LINE
  8
1
 62
7
  6
CONTINUOUS
 10
308.319027
 20
1042.442657
 11
320.328769
 21
1046.813845
  0
LINE
  8
1
 62
7
  6
CONTINUOUS
 10
308.445277
 20
1042.328982
 11
320.328769
 21
1046.654219
  0
LINE
  8
1
 62
7
  6
CONTINUOUS
 10
308.697776
 20
1042.101630
 11
320.328769
 21
1046.334965
  0
LINE
  8
1
 62
7
  6
CONTINUOUS
 10
308.192778
 20
1042.556333
 11
320.328769
 21
1046.973472
  0
LINE
  8
1
 62
7
  6
CONTINUOUS
 10
308.571527
 20
1042.215306
 11
320.328769
 21
1046.494592
  0
LINE
  8
1
 62
7
  6
CONTINUOUS
 10
314.414185
 20
1028.800761
 11
294.883764
 21
1046.386031
  0
LINE
  8
1
 62
7
  6
CONTINUOUS
 10
314.723721
 20
1028.729298
 11
294.883764
 21
1046.593277
  0
LINE
  8
1
 62
7
  6
CONTINUOUS
 10
315.033257
 20
1028.657837
 11
294.883764
 21
1046.800522
  0
LINE
  8
1
 62
7
  6
CONTINUOUS
 10
315.342793
 20
1028.586375
 11
294.883764
 21
1047.007767
  0
LINE
  8
1
 62
7
  6
CONTINUOUS
 10
315.652329
 20
1028.514912
 11
294.883764
 21
1047.215012
  0
LINE
  8
1
 62
7
  6
CONTINUOUS
 10
315.961865
 20
1028.443451
 11
294.883764
 21
1047.422258
  0
LINE
  8
1
 62
7
  6
CONTINUOUS
 10
316.271401
 20
1028.371989
 11
294.883764
 21
1047.629504
  0
LINE
  8
1
 62
7
  6
CONTINUOUS
 10
316.580937
 20
1028.300526
 11
294.883764
 21
1047.836749
  0
LINE
  8
1
 62
7
  6
CONTINUOUS
 10
316.890473
 20
1028.229065
 11
294.883764
 21
1048.043995
  0
LINE
  8
1
 62
7
  6
CONTINUOUS
 10
317.200009
 20
1028.157603
 11
294.883764
 21
1048.251240
  0
LINE
  8
1
 62
7
  6
CONTINUOUS
 10
317.509545
 20
1028.086140
 11
294.883764
 21
1048.458485
  0
LINE
  8
1
 62
7
  6
CONTINUOUS
 10
317.819081
 20
1028.014679
 11
294.883764
 21
1048.665731
  0
LINE
  8
1
 62
7
  6
CONTINUOUS
 10
318.128617
 20
1027.943217
 11
294.883764
 21
1048.872976
  0
LINE
  8
1
 62
7
  6
CONTINUOUS
 10
318.438153
 20
1027.871754
 11
294.883764
 21
1049.080222
  0
LINE
  8
1
 62
7
  6
CONTINUOUS
 10
318.747689
 20
1027.800293
 11
294.883764
 21
1049.287467
  0
LINE
  8
1
 62
7
  6
CONTINUOUS
 10
319.057225
 20
1027.728830
 11
294.883764
 21
1049.494713
  0
LINE
  8
1
 62
7
  6
CONTINUOUS
 10
319.366761
 20
1027.657368
 11
294.883764
 21
1049.701958
  0
LINE
  8
1
 62
7
  6
CONTINUOUS
 10
319.510281
 20
1027.735388
 11
294.883764
 21
1049.909203
  0
LINE
  8
1
 62
7
  6
CONTINUOUS
 10
319.985833
 20
1027.514444
 11
294.883764
 21
1050.116449
  0
LINE
  8
1
 62
7
  6
CONTINUOUS
 10
320.295369
 20
1027.442982
 11
294.883764
 21
1050.323694
  0
LINE
  8
1
 62
7
  6
CONTINUOUS
 10
320.328769
 20
1027.620154
 11
294.883764
 21
1050.530940
  0
LINE
  8
1
 62
7
  6
CONTINUOUS
 10
320.328769
 20
1027.827400
 11
294.883764
 21
1050.738186
  0
LINE
  8
1
 62
7
  6
CONTINUOUS
 10
320.328769
 20
1028.034645
 11
294.883764
 21
1050.945431
  0
LINE
  8
1
 62
7
  6
CONTINUOUS
 10
320.328769
 20
1028.241891
 11
294.883764
 21
1051.152676
  0
LINE
  8
1
 62
7
  6
CONTINUOUS
 10
320.328769
 20
1028.449136
 11
294.883764
 21
1051.359921
  0
LINE
  8
1
 62
7
  6
CONTINUOUS
 10
320.328769
 20
1028.656381
 11
294.883764
 21
1051.567167
  0
LINE
  8
1
 62
7
  6
CONTINUOUS
 10
320.328769
 20
1028.863627
 11
294.883764
 21
1051.774412
  0
LINE
  8
1
 62
7
  6
CONTINUOUS
 10
320.328769
 20
1029.070873
 11
294.883764
 21
1051.981658
  0
LINE
  8
1
 62
7
  6
CONTINUOUS
 10
320.328769
 20
1029.278118
 11
294.883764
 21
1052.188904
  0
LINE
  8
1
 62
7
  6
CONTINUOUS
 10
320.328769
 20
1029.485363
 11
294.883764
 21
1052.396148
  0
LINE
  8
1
 62
7
  6
CONTINUOUS
 10
320.328769
 20
1029.692609
 11
294.883764
 21
1052.603394
  0
LINE
  8
1
 62
7
  6
CONTINUOUS
 10
320.328769
 20
1029.899854
 11
294.883764
 21
1052.810639
  0
LINE
  8
1
 62
7
  6
CONTINUOUS
 10
320.328769
 20
1029.174495
 11
294.883764
 21
1052.085280
  0
LINE
  8
1
 62
7
  6
CONTINUOUS
 10
320.328769
 20
1028.345513
 11
294.883764
 21
1051.256299
  0
LINE
  8
1
 62
7
  6
CONTINUOUS
 10
320.328769
 20
1027.516532
 11
294.883764
 21
1050.427317
  0
LINE
  8
1
 62
7
  6
CONTINUOUS
 10
319.211993
 20
1027.693100
 11
294.883764
 21
1049.598335
  0
LINE
  8
1
 62
7
  6
CONTINUOUS
 10
317.973849
 20
1027.978947
 11
294.883764
 21
1048.769354
  0
LINE
  8
1
 62
7
  6
CONTINUOUS
 10
316.735705
 20
1028.264796
 11
294.883764
 21
1047.940372
  0
LINE
  8
1
 62
7
  6
CONTINUOUS
 10
315.497561
 20
1028.550644
 11
294.883764
 21
1047.111390
  0
LINE
  8
1
 62
7
  6
CONTINUOUS
 10
314.259417
 20
1028.836491
 11
294.883764
 21
1046.282408
  0
LINE
  8
1
 62
7
  6
CONTINUOUS
 10
316.116633
 20
1028.407719
 11
294.883764
 21
1047.525881
  0
LINE
  8
1
 62
7
  6
CONTINUOUS
 10
318.592921
 20
1027.836024
 11
294.883764
 21
1049.183844
  0
LINE
  8
1
 62
7
  6
CONTINUOUS
 10
320.328769
 20
1027.931022
 11
294.883764
 21
1050.841808
  0
LINE
  8
1
 62
7
  6
CONTINUOUS
 10
320.328769
 20
1029.588986
 11
294.883764
 21
1052.499772
  0
LINE
  8
1
 62
7
  6
CONTINUOUS
 10
319.831065
 20
1027.550175
 11
294.883764
 21
1050.012826
  0
LINE
  8
1
 62
7
  6
CONTINUOUS
 10
317.354777
 20
1028.121872
 11
294.883764
 21
1048.354863
  0
LINE
  8
1
 62
7
  6
CONTINUOUS
 10
320.328769
 20
1028.760005
 11
294.883764
 21
1051.670789
  0
LINE
  8
1
 62
7
  6
CONTINUOUS
 10
314.878489
 20
1028.693568
 11
294.883764
 21
1046.696899
  0
LINE
  8
1
 62
7
  6
CONTINUOUS
 10
307.940279
 20
1042.783684
 11
320.328769
 21
1047.292725
  0
LINE
  8
1
 62
7
  6
CONTINUOUS
 10
294.883764
 20
1040.065045
 11
294.883764
 21
1052.810639
  0
LINE
  8
1
 62
7
  6
CONTINUOUS
 10
320.328769
 20
1031.629037
 11
320.328769
 21
1047.292725
  0
LINE
  8
1
 62
7
  6
CONTINUOUS
 10
327.204798
 20
1090.330068
 11
320.770502
 21
1079.185541
  0
LINE
  8
1
 62
7
  6
CONTINUOUS
 10
353.086573
 20
1073.956522
 11
387.086573
 21
1074.556520
  0
LINE
  8
1
 62
7
  6
CONTINUOUS
 10
399.236574
 20
999.356523
 11
387.086573
 21
999.356523
  0
ARC
  8
1
 62
7
  6
CONTINUOUS
 10
343.226267
 20
992.832975
 40
1.500000
 50
-149.999999
 51
-51.347431
  0
ARC
  8
1
 62
7
  6
CONTINUOUS
 10
343.226267
 20
992.832975
 40
1.500000
 50
-51.347431
 51
29.999999
  0
LINE
  8
1
 62
7
  6
CONTINUOUS
 10
331.603237
 20
995.964651
 11
334.269905
 21
995.964651
  0
LINE
  8
1
 62
7
  6
CONTINUOUS
 10
334.269905
 20
991.345850
 11
335.603237
 21
993.655252
  0
LINE
  8
1
 62
7
  6
CONTINUOUS
 10
331.603237
 20
991.345850
 11
330.269905
 21
993.655252
  0
LINE
  8
1
 62
7
  6
CONTINUOUS
 10
334.269905
 20
991.345850
 11
331.603237
 21
991.345850
  0
CIRCLE
  8
1
 62
7
  6
CONTINUOUS
 10
332.936571
 20
993.655252
 40
2.309401
  0
LINE
  8
1
 62
7
  6
CONTINUOUS
 10
335.603237
 20
993.655252
 11
334.269905
 21
995.964651
  0
LINE
  8
1
 62
7
  6
CONTINUOUS
 10
330.269905
 20
993.655252
 11
331.603237
 21
995.964651
  0
ARC
  8
1
 62
7
  6
CONTINUOUS
 10
325.252834
 20
995.963876
 40
1.500000
 50
89.999997
 51
-149.999999
  0
CIRCLE
  8
1
 62
7
  6
CONTINUOUS
 10
332.936571
 20
993.655252
 40
4.250000
  0
ARC
  8
1
 62
7
  6
CONTINUOUS
 10
328.503836
 20
984.332975
 40
1.500000
 50
-149.999999
 51
-68.652569
  0
ARC
  8
1
 62
7
  6
CONTINUOUS
 10
328.503836
 20
984.332975
 40
1.500000
 50
-68.652569
 51
29.999999
  0
LINE
  8
1
 62
7
  6
CONTINUOUS
 10
329.802873
 20
985.082975
 11
323.953796
 21
995.213876
  0
ARC
  8
1
 62
7
  6
CONTINUOUS
 10
319.471464
 20
993.977503
 40
1.500000
 50
30.000003
 51
89.999997
  0
LINE
  8
1
 62
7
  6
CONTINUOUS
 10
281.603237
 20
995.964651
 11
284.269905
 21
995.964651
  0
LINE
  8
1
 62
7
  6
CONTINUOUS
 10
284.269905
 20
991.345850
 11
285.603237
 21
993.655252
  0
LINE
  8
1
 62
7
  6
CONTINUOUS
 10
281.603237
 20
991.345850
 11
280.269905
 21
993.655252
  0
LINE
  8
1
 62
7
  6
CONTINUOUS
 10
281.603237
 20
991.345850
 11
284.269905
 21
991.345850
  0
LINE
  8
1
 62
7
  6
CONTINUOUS
 10
284.269905
 20
995.964651
 11
285.603237
 21
993.655252
  0
CIRCLE
  8
1
 62
7
  6
CONTINUOUS
 10
282.936571
 20
993.655252
 40
2.309401
  0
LINE
  8
1
 62
7
  6
CONTINUOUS
 10
280.269905
 20
993.655252
 11
281.603237
 21
995.964651
  0
CIRCLE
  8
1
 62
7
  6
CONTINUOUS
 10
282.936571
 20
993.655252
 40
4.250000
  0
LINE
  8
1
 62
7
  6
CONTINUOUS
 10
327.204798
 20
983.582975
 11
320.770502
 21
994.727503
  0
LINE
  8
1
 62
7
  6
CONTINUOUS
 10
353.086573
 20
999.956522
 11
387.086573
 21
999.356523
  0
CIRCLE
  8
1
 62
7
  6
CONTINUOUS
 10
307.936571
 20
1036.956522
 40
38.615726
  0
CIRCLE
  8
1
 62
7
  6
CONTINUOUS
 10
307.936571
 20
1036.956522
 40
40.281776
  0
CIRCLE
  8
1
 62
7
  6
CONTINUOUS
 10
307.936571
 20
1036.956522
 40
42.510498
  0
CIRCLE
  8
1
 62
7
  6
CONTINUOUS
 10
307.936571
 20
1036.956522
 40
43.000000
  0
LINE
  8
1
 62
7
  6
CONTINUOUS
 10
344.525305
 20
993.582975
 11
339.835173
 21
1001.706522
  0
LINE
  8
1
 62
7
  6
CONTINUOUS
 10
341.927229
 20
992.082975
 11
336.078152
 21
1002.213876
  0
LINE
  8
1
 62
7
  6
CONTINUOUS
 10
388.236574
 20
999.356523
 11
388.236574
 21
1074.556520
  0
LINE
  8
1
 62
7
  6
CONTINUOUS
 10
387.086573
 20
999.356523
 11
387.086573
 21
1074.556520
  0
LINE
  8
1
 62
7
  6
CONTINUOUS
 10
399.236574
 20
1074.556520
 11
399.236574
 21
999.356523
  0
ARC
  8
1
 62
7
  6
CONTINUOUS
 10
307.936571
 20
1036.956522
 40
58.000000
 50
39.652563
 51
-39.652563
  0
LINE
  8
1
 62
7
  6
CONTINUOUS
 10
156.936571
 20
975.080877
 11
163.936571
 21
976.956522
  0
LINE
  8
1
 62
7
  6
CONTINUOUS
 10
187.859619
 20
976.956522
 11
163.936571
 21
976.956522
  0
LINE
  8
1
 62
7
  6
CONTINUOUS
 10
187.859619
 20
976.956522
 11
251.936571
 21
939.961677
  0
LINE
  8
1
 62
7
  6
CONTINUOUS
 10
156.936571
 20
1098.832166
 11
163.936571
 21
1096.956522
  0
LINE
  8
1
 62
7
  6
CONTINUOUS
 10
187.859619
 20
1096.956522
 11
163.936571
 21
1096.956522
  0
LINE
  8
1
 62
7
  6
CONTINUOUS
 10
163.936571
 20
1096.956522
 11
163.936571
 21
976.956522
  0
LINE
  8
1
 62
7
  6
CONTINUOUS
 10
187.859619
 20
1096.956522
 11
251.936571
 21
1133.951367
  0
LINE
  8
1
 62
7
  6
CONTINUOUS
 10
428.013523
 20
1096.956522
 11
451.936571
 21
1096.956522
  0
LINE
  8
1
 62
7
  6
CONTINUOUS
 10
428.013523
 20
1096.956522
 11
363.936571
 21
1133.951367
  0
LINE
  8
1
 62
7
  6
CONTINUOUS
 10
428.013523
 20
976.956522
 11
363.936571
 21
939.961677
  0
LINE
  8
1
 62
7
  6
CONTINUOUS
 10
451.936571
 20
1096.956522
 11
451.936571
 21
976.956522
  0
LINE
  8
1
 62
7
  6
CONTINUOUS
 10
458.936571
 20
975.080877
 11
451.936571
 21
976.956522
  0
LINE
  8
1
 62
7
  6
CONTINUOUS
 10
428.013523
 20
976.956522
 11
451.936571
 21
976.956522
  0
LINE
  8
1
 62
7
  6
CONTINUOUS
 10
458.936571
 20
1098.832166
 11
451.936571
 21
1096.956522
  0
LINE
  8
1
 62
7
  6
CONTINUOUS
 10
482.936571
 20
1141.956522
 11
458.936571
 21
1141.956522
  0
LINE
  8
1
 62
7
  6
CONTINUOUS
 10
482.936571
 20
931.956522
 11
482.936571
 21
1141.956522
  0
LINE
  8
1
 62
7
  6
CONTINUOUS
 10
458.936571
 20
931.956522
 11
482.936571
 21
931.956522
  0
LINE
  8
1
 62
7
  6
CONTINUOUS
 10
458.936571
 20
1141.956522
 11
458.936571
 21
931.956522
  0
LINE
  8
1
 62
7
  6
CONTINUOUS
 10
156.936571
 20
1141.956522
 11
132.936571
 21
1141.956522
  0
LINE
  8
1
 62
7
  6
CONTINUOUS
 10
156.936571
 20
931.956522
 11
156.936571
 21
1141.956522
  0
LINE
  8
1
 62
7
  6
CONTINUOUS
 10
132.936571
 20
931.956522
 11
156.936571
 21
931.956522
  0
LINE
  8
1
 62
7
  6
CONTINUOUS
 10
132.936571
 20
1141.956522
 11
132.936571
 21
931.956522
  0
LINE
  8
1
 62
7
  6
CONTINUOUS
 10
235.560857
 20
435.000000
 11
307.936571
 21
435.000000
  0
LINE
  8
1
 62
7
  6
CONTINUOUS
 10
249.936571
 20
435.000000
 11
307.936571
 21
435.000000
  0
LINE
  8
1
 62
7
  6
CONTINUOUS
 10
250.436571
 20
440.000000
 11
307.936571
 21
440.000000
  0
LINE
  8
1
 62
7
  6
CONTINUOUS
 10
307.936571
 20
440.000000
 11
365.436571
 21
440.000000
  0
LINE
  8
1
 62
7
  6
CONTINUOUS
 10
380.312286
 20
435.000000
 11
307.936571
 21
435.000000
  0
LINE
  8
1
 62
7
  6
CONTINUOUS
 10
307.936571
 20
435.000000
 11
365.936571
 21
435.000000
  0
LINE
  8
1
 62
7
  6
CONTINUOUS
 10
191.064572
 20
330.520571
 11
205.936572
 21
325.237143
  0
LINE
  8
1
 62
7
  6
CONTINUOUS
 10
191.064572
 20
333.019429
 11
205.936572
 21
334.134571
  0
LINE
  8
1
 62
7
  6
CONTINUOUS
 10
185.257143
 20
289.000000
 11
185.257143
 21
332.583714
  0
LINE
  8
1
 62
7
  6
CONTINUOUS
 10
191.064572
 20
247.479429
 11
205.936572
 21
252.762857
  0
LINE
  8
1
 62
7
  6
CONTINUOUS
 10
191.064572
 20
244.980571
 11
205.936572
 21
243.865429
  0
LINE
  8
1
 62
7
  6
CONTINUOUS
 10
185.257143
 20
289.000000
 11
185.257143
 21
245.416286
  0
ARC
  8
1
 62
7
  6
CONTINUOUS
 10
406.936572
 20
430.000000
 40
1.000000
 50
90.000000
 51
180.000000
  0
ARC
  8
1
 62
7
  6
CONTINUOUS
 10
417.936572
 20
430.000000
 40
1.000000
 50
0.000000
 51
90.000000
  0
LINE
  8
1
 62
7
  6
CONTINUOUS
 10
418.936572
 20
430.000000
 11
418.936572
 21
423.000000
  0
LINE
  8
1
 62
7
  6
CONTINUOUS
 10
405.936572
 20
430.000000
 11
405.936572
 21
423.000000
  0
LINE
  8
1
 62
7
  6
CONTINUOUS
 10
417.936572
 20
431.000000
 11
406.936572
 21
431.000000
  0
LINE
  8
1
 62
7
  6
CONTINUOUS
 10
418.936571
 20
423.000000
 11
307.936571
 21
423.000000
  0
LINE
  8
1
 62
7
  6
CONTINUOUS
 10
196.936571
 20
423.000000
 11
307.936571
 21
423.000000
  0
LINE
  8
1
 62
7
  6
CONTINUOUS
 10
419.936571
 20
413.000000
 11
307.936571
 21
413.000000
  0
LINE
  8
1
 62
7
  6
CONTINUOUS
 10
419.936571
 20
413.000000
 11
307.936571
 21
413.000000
  0
LINE
  8
1
 62
7
  6
CONTINUOUS
 10
195.936571
 20
413.000000
 11
307.936571
 21
413.000000
  0
LINE
  8
1
 62
7
  6
CONTINUOUS
 10
195.936571
 20
413.000000
 11
307.936571
 21
413.000000
  0
LINE
  8
1
 62
7
  6
CONTINUOUS
 10
424.808571
 20
330.520571
 11
409.936571
 21
325.237143
  0
LINE
  8
1
 62
7
  6
CONTINUOUS
 10
424.808571
 20
333.019429
 11
409.936571
 21
334.134571
  0
LINE
  8
1
 62
7
  6
CONTINUOUS
 10
430.616000
 20
289.000000
 11
430.616000
 21
332.583714
  0
LINE
  8
1
 62
7
  6
CONTINUOUS
 10
351.936571
 20
540.979706
 11
351.936571
 21
449.000000
  0
LINE
  8
1
 62
7
  6
CONTINUOUS
 10
353.086571
 20
541.000000
 11
353.086571
 21
449.000000
  0
LINE
  8
1
 62
7
  6
CONTINUOUS
 10
351.936571
 20
540.979706
 11
351.936571
 21
440.500000
  0
LINE
  8
1
 62
7
  6
CONTINUOUS
 10
264.936571
 20
543.000000
 11
307.936571
 21
543.000000
  0
LINE
  8
1
 62
7
  6
CONTINUOUS
 10
307.936571
 20
543.000000
 11
350.936571
 21
543.000000
  0
LINE
  8
1
 62
7
  6
CONTINUOUS
 10
307.936571
 20
543.000000
 11
350.936571
 21
543.000000
  0
LINE
  8
1
 62
7
  6
CONTINUOUS
 10
264.936571
 20
543.000000
 11
307.936571
 21
543.000000
  0
LINE
  8
1
 62
7
  6
CONTINUOUS
 10
349.447143
 20
557.500000
 11
307.936571
 21
557.500000
  0
LINE
  8
1
 62
7
  6
CONTINUOUS
 10
266.426000
 20
557.500000
 11
307.936571
 21
557.500000
  0
LINE
  8
1
 62
7
  6
CONTINUOUS
 10
132.936571
 20
289.000000
 11
132.936571
 21
184.000000
  0
ARC
  8
1
 62
7
  6
CONTINUOUS
 10
352.436571
 20
440.500000
 40
0.500000
 50
180.000000
 51
-90.000000
  0
ARC
  8
1
 62
7
  6
CONTINUOUS
 10
365.436571
 20
439.500000
 40
0.500000
 50
0.000000
 51
90.000000
  0
ARC
  8
1
 62
7
  6
CONTINUOUS
 10
250.436571
 20
439.500000
 40
0.500000
 50
90.000000
 51
180.000000
  0
ARC
  8
1
 62
7
  6
CONTINUOUS
 10
350.436571
 20
441.500000
 40
1.500000
 50
180.000000
 51
-90.000000
  0
ARC
  8
1
 62
7
  6
CONTINUOUS
 10
264.436571
 20
440.500000
 40
0.500000
 50
-90.000000
 51
0.000000
  0
ARC
  8
1
 62
7
  6
CONTINUOUS
 10
350.436571
 20
447.500000
 40
1.500000
 50
90.000000
 51
180.000000
  0
ARC
  8
1
 62
7
  6
CONTINUOUS
 10
266.426000
 20
556.500000
 40
1.000000
 50
90.000000
 51
178.000000
  0
ARC
  8
1
 62
7
  6
CONTINUOUS
 10
349.447143
 20
556.500000
 40
1.000000
 50
2.000000
 51
90.000000
  0
ARC
  8
1
 62
7
  6
CONTINUOUS
 10
349.217714
 20
558.500000
 40
1.000000
 50
-178.000000
 51
-90.000000
  0
ARC
  8
1
 62
7
  6
CONTINUOUS
 10
266.655429
 20
558.500000
 40
1.000000
 50
-90.000000
 51
-2.000000
  0
ARC
  8
1
 62
7
  6
CONTINUOUS
 10
341.555429
 20
606.000000
 40
5.000000
 50
2.000000
 51
90.000000
  0
ARC
  8
1
 62
7
  6
CONTINUOUS
 10
274.317714
 20
606.000000
 40
5.000000
 50
90.000000
 51
178.000000
  0
ARC
  8
1
 62
7
  6
CONTINUOUS
 10
398.736571
 20
448.900000
 40
0.500000
 50
-90.000000
 51
0.000000
  0
ARC
  8
1
 62
7
  6
CONTINUOUS
 10
391.736571
 20
449.900000
 40
1.500000
 50
-90.000000
 51
0.000000
  0
ARC
  8
1
 62
7
  6
CONTINUOUS
 10
391.736571
 20
540.100000
 40
1.500000
 50
0.000000
 51
90.000000
  0
ARC
  8
1
 62
7
  6
CONTINUOUS
 10
398.736571
 20
541.100000
 40
0.500000
 50
0.000000
 51
90.000000
  0
ARC
  8
1
 62
7
  6
CONTINUOUS
 10
397.736571
 20
533.000000
 40
1.500000
 50
0.000000
 51
90.000000
  0
ARC
  8
1
 62
7
  6
CONTINUOUS
 10
394.736571
 20
536.000000
 40
1.500000
 50
180.000000
 51
-90.000000
  0
ARC
  8
1
 62
7
  6
CONTINUOUS
 10
399.736571
 20
475.500000
 40
1.500000
 50
-90.000000
 51
90.000000
  0
ARC
  8
1
 62
7
  6
CONTINUOUS
 10
399.736571
 20
514.500000
 40
1.500000
 50
-90.000000
 51
90.000000
  0
ARC
  8
1
 62
7
  6
CONTINUOUS
 10
354.186571
 20
444.500000
 40
0.500000
 50
90.000000
 51
180.000000
  0
ARC
  8
1
 62
7
  6
CONTINUOUS
 10
361.686571
 20
444.500000
 40
0.500000
 50
0.000000
 51
90.000000
  0
ARC
  8
1
 62
7
  6
CONTINUOUS
 10
261.686571
 20
444.500000
 40
0.500000
 50
0.000000
 51
90.000000
  0
ARC
  8
1
 62
7
  6
CONTINUOUS
 10
254.186571
 20
444.500000
 40
0.500000
 50
90.000000
 51
180.000000
  0
ARC
  8
1
 62
7
  6
CONTINUOUS
 10
208.936571
 20
430.000000
 40
1.000000
 50
0.000000
 51
90.000000
  0
ARC
  8
1
 62
7
  6
CONTINUOUS
 10
197.936571
 20
430.000000
 40
1.000000
 50
90.000000
 51
180.000000
  0
ARC
  8
1
 62
7
  6
CONTINUOUS
 10
393.236571
 20
527.000000
 40
1.000000
 50
0.000000
 51
90.000000
  0
ARC
  8
1
 62
7
  6
CONTINUOUS
 10
397.736571
 20
457.000000
 40
1.500000
 50
-90.000000
 51
0.000000
  0
ARC
  8
1
 62
7
  6
CONTINUOUS
 10
394.736571
 20
454.000000
 40
1.500000
 50
90.000000
 51
180.000000
  0
ARC
  8
1
 62
7
  6
CONTINUOUS
 10
392.736571
 20
462.000000
 40
1.500000
 50
-90.000000
 51
0.000000
  0
ARC
  8
1
 62
7
  6
CONTINUOUS
 10
250.860571
 20
447.500000
 40
0.500000
 50
90.000000
 51
180.000000
  0
ARC
  8
1
 62
7
  6
CONTINUOUS
 10
403.776286
 20
428.000000
 40
5.000000
 50
-120.000000
 51
-90.000000
  0
ARC
  8
1
 62
7
  6
CONTINUOUS
 10
380.312286
 20
430.000000
 40
5.000000
 50
60.000000
 51
90.000000
  0
ARC
  8
1
 62
7
  6
CONTINUOUS
 10
235.560857
 20
430.000000
 40
5.000000
 50
90.000000
 51
120.000000
  0
ARC
  8
1
 62
7
  6
CONTINUOUS
 10
212.096857
 20
428.000000
 40
5.000000
 50
-90.000000
 51
-60.000000
  0
ARC
  8
1
 62
7
  6
CONTINUOUS
 10
461.936571
 20
391.000000
 40
3.000000
 50
90.000000
 51
180.000000
  0
ARC
  8
1
 62
7
  6
CONTINUOUS
 10
461.936571
 20
187.000000
 40
3.000000
 50
180.000000
 51
-90.000000
  0
ARC
  8
1
 62
7
  6
CONTINUOUS
 10
431.955714
 20
214.000000
 40
15.000000
 50
90.000000
 51
120.000000
  0
ARC
  8
1
 62
7
  6
CONTINUOUS
 10
405.257143
 20
239.000000
 40
20.000000
 50
-90.000000
 51
-60.000000
  0
ARC
  8
1
 62
7
  6
CONTINUOUS
 10
453.936571
 20
222.484000
 40
5.000000
 50
0.000000
 51
75.000000
  0
ARC
  8
1
 62
7
  6
CONTINUOUS
 10
453.936571
 20
355.516000
 40
5.000000
 50
-75.000000
 51
0.000000
  0
ARC
  8
1
 62
7
  6
CONTINUOUS
 10
429.936571
 20
359.000000
 40
10.000000
 50
180.000000
 51
-90.000000
  0
ARC
  8
1
 62
7
  6
CONTINUOUS
 10
153.936571
 20
391.000000
 40
3.000000
 50
0.000000
 51
90.000000
  0
ARC
  8
1
 62
7
  6
CONTINUOUS
 10
153.936571
 20
187.000000
 40
3.000000
 50
-90.000000
 51
0.000000
  0
ARC
  8
1
 62
7
  6
CONTINUOUS
 10
183.917429
 20
214.000000
 40
15.000000
 50
60.000000
 51
90.000000
  0
ARC
  8
1
 62
7
  6
CONTINUOUS
 10
210.616000
 20
239.000000
 40
20.000000
 50
-120.000000
 51
-90.000000
  0
ARC
  8
1
 62
7
  6
CONTINUOUS
 10
161.936571
 20
222.484000
 40
5.000000
 50
105.000000
 51
180.000000
  0
ARC
  8
1
 62
7
  6
CONTINUOUS
 10
161.936571
 20
355.516000
 40
5.000000
 50
180.000000
 51
-105.000000
  0
ARC
  8
1
 62
7
  6
CONTINUOUS
 10
185.936571
 20
359.000000
 40
10.000000
 50
-90.000000
 51
0.000000
  0
LINE
  8
1
 62
7
  6
CONTINUOUS
 10
387.086571
 20
531.600000
 11
388.236571
 21
531.600000
  0
LINE
  8
1
 62
7
  6
CONTINUOUS
 10
387.086571
 20
458.400000
 11
388.236571
 21
458.400000
  0
LINE
  8
1
 62
7
  6
CONTINUOUS
 10
351.936571
 20
459.000000
 11
353.086571
 21
459.000000
  0
LINE
  8
1
 62
7
  6
CONTINUOUS
 10
350.936571
 20
541.000000
 11
351.936571
 21
541.000000
  0
LINE
  8
1
 62
7
  6
CONTINUOUS
 10
350.436571
 20
449.000000
 11
351.936571
 21
449.000000
  0
LINE
  8
1
 62
7
  6
CONTINUOUS
 10
348.936571
 20
447.500000
 11
348.936571
 21
441.500000
  0
LINE
  8
1
 62
7
  6
CONTINUOUS
 10
274.317714
 20
611.000000
 11
341.555429
 21
611.000000
  0
LINE
  8
1
 62
7
  6
CONTINUOUS
 10
350.446571
 20
556.534857
 11
350.919143
 21
543.000000
  0
LINE
  8
1
 62
7
  6
CONTINUOUS
 10
265.426857
 20
556.534857
 11
264.954000
 21
543.000000
  0
LINE
  8
1
 62
7
  6
CONTINUOUS
 10
346.552286
 20
606.174571
 11
348.218286
 21
558.465143
  0
LINE
  8
1
 62
7
  6
CONTINUOUS
 10
269.320857
 20
606.174571
 11
267.654857
 21
558.465143
  0
LINE
  8
1
 62
7
  6
CONTINUOUS
 10
351.936571
 20
449.000000
 11
353.086571
 21
449.000000
  0
LINE
  8
1
 62
7
  6
CONTINUOUS
 10
387.086571
 20
448.400000
 11
398.736571
 21
448.400000
  0
LINE
  8
1
 62
7
  6
CONTINUOUS
 10
387.086571
 20
448.400000
 11
353.086571
 21
449.000000
  0
LINE
  8
1
 62
7
  6
CONTINUOUS
 10
351.936571
 20
541.000000
 11
353.086571
 21
541.000000
  0
LINE
  8
1
 62
7
  6
CONTINUOUS
 10
387.086571
 20
541.600000
 11
353.086571
 21
541.000000
  0
LINE
  8
1
 62
7
  6
CONTINUOUS
 10
387.086571
 20
541.600000
 11
398.736571
 21
541.600000
  0
LINE
  8
1
 62
7
  6
CONTINUOUS
 10
394.736571
 20
534.500000
 11
397.736571
 21
534.500000
  0
LINE
  8
1
 62
7
  6
CONTINUOUS
 10
393.236571
 20
536.000000
 11
393.236571
 21
540.100000
  0
LINE
  8
1
 62
7
  6
CONTINUOUS
 10
399.736571
 20
520.000000
 11
399.736571
 21
470.000000
  0
LINE
  8
1
 62
7
  6
CONTINUOUS
 10
399.236571
 20
470.000000
 11
399.736571
 21
470.000000
  0
LINE
  8
1
 62
7
  6
CONTINUOUS
 10
399.236571
 20
520.000000
 11
399.736571
 21
520.000000
  0
LINE
  8
1
 62
7
  6
CONTINUOUS
 10
353.686571
 20
444.500000
 11
353.686571
 21
440.000000
  0
LINE
  8
1
 62
7
  6
CONTINUOUS
 10
361.686571
 20
445.000000
 11
354.186571
 21
445.000000
  0
LINE
  8
1
 62
7
  6
CONTINUOUS
 10
362.186571
 20
444.500000
 11
362.186571
 21
440.000000
  0
LINE
  8
1
 62
7
  6
CONTINUOUS
 10
253.686571
 20
444.500000
 11
253.686571
 21
440.000000
  0
LINE
  8
1
 62
7
  6
CONTINUOUS
 10
262.186571
 20
444.500000
 11
262.186571
 21
440.000000
  0
LINE
  8
1
 62
7
  6
CONTINUOUS
 10
254.186571
 20
445.000000
 11
261.686571
 21
445.000000
  0
LINE
  8
1
 62
7
  6
CONTINUOUS
 10
196.936571
 20
430.000000
 11
196.936571
 21
423.000000
  0
LINE
  8
1
 62
7
  6
CONTINUOUS
 10
209.936571
 20
430.000000
 11
209.936571
 21
423.000000
  0
LINE
  8
1
 62
7
  6
CONTINUOUS
 10
197.936571
 20
431.000000
 11
208.936571
 21
431.000000
  0
LINE
  8
1
 62
7
  6
CONTINUOUS
 10
394.186571
 20
525.000000
 11
394.186571
 21
465.000000
  0
LINE
  8
1
 62
7
  6
CONTINUOUS
 10
394.186571
 20
465.000000
 11
394.236571
 21
465.000000
  0
LINE
  8
1
 62
7
  6
CONTINUOUS
 10
394.186571
 20
525.000000
 11
394.236571
 21
525.000000
  0
LINE
  8
1
 62
7
  6
CONTINUOUS
 10
394.736571
 20
455.500000
 11
397.736571
 21
455.500000
  0
LINE
  8
1
 62
7
  6
CONTINUOUS
 10
394.236571
 20
527.000000
 11
394.236571
 21
462.000000
  0
LINE
  8
1
 62
7
  6
CONTINUOUS
 10
393.236571
 20
454.000000
 11
393.236571
 21
449.900000
  0
LINE
  8
1
 62
7
  6
CONTINUOUS
 10
388.236571
 20
460.500000
 11
392.736571
 21
460.500000
  0
LINE
  8
1
 62
7
  6
CONTINUOUS
 10
388.236571
 20
528.000000
 11
393.236571
 21
528.000000
  0
LINE
  8
1
 62
7
  6
CONTINUOUS
 10
388.236571
 20
541.600000
 11
388.236571
 21
448.400000
  0
LINE
  8
1
 62
7
  6
CONTINUOUS
 10
399.236571
 20
541.100000
 11
399.236571
 21
448.900000
  0
LINE
  8
1
 62
7
  6
CONTINUOUS
 10
387.086571
 20
541.600000
 11
387.086571
 21
448.400000
  0
LINE
  8
1
 62
7
  6
CONTINUOUS
 10
250.860571
 20
448.000000
 11
264.936571
 21
448.000000
  0
LINE
  8
1
 62
7
  6
CONTINUOUS
 10
250.360571
 20
447.500000
 11
250.360571
 21
440.000000
  0
LINE
  8
1
 62
7
  6
CONTINUOUS
 10
264.936571
 20
543.000000
 11
264.936571
 21
440.500000
  0
LINE
  8
1
 62
7
  6
CONTINUOUS
 10
350.936571
 20
543.000000
 11
350.936571
 21
541.000000
  0
LINE
  8
1
 62
7
  6
CONTINUOUS
 10
249.936571
 20
439.500000
 11
249.936571
 21
435.000000
  0
LINE
  8
1
 62
7
  6
CONTINUOUS
 10
365.936571
 20
439.500000
 11
365.936571
 21
435.000000
  0
LINE
  8
1
 62
7
  6
CONTINUOUS
 10
419.936571
 20
422.000000
 11
419.936571
 21
413.000000
  0
LINE
  8
1
 62
7
  6
CONTINUOUS
 10
401.276286
 20
423.670000
 11
382.812286
 21
434.330000
  0
LINE
  8
1
 62
7
  6
CONTINUOUS
 10
418.936571
 20
423.000000
 11
419.936571
 21
422.000000
  0
LINE
  8
1
 62
7
  6
CONTINUOUS
 10
214.596857
 20
423.670000
 11
233.060857
 21
434.330000
  0
LINE
  8
1
 62
7
  6
CONTINUOUS
 10
195.936571
 20
422.000000
 11
195.936571
 21
413.000000
  0
LINE
  8
1
 62
7
  6
CONTINUOUS
 10
196.936571
 20
423.000000
 11
195.936571
 21
422.000000
  0
LINE
  8
1
 62
7
  6
CONTINUOUS
 10
424.808571
 20
247.479429
 11
409.936571
 21
252.762857
  0
LINE
  8
1
 62
7
  6
CONTINUOUS
 10
424.808571
 20
244.980571
 11
409.936571
 21
243.865429
  0
LINE
  8
1
 62
7
  6
CONTINUOUS
 10
430.616000
 20
289.000000
 11
430.616000
 21
245.416286
  0
LINE
  8
1
 62
7
  6
CONTINUOUS
 10
482.936571
 20
289.000000
 11
482.936571
 21
184.000000
  0
LINE
  8
1
 62
7
  6
CONTINUOUS
 10
424.455714
 20
226.990286
 11
415.257143
 21
221.679429
  0
LINE
  8
1
 62
7
  6
CONTINUOUS
 10
405.257143
 20
219.000000
 11
307.936571
 21
219.000000
  0
LINE
  8
1
 62
7
  6
CONTINUOUS
 10
448.936571
 20
229.000000
 11
431.955714
 21
229.000000
  0
LINE
  8
1
 62
7
  6
CONTINUOUS
 10
455.230571
 20
227.313429
 11
448.936571
 21
229.000000
  0
LINE
  8
1
 62
7
  6
CONTINUOUS
 10
455.230571
 20
350.686571
 11
448.936571
 21
349.000000
  0
LINE
  8
1
 62
7
  6
CONTINUOUS
 10
419.936571
 20
413.000000
 11
419.936571
 21
359.000000
  0
LINE
  8
1
 62
7
  6
CONTINUOUS
 10
448.936571
 20
349.000000
 11
429.936571
 21
349.000000
  0
LINE
  8
1
 62
7
  6
CONTINUOUS
 10
482.936571
 20
394.000000
 11
482.936571
 21
289.000000
  0
LINE
  8
1
 62
7
  6
CONTINUOUS
 10
482.936571
 20
184.000000
 11
461.936571
 21
184.000000
  0
LINE
  8
1
 62
7
  6
CONTINUOUS
 10
482.936571
 20
394.000000
 11
461.936571
 21
394.000000
  0
LINE
  8
1
 62
7
  6
CONTINUOUS
 10
191.417429
 20
226.990286
 11
200.616000
 21
221.679429
  0
LINE
  8
1
 62
7
  6
CONTINUOUS
 10
210.616000
 20
219.000000
 11
307.936571
 21
219.000000
  0
LINE
  8
1
 62
7
  6
CONTINUOUS
 10
166.936571
 20
229.000000
 11
183.917429
 21
229.000000
  0
LINE
  8
1
 62
7
  6
CONTINUOUS
 10
160.642571
 20
227.313429
 11
166.936571
 21
229.000000
  0
LINE
  8
1
 62
7
  6
CONTINUOUS
 10
160.642571
 20
350.686571
 11
166.936571
 21
349.000000
  0
LINE
  8
1
 62
7
  6
CONTINUOUS
 10
195.936571
 20
413.000000
 11
195.936571
 21
359.000000
  0
LINE
  8
1
 62
7
  6
CONTINUOUS
 10
166.936571
 20
349.000000
 11
185.936571
 21
349.000000
  0
LINE
  8
1
 62
7
  6
CONTINUOUS
 10
132.936571
 20
184.000000
 11
153.936571
 21
184.000000
  0
LINE
  8
1
 62
7
  6
CONTINUOUS
 10
132.936571
 20
394.000000
 11
153.936571
 21
394.000000
  0
LINE
  8
1
 62
7
  6
CONTINUOUS
 10
132.936571
 20
394.000000
 11
132.936571
 21
289.000000
  0
ARC
  8
1
 62
7
  6
CONTINUOUS
 10
728.660571
 20
605.500000
 40
5.000000
 50
2.000000
 51
90.000000
  0
ARC
  8
1
 62
7
  6
CONTINUOUS
 10
661.388000
 20
605.500000
 40
5.000000
 50
90.000000
 51
178.000000
  0
CIRCLE
  8
1
 62
7
  6
CONTINUOUS
 10
664.524286
 20
455.500000
 40
1.500000
  0
CIRCLE
  8
1
 62
7
  6
CONTINUOUS
 10
725.524286
 20
455.500000
 40
3.500000
  0
ARC
  8
1
 62
7
  6
CONTINUOUS
 10
585.024286
 20
430.000000
 40
1.000000
 50
90.000000
 51
180.000000
  0
ARC
  8
1
 62
7
  6
CONTINUOUS
 10
700.524286
 20
430.000000
 40
1.000000
 50
0.000000
 51
90.000000
  0
ARC
  8
1
 62
7
  6
CONTINUOUS
 10
615.631429
 20
430.000000
 40
1.000000
 50
90.000000
 51
180.000000
  0
ARC
  8
1
 62
7
  6
CONTINUOUS
 10
774.416857
 20
430.000000
 40
1.000000
 50
0.000000
 51
90.000000
  0
ARC
  8
1
 62
7
  6
CONTINUOUS
 10
763.416857
 20
430.000000
 40
1.000000
 50
90.000000
 51
180.000000
  0
ARC
  8
1
 62
7
  6
CONTINUOUS
 10
805.024286
 20
430.000000
 40
1.000000
 50
0.000000
 51
90.000000
  0
ARC
  8
1
 62
7
  6
CONTINUOUS
 10
689.524286
 20
430.000000
 40
1.000000
 50
90.000000
 51
180.000000
  0
ARC
  8
1
 62
7
  6
CONTINUOUS
 10
626.631429
 20
430.000000
 40
1.000000
 50
0.000000
 51
90.000000
  0
ARC
  8
1
 62
7
  6
CONTINUOUS
 10
794.024286
 20
430.000000
 40
1.000000
 50
90.000000
 51
180.000000
  0
ARC
  8
1
 62
7
  6
CONTINUOUS
 10
596.024286
 20
430.000000
 40
1.000000
 50
0.000000
 51
90.000000
  0
ARC
  8
1
 62
7
  6
CONTINUOUS
 10
691.274286
 20
444.500000
 40
0.500000
 50
90.000000
 51
180.000000
  0
ARC
  8
1
 62
7
  6
CONTINUOUS
 10
698.774286
 20
444.500000
 40
0.500000
 50
0.000000
 51
90.000000
  0
CIRCLE
  8
1
 62
7
  6
CONTINUOUS
 10
664.524286
 20
534.500000
 40
1.500000
  0
ARC
  8
1
 62
7
  6
CONTINUOUS
 10
733.024286
 20
480.000000
 40
1.000000
 50
90.000000
 51
113.578200
  0
ARC
  8
1
 62
7
  6
CONTINUOUS
 10
733.024286
 20
510.000000
 40
1.000000
 50
-113.578200
 51
-90.000000
  0
ARC
  8
1
 62
7
  6
CONTINUOUS
 10
672.992286
 20
536.000000
 40
1.500000
 50
-169.955200
 51
-90.000000
  0
ARC
  8
1
 62
7
  6
CONTINUOUS
 10
717.056000
 20
536.000000
 40
1.500000
 50
-90.000000
 51
-10.044800
  0
ARC
  8
1
 62
7
  6
CONTINUOUS
 10
727.024286
 20
526.031714
 40
1.500000
 50
100.044800
 51
180.000000
  0
ARC
  8
1
 62
7
  6
CONTINUOUS
 10
664.524286
 20
455.500000
 40
7.100000
 50
100.044800
 51
-10.044800
  0
ARC
  8
1
 62
7
  6
CONTINUOUS
 10
666.524286
 20
441.500000
 40
1.500000
 50
180.000000
 51
-90.000000
  0
ARC
  8
1
 62
7
  6
CONTINUOUS
 10
666.524286
 20
447.500000
 40
1.500000
 50
143.130100
 51
180.000000
  0
ARC
  8
1
 62
7
  6
CONTINUOUS
 10
656.524286
 20
441.500000
 40
1.500000
 50
-90.000000
 51
0.000000
  0
ARC
  8
1
 62
7
  6
CONTINUOUS
 10
653.743143
 20
558.500000
 40
1.000000
 50
-90.000000
 51
-2.000000
  0
ARC
  8
1
 62
7
  6
CONTINUOUS
 10
642.046857
 20
446.500000
 40
1.500000
 50
90.000000
 51
180.000000
  0
ARC
  8
1
 62
7
  6
CONTINUOUS
 10
723.524286
 20
447.500000
 40
1.500000
 50
0.000000
 51
36.869900
  0
ARC
  8
1
 62
7
  6
CONTINUOUS
 10
733.524286
 20
441.500000
 40
1.500000
 50
180.000000
 51
-90.000000
  0
ARC
  8
1
 62
7
  6
CONTINUOUS
 10
748.001429
 20
446.500000
 40
1.500000
 50
0.000000
 51
90.000000
  0
ARC
  8
1
 62
7
  6
CONTINUOUS
 10
746.886571
 20
446.500000
 40
1.500000
 50
0.000000
 51
90.000000
  0
ARC
  8
1
 62
7
  6
CONTINUOUS
 10
739.886571
 20
446.500000
 40
1.500000
 50
0.000000
 51
90.000000
  0
ARC
  8
1
 62
7
  6
CONTINUOUS
 10
652.046857
 20
446.500000
 40
1.500000
 50
90.000000
 51
180.000000
  0
ARC
  8
1
 62
7
  6
CONTINUOUS
 10
643.162000
 20
446.500000
 40
1.500000
 50
90.000000
 51
180.000000
  0
ARC
  8
1
 62
7
  6
CONTINUOUS
 10
650.162000
 20
446.500000
 40
1.500000
 50
90.000000
 51
180.000000
  0
ARC
  8
1
 62
7
  6
CONTINUOUS
 10
738.001429
 20
446.500000
 40
1.500000
 50
0.000000
 51
90.000000
  0
ARC
  8
1
 62
7
  6
CONTINUOUS
 10
723.524286
 20
441.500000
 40
1.500000
 50
-90.000000
 51
0.000000
  0
ARC
  8
1
 62
7
  6
CONTINUOUS
 10
736.305429
 20
558.500000
 40
1.000000
 50
-178.000000
 51
-90.000000
  0
ARC
  8
1
 62
7
  6
CONTINUOUS
 10
736.534857
 20
556.500000
 40
1.000000
 50
2.000000
 51
90.000000
  0
ARC
  8
1
 62
7
  6
CONTINUOUS
 10
653.513714
 20
556.500000
 40
1.000000
 50
90.000000
 51
178.000000
  0
ARC
  8
1
 62
7
  6
CONTINUOUS
 10
622.648571
 20
430.000000
 40
5.000000
 50
90.000000
 51
120.000000
  0
ARC
  8
1
 62
7
  6
CONTINUOUS
 10
599.184571
 20
428.000000
 40
5.000000
 50
-90.000000
 51
-60.000000
  0
ARC
  8
1
 62
7
  6
CONTINUOUS
 10
767.400000
 20
430.000000
 40
5.000000
 50
60.000000
 51
90.000000
  0
ARC
  8
1
 62
7
  6
CONTINUOUS
 10
790.864000
 20
428.000000
 40
5.000000
 50
-120.000000
 51
-90.000000
  0
CIRCLE
  8
1
 62
7
  6
CONTINUOUS
 10
728.509143
 20
208.160571
 40
9.500000
  0
CIRCLE
  8
1
 62
7
  6
CONTINUOUS
 10
775.863714
 20
255.515143
 40
9.500000
  0
CIRCLE
  8
1
 62
7
  6
CONTINUOUS
 10
775.863714
 20
322.484857
 40
9.500000
  0
CIRCLE
  8
1
 62
7
  6
CONTINUOUS
 10
728.509143
 20
369.839429
 40
9.500000
  0
ARC
  8
1
 62
7
  6
CONTINUOUS
 10
787.024286
 20
240.546857
 40
20.000000
 50
-60.000000
 51
0.000000
  0
ARC
  8
1
 62
7
  6
CONTINUOUS
 10
784.344857
 20
239.000000
 40
20.000000
 50
-90.000000
 51
-60.000000
  0
ARC
  8
1
 62
7
  6
CONTINUOUS
 10
695.024286
 20
289.000000
 40
52.000000
 50
-90.000000
 51
90.000000
  0
ARC
  8
1
 62
7
  6
CONTINUOUS
 10
695.024286
 20
289.000000
 40
105.000000
 50
-90.000000
 51
90.000000
  0
ARC
  8
1
 62
7
  6
CONTINUOUS
 10
695.024286
 20
289.000000
 40
50.000000
 50
-90.000000
 51
90.000000
  0
CIRCLE
  8
1
 62
7
  6
CONTINUOUS
 10
661.539429
 20
208.160571
 40
9.500000
  0
CIRCLE
  8
1
 62
7
  6
CONTINUOUS
 10
614.184857
 20
255.515143
 40
9.500000
  0
CIRCLE
  8
1
 62
7
  6
CONTINUOUS
 10
614.184857
 20
322.484857
 40
9.500000
  0
CIRCLE
  8
1
 62
7
  6
CONTINUOUS
 10
661.539429
 20
369.839429
 40
9.500000
  0
ARC
  8
1
 62
7
  6
CONTINUOUS
 10
603.024286
 20
240.546857
 40
20.000000
 50
180.000000
 51
-120.000000
  0
ARC
  8
1
 62
7
  6
CONTINUOUS
 10
605.703714
 20
239.000000
 40
20.000000
 50
-120.000000
 51
-90.000000
  0
ARC
  8
1
 62
7
  6
CONTINUOUS
 10
695.024286
 20
289.000000
 40
52.000000
 50
90.000000
 51
-90.000000
  0
ARC
  8
1
 62
7
  6
CONTINUOUS
 10
695.024286
 20
289.000000
 40
105.000000
 50
90.000000
 51
-90.000000
  0
ARC
  8
1
 62
7
  6
CONTINUOUS
 10
695.024286
 20
289.000000
 40
50.000000
 50
90.000000
 51
-90.000000
  0
CIRCLE
  8
1
 62
7
  6
CONTINUOUS
 10
664.524286
 20
534.500000
 40
4.459429
  0
CIRCLE
  8
1
 62
7
  6
CONTINUOUS
 10
725.524286
 20
534.500000
 40
4.459429
  0
CIRCLE
  8
1
 62
7
  6
CONTINUOUS
 10
725.524286
 20
455.500000
 40
4.459429
  0
CIRCLE
  8
1
 62
7
  6
CONTINUOUS
 10
725.524286
 20
534.500000
 40
3.500000
  0
ARC
  8
1
 62
7
  6
CONTINUOUS
 10
717.056000
 20
454.000000
 40
1.500000
 50
10.044800
 51
90.000000
  0
ARC
  8
1
 62
7
  6
CONTINUOUS
 10
663.024286
 20
526.031714
 40
1.500000
 50
0.000000
 51
79.955200
  0
ARC
  8
1
 62
7
  6
CONTINUOUS
 10
672.992286
 20
454.000000
 40
1.500000
 50
90.000000
 51
169.955200
  0
ARC
  8
1
 62
7
  6
CONTINUOUS
 10
725.524286
 20
534.500000
 40
7.100000
 50
-79.955200
 51
169.955200
  0
ARC
  8
1
 62
7
  6
CONTINUOUS
 10
664.524286
 20
534.500000
 40
7.100000
 50
10.044800
 51
-100.044800
  0
ARC
  8
1
 62
7
  6
CONTINUOUS
 10
727.024286
 20
463.968286
 40
1.500000
 50
180.000000
 51
-100.044800
  0
ARC
  8
1
 62
7
  6
CONTINUOUS
 10
663.024286
 20
463.968286
 40
1.500000
 50
-79.955200
 51
0.000000
  0
ARC
  8
1
 62
7
  6
CONTINUOUS
 10
725.524286
 20
455.500000
 40
7.100000
 50
-169.955200
 51
79.955200
  0
CIRCLE
  8
1
 62
7
  6
CONTINUOUS
 10
664.524286
 20
455.500000
 40
4.459429
  0
CIRCLE
  8
1
 62
7
  6
CONTINUOUS
 10
714.524286
 20
517.500000
 40
0.750000
  0
CIRCLE
  8
1
 62
7
  6
CONTINUOUS
 10
675.524286
 20
517.500000
 40
0.750000
  0
CIRCLE
  8
1
 62
7
  6
CONTINUOUS
 10
714.524286
 20
472.500000
 40
0.750000
  0
CIRCLE
  8
1
 62
7
  6
CONTINUOUS
 10
675.524286
 20
472.500000
 40
0.750000
  0
CIRCLE
  8
1
 62
7
  6
CONTINUOUS
 10
725.524286
 20
534.500000
 40
1.500000
  0
CIRCLE
  8
1
 62
7
  6
CONTINUOUS
 10
664.524286
 20
455.500000
 40
3.500000
  0
CIRCLE
  8
1
 62
7
  6
CONTINUOUS
 10
725.524286
 20
455.500000
 40
1.500000
  0
CIRCLE
  8
1
 62
7
  6
CONTINUOUS
 10
664.524286
 20
534.500000
 40
3.500000
  0
LINE
  8
1
 62
7
  6
CONTINUOUS
 10
728.660571
 20
610.500000
 11
661.388000
 21
610.500000
  0
LINE
  8
1
 62
7
  6
CONTINUOUS
 10
583.024286
 20
422.000000
 11
807.024286
 21
422.000000
  0
LINE
  8
1
 62
7
  6
CONTINUOUS
 10
673.024286
 20
520.000000
 11
673.024286
 21
470.000000
  0
LINE
  8
1
 62
7
  6
CONTINUOUS
 10
725.524286
 20
453.768000
 11
724.024286
 21
454.634000
  0
LINE
  8
1
 62
7
  6
CONTINUOUS
 10
664.524286
 20
457.232000
 11
663.024286
 21
456.366000
  0
LINE
  8
1
 62
7
  6
CONTINUOUS
 10
663.024286
 20
454.634000
 11
663.024286
 21
456.366000
  0
LINE
  8
1
 62
7
  6
CONTINUOUS
 10
664.524286
 20
453.768000
 11
663.024286
 21
454.634000
  0
LINE
  8
1
 62
7
  6
CONTINUOUS
 10
806.024286
 20
423.000000
 11
807.024286
 21
422.000000
  0
LINE
  8
1
 62
7
  6
CONTINUOUS
 10
584.024286
 20
423.000000
 11
583.024286
 21
422.000000
  0
LINE
  8
1
 62
7
  6
CONTINUOUS
 10
717.024286
 20
520.000000
 11
717.024286
 21
470.000000
  0
LINE
  8
1
 62
7
  6
CONTINUOUS
 10
698.774286
 20
444.500000
 11
698.774286
 21
440.000000
  0
LINE
  8
1
 62
7
  6
CONTINUOUS
 10
623.631429
 20
430.000000
 11
623.631429
 21
423.000000
  0
LINE
  8
1
 62
7
  6
CONTINUOUS
 10
625.631429
 20
430.000000
 11
625.631429
 21
423.000000
  0
LINE
  8
1
 62
7
  6
CONTINUOUS
 10
624.631429
 20
430.000000
 11
624.631429
 21
423.000000
  0
LINE
  8
1
 62
7
  6
CONTINUOUS
 10
700.524286
 20
430.000000
 11
700.524286
 21
423.000000
  0
LINE
  8
1
 62
7
  6
CONTINUOUS
 10
622.631429
 20
430.000000
 11
622.631429
 21
423.000000
  0
LINE
  8
1
 62
7
  6
CONTINUOUS
 10
689.524286
 20
430.000000
 11
689.524286
 21
423.000000
  0
LINE
  8
1
 62
7
  6
CONTINUOUS
 10
617.631429
 20
430.000000
 11
617.631429
 21
423.000000
  0
LINE
  8
1
 62
7
  6
CONTINUOUS
 10
618.631429
 20
430.000000
 11
618.631429
 21
423.000000
  0
LINE
  8
1
 62
7
  6
CONTINUOUS
 10
615.631429
 20
430.000000
 11
615.631429
 21
423.000000
  0
LINE
  8
1
 62
7
  6
CONTINUOUS
 10
626.631429
 20
430.000000
 11
626.631429
 21
423.000000
  0
LINE
  8
1
 62
7
  6
CONTINUOUS
 10
614.631429
 20
430.000000
 11
614.631429
 21
423.000000
  0
LINE
  8
1
 62
7
  6
CONTINUOUS
 10
627.631429
 20
430.000000
 11
627.631429
 21
423.000000
  0
LINE
  8
1
 62
7
  6
CONTINUOUS
 10
806.024286
 20
430.000000
 11
806.024286
 21
423.000000
  0
LINE
  8
1
 62
7
  6
CONTINUOUS
 10
793.024286
 20
430.000000
 11
793.024286
 21
423.000000
  0
LINE
  8
1
 62
7
  6
CONTINUOUS
 10
774.416857
 20
431.000000
 11
763.416857
 21
431.000000
  0
LINE
  8
1
 62
7
  6
CONTINUOUS
 10
762.416857
 20
430.000000
 11
762.416857
 21
423.000000
  0
LINE
  8
1
 62
7
  6
CONTINUOUS
 10
689.524286
 20
431.000000
 11
700.524286
 21
431.000000
  0
LINE
  8
1
 62
7
  6
CONTINUOUS
 10
775.416857
 20
430.000000
 11
775.416857
 21
423.000000
  0
LINE
  8
1
 62
7
  6
CONTINUOUS
 10
688.524286
 20
430.000000
 11
688.524286
 21
423.000000
  0
LINE
  8
1
 62
7
  6
CONTINUOUS
 10
701.524286
 20
430.000000
 11
701.524286
 21
423.000000
  0
LINE
  8
1
 62
7
  6
CONTINUOUS
 10
615.631429
 20
431.000000
 11
626.631429
 21
431.000000
  0
LINE
  8
1
 62
7
  6
CONTINUOUS
 10
597.024286
 20
430.000000
 11
597.024286
 21
423.000000
  0
LINE
  8
1
 62
7
  6
CONTINUOUS
 10
584.024286
 20
430.000000
 11
584.024286
 21
423.000000
  0
LINE
  8
1
 62
7
  6
CONTINUOUS
 10
585.024286
 20
431.000000
 11
596.024286
 21
431.000000
  0
LINE
  8
1
 62
7
  6
CONTINUOUS
 10
616.631429
 20
430.000000
 11
616.631429
 21
423.000000
  0
LINE
  8
1
 62
7
  6
CONTINUOUS
 10
620.631429
 20
430.000000
 11
620.631429
 21
423.000000
  0
LINE
  8
1
 62
7
  6
CONTINUOUS
 10
585.024286
 20
430.000000
 11
585.024286
 21
423.000000
  0
LINE
  8
1
 62
7
  6
CONTINUOUS
 10
619.631429
 20
430.000000
 11
619.631429
 21
423.000000
  0
LINE
  8
1
 62
7
  6
CONTINUOUS
 10
805.024286
 20
431.000000
 11
794.024286
 21
431.000000
  0
LINE
  8
1
 62
7
  6
CONTINUOUS
 10
621.631429
 20
430.000000
 11
621.631429
 21
423.000000
  0
LINE
  8
1
 62
7
  6
CONTINUOUS
 10
592.024286
 20
430.000000
 11
592.024286
 21
423.000000
  0
LINE
  8
1
 62
7
  6
CONTINUOUS
 10
597.024286
 20
430.000000
 11
597.024286
 21
423.000000
  0
LINE
  8
1
 62
7
  6
CONTINUOUS
 10
596.024286
 20
430.000000
 11
596.024286
 21
423.000000
  0
LINE
  8
1
 62
7
  6
CONTINUOUS
 10
595.024286
 20
430.000000
 11
595.024286
 21
423.000000
  0
LINE
  8
1
 62
7
  6
CONTINUOUS
 10
594.024286
 20
430.000000
 11
594.024286
 21
423.000000
  0
LINE
  8
1
 62
7
  6
CONTINUOUS
 10
593.024286
 20
430.000000
 11
593.024286
 21
423.000000
  0
LINE
  8
1
 62
7
  6
CONTINUOUS
 10
586.024286
 20
430.000000
 11
586.024286
 21
423.000000
  0
LINE
  8
1
 62
7
  6
CONTINUOUS
 10
591.024286
 20
430.000000
 11
591.024286
 21
423.000000
  0
LINE
  8
1
 62
7
  6
CONTINUOUS
 10
590.024286
 20
430.000000
 11
590.024286
 21
423.000000
  0
LINE
  8
1
 62
7
  6
CONTINUOUS
 10
589.024286
 20
430.000000
 11
589.024286
 21
423.000000
  0
LINE
  8
1
 62
7
  6
CONTINUOUS
 10
588.024286
 20
430.000000
 11
588.024286
 21
423.000000
  0
LINE
  8
1
 62
7
  6
CONTINUOUS
 10
587.024286
 20
430.000000
 11
587.024286
 21
423.000000
  0
LINE
  8
1
 62
7
  6
CONTINUOUS
 10
696.524286
 20
430.000000
 11
696.524286
 21
423.000000
  0
LINE
  8
1
 62
7
  6
CONTINUOUS
 10
699.524286
 20
430.000000
 11
699.524286
 21
423.000000
  0
LINE
  8
1
 62
7
  6
CONTINUOUS
 10
698.524286
 20
430.000000
 11
698.524286
 21
423.000000
  0
LINE
  8
1
 62
7
  6
CONTINUOUS
 10
697.524286
 20
430.000000
 11
697.524286
 21
423.000000
  0
LINE
  8
1
 62
7
  6
CONTINUOUS
 10
690.524286
 20
430.000000
 11
690.524286
 21
423.000000
  0
LINE
  8
1
 62
7
  6
CONTINUOUS
 10
695.524286
 20
430.000000
 11
695.524286
 21
423.000000
  0
LINE
  8
1
 62
7
  6
CONTINUOUS
 10
694.524286
 20
430.000000
 11
694.524286
 21
423.000000
  0
LINE
  8
1
 62
7
  6
CONTINUOUS
 10
693.524286
 20
430.000000
 11
693.524286
 21
423.000000
  0
LINE
  8
1
 62
7
  6
CONTINUOUS
 10
692.524286
 20
430.000000
 11
692.524286
 21
423.000000
  0
LINE
  8
1
 62
7
  6
CONTINUOUS
 10
691.524286
 20
430.000000
 11
691.524286
 21
423.000000
  0
LINE
  8
1
 62
7
  6
CONTINUOUS
 10
766.416857
 20
430.000000
 11
766.416857
 21
423.000000
  0
LINE
  8
1
 62
7
  6
CONTINUOUS
 10
764.416857
 20
430.000000
 11
764.416857
 21
423.000000
  0
LINE
  8
1
 62
7
  6
CONTINUOUS
 10
765.416857
 20
430.000000
 11
765.416857
 21
423.000000
  0
LINE
  8
1
 62
7
  6
CONTINUOUS
 10
767.416857
 20
430.000000
 11
767.416857
 21
423.000000
  0
LINE
  8
1
 62
7
  6
CONTINUOUS
 10
772.416857
 20
430.000000
 11
772.416857
 21
423.000000
  0
LINE
  8
1
 62
7
  6
CONTINUOUS
 10
771.416857
 20
430.000000
 11
771.416857
 21
423.000000
  0
LINE
  8
1
 62
7
  6
CONTINUOUS
 10
774.416857
 20
430.000000
 11
774.416857
 21
423.000000
  0
LINE
  8
1
 62
7
  6
CONTINUOUS
 10
763.416857
 20
430.000000
 11
763.416857
 21
423.000000
  0
LINE
  8
1
 62
7
  6
CONTINUOUS
 10
773.416857
 20
430.000000
 11
773.416857
 21
423.000000
  0
LINE
  8
1
 62
7
  6
CONTINUOUS
 10
769.416857
 20
430.000000
 11
769.416857
 21
423.000000
  0
LINE
  8
1
 62
7
  6
CONTINUOUS
 10
805.024286
 20
430.000000
 11
805.024286
 21
423.000000
  0
LINE
  8
1
 62
7
  6
CONTINUOUS
 10
770.416857
 20
430.000000
 11
770.416857
 21
423.000000
  0
LINE
  8
1
 62
7
  6
CONTINUOUS
 10
768.416857
 20
430.000000
 11
768.416857
 21
423.000000
  0
LINE
  8
1
 62
7
  6
CONTINUOUS
 10
798.024286
 20
430.000000
 11
798.024286
 21
423.000000
  0
LINE
  8
1
 62
7
  6
CONTINUOUS
 10
794.024286
 20
430.000000
 11
794.024286
 21
423.000000
  0
LINE
  8
1
 62
7
  6
CONTINUOUS
 10
795.024286
 20
430.000000
 11
795.024286
 21
423.000000
  0
LINE
  8
1
 62
7
  6
CONTINUOUS
 10
796.024286
 20
430.000000
 11
796.024286
 21
423.000000
  0
LINE
  8
1
 62
7
  6
CONTINUOUS
 10
797.024286
 20
430.000000
 11
797.024286
 21
423.000000
  0
LINE
  8
1
 62
7
  6
CONTINUOUS
 10
804.024286
 20
430.000000
 11
804.024286
 21
423.000000
  0
LINE
  8
1
 62
7
  6
CONTINUOUS
 10
799.024286
 20
430.000000
 11
799.024286
 21
423.000000
  0
LINE
  8
1
 62
7
  6
CONTINUOUS
 10
800.024286
 20
430.000000
 11
800.024286
 21
423.000000
  0
LINE
  8
1
 62
7
  6
CONTINUOUS
 10
801.024286
 20
430.000000
 11
801.024286
 21
423.000000
  0
LINE
  8
1
 62
7
  6
CONTINUOUS
 10
802.024286
 20
430.000000
 11
802.024286
 21
423.000000
  0
LINE
  8
1
 62
7
  6
CONTINUOUS
 10
803.024286
 20
430.000000
 11
803.024286
 21
423.000000
  0
LINE
  8
1
 62
7
  6
CONTINUOUS
 10
690.774286
 20
444.500000
 11
690.774286
 21
440.000000
  0
LINE
  8
1
 62
7
  6
CONTINUOUS
 10
691.274286
 20
445.000000
 11
698.774286
 21
445.000000
  0
LINE
  8
1
 62
7
  6
CONTINUOUS
 10
699.274286
 20
444.500000
 11
699.274286
 21
440.000000
  0
LINE
  8
1
 62
7
  6
CONTINUOUS
 10
691.574286
 20
444.500000
 11
691.574286
 21
440.000000
  0
LINE
  8
1
 62
7
  6
CONTINUOUS
 10
692.374286
 20
444.500000
 11
692.374286
 21
440.000000
  0
LINE
  8
1
 62
7
  6
CONTINUOUS
 10
693.174286
 20
444.500000
 11
693.174286
 21
440.000000
  0
LINE
  8
1
 62
7
  6
CONTINUOUS
 10
693.974286
 20
444.500000
 11
693.974286
 21
440.000000
  0
LINE
  8
1
 62
7
  6
CONTINUOUS
 10
694.774286
 20
444.500000
 11
694.774286
 21
440.000000
  0
LINE
  8
1
 62
7
  6
CONTINUOUS
 10
695.574286
 20
444.500000
 11
695.574286
 21
440.000000
  0
LINE
  8
1
 62
7
  6
CONTINUOUS
 10
696.374286
 20
444.500000
 11
696.374286
 21
440.000000
  0
LINE
  8
1
 62
7
  6
CONTINUOUS
 10
697.174286
 20
444.500000
 11
697.174286
 21
440.000000
  0
LINE
  8
1
 62
7
  6
CONTINUOUS
 10
697.974286
 20
444.500000
 11
697.974286
 21
440.000000
  0
LINE
  8
1
 62
7
  6
CONTINUOUS
 10
745.024286
 20
509.000000
 11
733.024286
 21
509.000000
  0
LINE
  8
1
 62
7
  6
CONTINUOUS
 10
745.024286
 20
481.000000
 11
733.024286
 21
481.000000
  0
LINE
  8
1
 62
7
  6
CONTINUOUS
 10
738.024286
 20
481.000000
 11
738.024286
 21
448.000000
  0
LINE
  8
1
 62
7
  6
CONTINUOUS
 10
745.024286
 20
509.000000
 11
745.024286
 21
481.000000
  0
LINE
  8
1
 62
7
  6
CONTINUOUS
 10
732.024286
 20
452.643429
 11
732.024286
 21
441.500000
  0
LINE
  8
1
 62
7
  6
CONTINUOUS
 10
658.024286
 20
452.643429
 11
658.024286
 21
441.500000
  0
LINE
  8
1
 62
7
  6
CONTINUOUS
 10
753.024286
 20
440.000000
 11
753.024286
 21
435.000000
  0
LINE
  8
1
 62
7
  6
CONTINUOUS
 10
753.024286
 20
435.000000
 11
695.024286
 21
435.000000
  0
LINE
  8
1
 62
7
  6
CONTINUOUS
 10
637.024286
 20
440.000000
 11
637.024286
 21
435.000000
  0
LINE
  8
1
 62
7
  6
CONTINUOUS
 10
732.024286
 20
448.000000
 11
748.001429
 21
448.000000
  0
LINE
  8
1
 62
7
  6
CONTINUOUS
 10
637.024286
 20
435.000000
 11
695.024286
 21
435.000000
  0
LINE
  8
1
 62
7
  6
CONTINUOUS
 10
641.662000
 20
446.500000
 11
641.662000
 21
440.000000
  0
LINE
  8
1
 62
7
  6
CONTINUOUS
 10
658.024286
 20
448.000000
 11
642.046857
 21
448.000000
  0
LINE
  8
1
 62
7
  6
CONTINUOUS
 10
640.546857
 20
446.500000
 11
640.546857
 21
440.000000
  0
LINE
  8
1
 62
7
  6
CONTINUOUS
 10
653.743143
 20
557.500000
 11
653.780857
 21
557.500000
  0
LINE
  8
1
 62
7
  6
CONTINUOUS
 10
652.024286
 20
543.000000
 11
695.024286
 21
543.000000
  0
LINE
  8
1
 62
7
  6
CONTINUOUS
 10
741.386571
 20
446.500000
 11
741.386571
 21
440.000000
  0
LINE
  8
1
 62
7
  6
CONTINUOUS
 10
739.501429
 20
446.500000
 11
739.501429
 21
440.000000
  0
LINE
  8
1
 62
7
  6
CONTINUOUS
 10
749.501429
 20
446.500000
 11
749.501429
 21
440.000000
  0
LINE
  8
1
 62
7
  6
CONTINUOUS
 10
748.386571
 20
446.500000
 11
748.386571
 21
440.000000
  0
LINE
  8
1
 62
7
  6
CONTINUOUS
 10
648.662000
 20
446.500000
 11
648.662000
 21
440.000000
  0
LINE
  8
1
 62
7
  6
CONTINUOUS
 10
650.546857
 20
446.500000
 11
650.546857
 21
440.000000
  0
LINE
  8
1
 62
7
  6
CONTINUOUS
 10
653.513714
 20
557.500000
 11
736.534857
 21
557.500000
  0
LINE
  8
1
 62
7
  6
CONTINUOUS
 10
637.024286
 20
440.000000
 11
695.024286
 21
440.000000
  0
LINE
  8
1
 62
7
  6
CONTINUOUS
 10
753.024286
 20
440.000000
 11
695.024286
 21
440.000000
  0
LINE
  8
1
 62
7
  6
CONTINUOUS
 10
725.024286
 20
447.500000
 11
725.024286
 21
441.500000
  0
LINE
  8
1
 62
7
  6
CONTINUOUS
 10
665.024286
 20
447.500000
 11
665.024286
 21
441.500000
  0
LINE
  8
1
 62
7
  6
CONTINUOUS
 10
736.534857
 20
557.500000
 11
736.305429
 21
557.500000
  0
LINE
  8
1
 62
7
  6
CONTINUOUS
 10
733.657429
 20
605.674571
 11
735.306000
 21
558.465143
  0
LINE
  8
1
 62
7
  6
CONTINUOUS
 10
656.391143
 20
605.674571
 11
654.742571
 21
558.465143
  0
LINE
  8
1
 62
7
  6
CONTINUOUS
 10
652.514286
 20
556.534857
 11
652.041714
 21
543.000000
  0
LINE
  8
1
 62
7
  6
CONTINUOUS
 10
653.513714
 20
557.500000
 11
653.743143
 21
557.500000
  0
LINE
  8
1
 62
7
  6
CONTINUOUS
 10
738.024286
 20
543.000000
 11
695.024286
 21
543.000000
  0
LINE
  8
1
 62
7
  6
CONTINUOUS
 10
737.534000
 20
556.534857
 11
738.006857
 21
543.000000
  0
LINE
  8
1
 62
7
  6
CONTINUOUS
 10
738.024286
 20
543.000000
 11
738.024286
 21
509.000000
  0
LINE
  8
1
 62
7
  6
CONTINUOUS
 10
652.024286
 20
543.000000
 11
652.024286
 21
448.000000
  0
LINE
  8
1
 62
7
  6
CONTINUOUS
 10
601.684571
 20
423.670000
 11
620.148571
 21
434.330000
  0
LINE
  8
1
 62
7
  6
CONTINUOUS
 10
788.364000
 20
423.670000
 11
769.900000
 21
434.330000
  0
LINE
  8
1
 62
7
  6
CONTINUOUS
 10
797.024286
 20
223.226571
 11
794.344857
 21
221.679429
  0
LINE
  8
1
 62
7
  6
CONTINUOUS
 10
806.024286
 20
423.000000
 11
584.024286
 21
423.000000
  0
LINE
  8
1
 62
7
  6
CONTINUOUS
 10
784.344857
 20
219.000000
 11
773.286571
 21
219.000000
  0
LINE
  8
1
 62
7
  6
CONTINUOUS
 10
807.024286
 20
422.000000
 11
807.024286
 21
240.546857
  0
LINE
  8
1
 62
7
  6
CONTINUOUS
 10
807.024286
 20
413.000000
 11
695.024286
 21
413.000000
  0
LINE
  8
1
 62
7
  6
CONTINUOUS
 10
725.524286
 20
526.031714
 11
725.524286
 21
463.358000
  0
LINE
  8
1
 62
7
  6
CONTINUOUS
 10
593.024286
 20
223.226571
 11
595.703714
 21
221.679429
  0
LINE
  8
1
 62
7
  6
CONTINUOUS
 10
767.400000
 20
435.000000
 11
622.648571
 21
435.000000
  0
LINE
  8
1
 62
7
  6
CONTINUOUS
 10
605.703714
 20
219.000000
 11
616.761714
 21
219.000000
  0
LINE
  8
1
 62
7
  6
CONTINUOUS
 10
583.024286
 20
422.000000
 11
583.024286
 21
240.546857
  0
LINE
  8
1
 62
7
  6
CONTINUOUS
 10
583.024286
 20
413.000000
 11
695.024286
 21
413.000000
  0
LINE
  8
1
 62
7
  6
CONTINUOUS
 10
672.992286
 20
534.500000
 11
717.056000
 21
534.500000
  0
LINE
  8
1
 62
7
  6
CONTINUOUS
 10
664.524286
 20
526.031714
 11
664.524286
 21
463.358000
  0
LINE
  8
1
 62
7
  6
CONTINUOUS
 10
672.992286
 20
455.500000
 11
717.056000
 21
455.500000
  0
LINE
  8
1
 62
7
  6
CONTINUOUS
 10
732.624286
 20
534.500000
 11
732.624286
 21
455.500000
  0
LINE
  8
1
 62
7
  6
CONTINUOUS
 10
725.524286
 20
541.600000
 11
695.024286
 21
541.600000
  0
LINE
  8
1
 62
7
  6
CONTINUOUS
 10
664.524286
 20
541.600000
 11
695.024286
 21
541.600000
  0
LINE
  8
1
 62
7
  6
CONTINUOUS
 10
725.524286
 20
448.400000
 11
695.024286
 21
448.400000
  0
LINE
  8
1
 62
7
  6
CONTINUOUS
 10
664.524286
 20
448.400000
 11
695.024286
 21
448.400000
  0
LINE
  8
1
 62
7
  6
CONTINUOUS
 10
725.524286
 20
536.232000
 11
724.024286
 21
535.366000
  0
LINE
  8
1
 62
7
  6
CONTINUOUS
 10
657.424286
 20
534.500000
 11
657.424286
 21
455.500000
  0
LINE
  8
1
 62
7
  6
CONTINUOUS
 10
664.524286
 20
532.768000
 11
663.024286
 21
533.634000
  0
LINE
  8
1
 62
7
  6
CONTINUOUS
 10
663.024286
 20
535.366000
 11
663.024286
 21
533.634000
  0
LINE
  8
1
 62
7
  6
CONTINUOUS
 10
664.524286
 20
536.232000
 11
663.024286
 21
535.366000
  0
LINE
  8
1
 62
7
  6
CONTINUOUS
 10
666.024286
 20
533.634000
 11
664.524286
 21
532.768000
  0
LINE
  8
1
 62
7
  6
CONTINUOUS
 10
666.024286
 20
535.366000
 11
666.024286
 21
533.634000
  0
LINE
  8
1
 62
7
  6
CONTINUOUS
 10
664.524286
 20
536.232000
 11
666.024286
 21
535.366000
  0
LINE
  8
1
 62
7
  6
CONTINUOUS
 10
724.024286
 20
535.366000
 11
724.024286
 21
533.634000
  0
LINE
  8
1
 62
7
  6
CONTINUOUS
 10
724.024286
 20
533.634000
 11
725.524286
 21
532.768000
  0
LINE
  8
1
 62
7
  6
CONTINUOUS
 10
725.524286
 20
536.232000
 11
727.024286
 21
535.366000
  0
LINE
  8
1
 62
7
  6
CONTINUOUS
 10
727.024286
 20
535.366000
 11
727.024286
 21
533.634000
  0
LINE
  8
1
 62
7
  6
CONTINUOUS
 10
725.524286
 20
532.768000
 11
727.024286
 21
533.634000
  0
LINE
  8
1
 62
7
  6
CONTINUOUS
 10
725.524286
 20
457.232000
 11
727.024286
 21
456.366000
  0
LINE
  8
1
 62
7
  6
CONTINUOUS
 10
727.024286
 20
454.634000
 11
727.024286
 21
456.366000
  0
LINE
  8
1
 62
7
  6
CONTINUOUS
 10
725.524286
 20
453.768000
 11
727.024286
 21
454.634000
  0
LINE
  8
1
 62
7
  6
CONTINUOUS
 10
724.024286
 20
456.366000
 11
725.524286
 21
457.232000
  0
LINE
  8
1
 62
7
  6
CONTINUOUS
 10
724.024286
 20
454.634000
 11
724.024286
 21
456.366000
  0
LINE
  8
1
 62
7
  6
CONTINUOUS
 10
664.524286
 20
453.768000
 11
666.024286
 21
454.634000
  0
LINE
  8
1
 62
7
  6
CONTINUOUS
 10
666.024286
 20
454.634000
 11
666.024286
 21
456.366000
  0
LINE
  8
1
 62
7
  6
CONTINUOUS
 10
666.024286
 20
456.366000
 11
664.524286
 21
457.232000
  0
LINE
  8
1
 62
7
  6
CONTINUOUS
 10
673.024286
 20
520.000000
 11
717.024286
 21
520.000000
  0
LINE
  8
1
 62
7
  6
CONTINUOUS
 10
673.024286
 20
470.000000
 11
717.024286
 21
470.000000
  0
LINE
  8
1
 62
7
  6
CONTINUOUS
 10
107.936571
 20
297.660286
 11
107.936571
 21
284.000000
  0
LINE
  8
1
 62
7
  6
CONTINUOUS
 10
107.936571
 20
297.660286
 11
122.936571
 21
289.000000
  0
LINE
  8
1
 62
7
  6
CONTINUOUS
 10
82.936571
 20
289.000000
 11
122.936571
 21
289.000000
  0
DIMENSION
  8
1
 62
7
  6
CONTINUOUS
  2
*D1
 10
738.024286
 20
647.351714
 11
696.454857
 21
612.066000
 70
     0
  1
ƒÓ86
 13
738.024286
 23
588.714286
 14
652.024286
 24
588.714286
 50
180.000000
  0
DIMENSION
  8
1
 62
7
  6
CONTINUOUS
  2
*D2
 10
807.024286
 20
675.292857
 11
690.521714
 21
640.007143
 70
     0
  1
ƒÓ224
 13
807.024286
 23
467.714286
 14
583.024286
 24
467.714286
 50
180.000000
  0
DIMENSION
  8
1
 62
7
  6
CONTINUOUS
  2
*D3
 10
482.936571
 20
153.160000
 11
308.561429
 21
117.874286
 70
     0
  1
350
 13
482.936571
 23
138.285714
 14
132.936571
 24
138.285714
 50
180.000000
  0
DIMENSION
  8
1
 62
7
  6
CONTINUOUS
  2
*D4
 10
401.236571
 20
670.634857
 11
356.017143
 21
635.349143
 70
     0
  1
93.3
 13
401.236571
 23
560.214286
 14
307.936571
 24
667.451714
 50
180.000000
  0
DIMENSION
  8
1
 62
7
  6
CONTINUOUS
  2
*D5
 10
525.576857
 20
394.000000
 11
560.862571
 21
290.430571
 70
     0
  1
ƒÓ210
 13
528.650857
 23
394.000000
 14
528.650857
 24
184.000000
 50
-90.000000
  0
LINE
  8
1
 62
7
  6
DASHDOT
 10
307.936571
 20
683.456012
 11
307.936571
 21
156.260475
  0
LINE
  8
1
 62
7
  6
DASHDOT
 10
98.693912
 20
289.000000
 11
504.228941
 21
289.000000
  0
LINE
  8
1
 62
7
  6
DASHDOT
 10
553.794333
 20
289.000000
 11
855.692632
 21
289.000000
  0
LINE
  8
1
 62
7
  6
DASHDOT
 10
695.024286
 20
683.456012
 11
695.024286
 21
156.260475
  0
LINE
  8
1
 62
7
  6
CONTINUOUS
 10
156.936571
 20
391.000000
 11
156.936571
 21
289.000000
  0
LINE
  8
1
 62
7
  6
CONTINUOUS
 10
156.936571
 20
289.000000
 11
156.936571
 21
187.000000
  0
LINE
  8
1
 62
7
  6
CONTINUOUS
 10
458.936571
 20
391.000000
 11
458.936571
 21
289.000000
  0
LINE
  8
1
 62
7
  6
CONTINUOUS
 10
458.936571
 20
289.000000
 11
458.936571
 21
187.000000
  0
ENDSEC
  0
EOF
